osu file format v13

[General]
AudioFilename: Fear, and Loathing in Las Vegas - Let Me Hear.mp3
AudioLeadIn: 1000
PreviewTime: 60745
Countdown: 0
SampleSet: Soft
StackLeniency: 0.7
Mode: 0
LetterboxInBreaks: 0
WidescreenStoryboard: 1

[Editor]
DistanceSpacing: 0.8
BeatDivisor: 4
GridSize: 4
TimelineZoom: 1.4

[Metadata]
Title:Let Me Hear
TitleUnicode:Let Me Hear
Artist:Fear, and Loathing in Las Vegas
ArtistUnicode:Fear, and Loathing in Las Vegas
Creator:wendao
Version:Normal
Source:寄生獣 セイの格率
Tags:Parasyte: Probability of Survival the Maxim Kiseijuu Sei no Kakuritsu TV Size opening val0108
BeatmapID:549538
BeatmapSetID:229285

[Difficulty]
HPDrainRate:3.4
CircleSize:3.2
OverallDifficulty:3.6
ApproachRate:4.8
SliderMultiplier:1.2
SliderTickRate:2

[Events]
//Background and Video events
0,0,"randombg.jpg",0,0
//Break Periods
2,22141,25935
//Storyboard Layer 0 (Background)
//Storyboard Layer 1 (Fail)
//Storyboard Layer 2 (Pass)
//Storyboard Layer 3 (Foreground)
//Storyboard Sound Samples
//Background Colour Transformations
3,100,163,162,255

[TimingPoints]
1072,326.086956521739,4,2,1,40,1,0
2702,-100,4,2,2,40,0,0
2865,-100,4,2,1,40,0,0
5311,-100,4,2,2,40,0,0
5474,-100,4,2,1,40,0,0
11832,-100,4,2,1,50,0,0
11995,-100,4,2,1,40,0,0
12158,-100,4,2,2,50,0,0
12321,-100,4,2,1,40,0,0
12485,-100,4,2,1,50,0,0
13300,-100,4,2,1,40,0,0
13463,-100,4,2,2,50,0,0
13626,-100,4,2,1,40,0,0
13789,-100,4,2,1,50,0,0
14604,-100,4,2,1,40,0,0
15093,-100,4,2,1,50,0,0
15256,-100,4,2,1,40,0,0
15745,-100,4,2,1,50,0,0
16724,-100,4,2,1,40,0,0
17050,-100,4,2,1,50,0,0
17213,-100,4,2,1,40,0,0
17376,-100,4,2,2,50,0,0
17539,-100,4,2,1,40,0,0
17702,-100,4,2,1,50,0,0
18517,-100,4,2,1,40,0,0
18680,-100,4,2,2,50,0,0
18843,-100,4,2,1,40,0,0
19006,-100,4,2,1,50,0,0
19169,-100,4,2,1,40,0,0
19658,-100,4,2,1,50,0,0
19821,-100,4,2,1,40,0,0
20311,-100,4,2,1,50,0,0
21289,-100,4,2,1,60,0,0
21941,-100,4,2,1,60,0,1
22104,-100,4,2,1,60,0,0
34495,-100,4,2,2,40,0,0
34658,-100,4,2,1,60,0,0
37104,-100,4,2,2,40,0,0
37267,-100,4,2,1,60,0,0
39713,-100,4,2,2,40,0,0
39876,-100,4,2,1,60,0,0
42321,-100,4,2,42,40,0,0
42485,-100,4,2,1,60,0,0
47050,-100,4,2,69,60,0,0
47213,-100,4,2,1,60,0,0
50963,-100,4,2,69,60,0,0
51126,-100,4,2,1,60,0,0
53408,-100,4,2,2,60,0,0
53571,-100,4,2,1,60,0,0
54387,-100,4,2,2,60,0,0
54550,-100,4,2,1,60,0,0
55528,-100,4,2,69,60,0,0
55691,-100,4,2,1,60,0,0
56017,-100,4,2,2,60,0,0
56180,-100,4,2,1,60,0,0
56995,-100,4,2,2,60,0,0
57158,-100,4,2,1,60,0,0
59767,-100,4,2,1,20,0,0
61071,-100,4,2,1,60,0,1
61887,-100,4,2,2,60,0,1
62050,-100,4,2,1,60,0,1
64495,-100,4,2,2,60,0,1
64658,-100,4,2,1,60,0,1
67104,-100,4,2,2,60,0,1
67267,-100,4,2,1,60,0,1
69713,-100,4,2,2,60,0,1
69876,-100,4,2,1,60,0,1
72321,-100,4,2,2,60,0,1
72485,-100,4,2,1,60,0,1
72648,-100,4,2,2,60,0,1
72811,-100,4,2,1,60,0,1
74930,-100,4,2,2,60,0,1
75093,-100,4,2,1,60,0,1
75256,-100,4,2,2,60,0,1
75419,-100,4,2,1,60,0,1
77213,-100,4,2,2,60,0,1
77376,-100,4,2,1,60,0,1
78191,-100,4,2,3,60,0,1
78354,-100,4,2,1,60,0,1
78680,-100,4,2,3,60,0,1
78843,-100,4,2,1,60,0,1
79332,-100,4,2,1,60,0,0
88789,-100,4,2,1,50,0,0
88952,-100,4,2,1,40,0,0
89115,-100,4,2,1,30,0,0
89278,-100,4,2,1,20,0,0
89441,-100,4,2,1,10,0,0

[Colours]
Combo1 : 120,240,240
Combo2 : 200,240,120
Combo3 : 180,90,90
Combo4 : 120,120,120

[HitObjects]
340,120,1072,6,0,P|320:176|324:236,1,120,2|2,0:0|0:0,0:0:0:0:
440,268,1724,2,0,P|460:212|456:152,1,120,2|2,0:0|0:0,0:0:0:0:
380,60,2376,2,0,B|296:92|296:92|148:72,1,240,2|2,0:0|0:0,0:0:0:0:
32,224,3680,6,0,P|88:204|148:208,1,120,2|2,0:0|0:0,0:0:0:0:
232,292,4332,2,0,P|288:312|348:308,1,120,2|2,0:0|0:0,0:0:0:0:
456,252,4985,2,0,B|500:136|412:136|456:16,1,240,2|2,0:0|0:0,0:0:0:0:
272,80,6289,6,0,L|152:72,2,120,2|2|2,0:0|0:0|0:0,0:0:0:0:
80,220,7593,2,0,L|200:212,2,120,2|2|2,0:0|0:0|0:0,0:0:0:0:
284,348,8898,6,0,P|332:316|352:256,1,120,2|2,0:0|0:0,0:0:0:0:
304,148,9550,1,2,0:0:0:0:
184,160,9876,2,0,B|124:156|124:156|76:120,2,120,2|2|2,0:0|0:0|0:0,0:0:0:0:
304,148,10854,2,0,B|364:152|364:152|412:188,1,120,2|2,0:0|0:0,0:0:0:0:
452,300,11506,5,2,0:0:0:0:
452,300,11832,2,0,B|400:332|400:332|224:304,1,240,8|8,0:1|0:1,0:0:0:0:
60,132,13137,2,0,P|164:188|280:172,1,240,8|8,0:1|0:1,0:0:0:0:
460,16,14441,6,0,L|456:136,1,120,8|2,0:1|0:0,0:0:0:0:
340,112,15093,2,0,L|344:232,1,120,8|2,0:1|0:0,0:0:0:0:
408,332,15745,5,8,0:1:0:0:
292,308,16071,2,0,B|256:356|256:356|220:308,1,120,2|12,1:2|1:1,0:0:0:0:
104,332,16724,1,2,0:0:0:0:
104,332,17050,6,0,P|72:280|200:232,1,240,8|8,0:1|0:1,0:0:0:0:
408,332,18354,2,0,P|440:280|312:232,1,240,8|8,0:1|0:1,0:0:0:0:
256,124,19332,6,0,B|240:64|272:64|256:4,2,120,2|8|2,0:0|0:1|0:0,0:0:0:0:
194,225,20311,1,8,0:1:0:0:
258,325,20637,1,6,0:0:0:0:
317,225,20963,1,6,0:0:0:0:
256,124,21289,2,0,L|256:64,2,60,8|8|8,0:0|0:0|0:0,0:0:0:0:
260,128,21941,5,6,0:0:0:0:
80,100,27158,6,0,P|136:80|196:84,1,120,2|2,0:0|0:0,0:0:0:0:
248,112,27648,2,0,B|296:148|296:148|416:140,1,180,8|10,0:0|0:0,0:0:0:0:
452,256,28463,1,2,0:0:0:0:
452,256,28626,2,0,L|272:268,1,180,8|10,0:0|0:0,0:0:0:0:
176,340,29441,1,2,0:0:0:0:
60,308,29767,6,0,P|40:252|44:192,1,120,2|2,0:0|0:0,0:0:0:0:
84,148,30256,2,0,B|172:144|172:144|228:72,1,180,8|10,0:0|0:0,0:0:0:0:
340,120,31071,2,0,L|263:218,1,120,8|8,0:0|0:0,0:0:0:0:
200,316,31724,1,8,0:0:0:0:
256,336,31887,1,8,0:0:0:0:
312,316,32050,1,8,0:0:0:0:
316,320,32376,6,0,P|372:300|432:304,1,120,6|10,0:0|0:0,0:0:0:0:
504,208,33028,2,0,L|512:88,1,120,2|10,0:0|0:0,0:0:0:0:
400,44,33680,2,0,L|392:164,1,120,2|10,0:0|0:0,0:0:0:0:
300,240,34332,1,2,0:0:0:0:
303,299,34495,1,2,0:0:0:0:
307,359,34658,1,10,0:0:0:0:
200,308,34985,6,0,P|144:328|84:324,1,120,2|10,0:0|0:0,0:0:0:0:
68,204,35637,2,0,P|124:184|184:188,1,120,2|10,0:0|0:0,0:0:0:0:
300,240,36289,2,0,L|420:232,1,120,2|10,0:0|0:0,0:0:0:0:
432,112,36941,1,2,0:0:0:0:
372,115,37104,1,2,0:0:0:0:
312,119,37267,1,10,0:0:0:0:
208,176,37593,6,0,P|188:232|192:292,1,120,2|10,0:0|0:0,0:0:0:0:
280,372,38245,1,2,0:0:0:0:
280,372,38571,1,10,0:0:0:0:
384,316,38898,2,0,P|404:260|400:200,1,120,2|10,0:0|0:0,0:0:0:0:
312,120,39550,2,0,L|320:57,2,60,2|2|10,0:0|0:0|0:0,0:0:0:0:
208,176,40202,6,0,P|152:195|91:191,1,120,2|10,0:0|0:0,0:0:0:0:
76,72,40854,2,0,P|132:52|192:56,1,120,2|10,0:0|0:0,0:0:0:0:
292,124,41506,2,0,L|284:248,1,120,2|10,0:0|0:0,0:0:0:0:
396,288,42158,2,0,L|404:164,1,120,2|10,0:0|0:0,0:0:0:0:
492,88,42811,5,6,0:0:0:0:
384,36,43137,1,10,0:0:0:0:
284,104,43463,2,0,P|228:124|168:120,1,120,2|10,0:0|0:0,0:0:0:0:
68,56,44115,5,2,0:0:0:0:
88,176,44441,1,10,0:0:0:0:
108,296,44767,2,0,L|228:288,1,120,2|10,0:0|0:0,0:0:0:0:
324,216,45419,6,0,P|348:272|340:332,2,120,2|10|2,0:0|0:0|0:0,0:0:0:0:
228,144,46398,1,10,0:0:0:0:
116,184,46724,2,0,P|32:200|84:112,1,240,2|2,0:0|0:0,0:0:0:0:
176,36,47702,1,10,0:0:0:0:
232,60,47865,1,8,0:0:0:0:
292,48,48028,1,2,0:0:0:0:
392,116,48354,6,0,B|388:176|388:176|438:209,1,120,10|2,0:0|0:0,0:0:0:0:
364,304,49006,2,0,B|314:270|314:270|260:297,1,120,10|2,0:0|0:0,0:0:0:0:
215,185,49658,2,0,B|268:158|268:158|272:98,1,120,10|2,0:0|0:0,0:0:0:0:
180,20,50311,1,10,0:0:0:0:
84,92,50637,6,0,L|100:336,1,240,2|2,0:0|0:0,0:0:0:0:
212,288,51615,1,10,0:0:0:0:
312,352,51941,1,2,0:0:0:0:
360,304,52104,1,8,0:0:0:0:
419,307,52267,1,10,0:0:0:0:
472,200,52593,2,0,L|468:140,3,60,10|8|10|8,0:0|0:0|0:0|0:0,0:0:0:0:
488,84,53245,6,0,P|420:132|328:124,1,180,14|10,0:0|0:0,0:0:0:0:
148,96,54224,2,0,P|223:130|262:214,1,180,10|10,0:0|0:0,0:0:0:0:
328,384,55202,2,0,P|320:301|373:225,1,180,10|2,0:0|0:0,0:0:0:0:
424,192,55854,6,0,B|484:196|484:196|512:80,1,180,14|10,0:0|0:0,0:0:0:0:
344,20,56832,2,0,B|284:16|284:16|256:132,1,180,10|10,0:0|0:0,0:0:0:0:
336,292,57811,2,0,P|280:312|220:308,1,120,10|10,0:0|0:0,0:0:0:0:
168,280,58300,1,0,0:0:0:0:
140,228,58463,1,8,0:0:0:0:
256,192,58626,12,0,59767,0:0:0:0:
80,140,61071,6,0,L|260:128,1,180,6|2,0:0|0:0,0:0:0:0:
312,96,61724,2,0,P|264:172|280:256,1,180,8|2,0:0|0:0,0:0:0:0:
384,316,62539,2,0,L|392:196,1,120,8|2,0:0|0:0,0:0:0:0:
420,144,63028,1,8,0:0:0:0:
312,96,63354,1,2,0:0:0:0:
256,76,63517,1,8,0:0:0:0:
200,96,63680,6,0,B|196:156|196:156|100:228,1,180,2|2,0:0|0:0,0:0:0:0:
48,256,64332,2,0,P|112:224|228:248,1,180,8|2,0:0|0:0,0:0:0:0:
308,316,65148,2,0,P|364:336|424:328,1,120,8|2,0:0|0:0,0:0:0:0:
464,284,65637,2,0,L|472:164,1,120,8|8,0:0|0:0,0:0:0:0:
500,112,66126,1,8,0:0:0:0:
472,60,66289,6,0,P|401:109|313:97,1,180,6|2,0:0|0:0,0:0:0:0:
256,76,66941,2,0,P|168:63|96:112,1,180,8|2,0:0|0:0,0:0:0:0:
80,232,67756,2,0,P|136:212|196:220,1,120,8|2,0:0|0:0,0:0:0:0:
244,256,68245,2,0,P|300:276|360:268,1,120,8|2,0:0|0:0,0:0:0:0:
404,228,68735,1,8,0:0:0:0:
412,168,68898,5,2,0:0:0:0:
256,76,69387,1,2,0:0:0:0:
256,76,69550,2,0,L|244:256,1,180,8|2,0:0|0:0,0:0:0:0:
128,284,70365,2,0,L|136:164,1,120,8|2,0:0|0:0,0:0:0:0:
140,104,70854,2,0,L|144:44,2,60,8|8|4,0:0|0:3|0:3,0:0:0:0:
240,172,71506,6,0,P|328:176|400:124,1,180,2|2,0:0|0:0,0:0:0:0:
408,64,72158,2,0,B|400:124|400:124|440:236|440:236|432:296,1,240,8|2,0:0|0:0,0:0:0:0:
408,352,72974,1,8,0:0:0:0:
320,268,73300,2,0,L|316:328,1,60,2|8,0:0|0:0,0:0:0:0:
196,327,73789,2,0,L|192:267,1,60,8|8,0:0|0:0,0:0:0:0:
156,220,74115,6,0,P|240:196|284:120,1,180,2|2,0:0|0:0,0:0:0:0:
272,60,74767,2,0,P|284:120|348:36,1,240,8|2,0:0|0:0,0:0:0:0:
350,37,75582,1,8,0:0:0:0:
448,108,75908,2,0,L|512:104,1,60,2|8,0:0|0:0,0:0:0:0:
464,216,76398,2,0,L|400:212,1,60,8|8,0:0|0:0,0:0:0:0:
344,216,76724,6,0,B|320:256|328:304|328:304|264:256|188:284,1,240,2|8,0:0|0:0,0:0:0:0:
100,204,77702,1,0,0:0:0:0:
160,100,78028,2,0,P|248:116|324:72,2,180,2|2|8,0:0|0:0|0:0,0:0:0:0:
100,204,79332,6,0,L|108:324,1,120,10|10,0:0|0:0,0:0:0:0:
228,340,79985,2,0,L|220:220,1,120,10|10,0:0|0:0,0:0:0:0:
340,236,80637,2,0,L|348:356,1,120,10|10,0:0|0:0,0:0:0:0:
468,372,81289,2,0,L|460:252,1,120,10|10,0:0|0:0,0:0:0:0:
512,144,81941,5,10,0:0:0:0:
400,188,82267,1,10,0:0:0:0:
292,136,82593,2,0,P|272:80|280:20,1,120,10|10,0:0|0:0,0:0:0:0:
400,8,83245,2,0,P|420:64|412:124,1,120,10|10,0:0|0:0,0:0:0:0:
328,208,83898,1,10,0:0:0:0:
208,188,84224,1,10,0:0:0:0:
108,256,84550,6,0,L|100:376,1,120,10|10,0:0|0:0,0:0:0:0:
220,356,85202,2,0,L|212:236,1,120,10|10,0:0|0:0,0:0:0:0:
328,208,85854,2,0,L|320:328,1,120,10|10,0:0|0:0,0:0:0:0:
440,308,86506,2,0,L|436:248,2,60,10|10|10,0:0|0:0|0:0,0:0:0:0:
444,312,87158,5,4,0:2:0:0:
256,192,87321,12,0,89441,0:0:0:0:
