osu file format v13

[General]
AudioFilename: Fear, and Loathing in Las Vegas - Let Me Hear.mp3
AudioLeadIn: 1000
PreviewTime: 60745
Countdown: 0
SampleSet: Soft
StackLeniency: 0.7
Mode: 0
LetterboxInBreaks: 0
WidescreenStoryboard: 1

[Editor]
DistanceSpacing: 0.8
BeatDivisor: 2
GridSize: 4
TimelineZoom: 1.4

[Metadata]
Title:Let Me Hear
TitleUnicode:Let Me Hear
Artist:Fear, and Loathing in Las Vegas
ArtistUnicode:Fear, and Loathing in Las Vegas
Creator:wendao
Version:Easy
Source:寄生獣 セイの格率
Tags:Parasyte: Probability of Survival the Maxim Kiseijuu Sei no Kakuritsu TV Size opening val0108
BeatmapID:548941
BeatmapSetID:229285

[Difficulty]
HPDrainRate:2.5
CircleSize:3
OverallDifficulty:2.5
ApproachRate:3
SliderMultiplier:0.799999999999999
SliderTickRate:2

[Events]
//Background and Video events
0,0,"randombg.jpg",0,0
//Break Periods
2,22141,25718
//Storyboard Layer 0 (Background)
//Storyboard Layer 1 (Fail)
//Storyboard Layer 2 (Pass)
//Storyboard Layer 3 (Foreground)
//Storyboard Sound Samples
//Background Colour Transformations
3,100,163,162,255

[TimingPoints]
1072,326.086956521739,4,2,1,40,1,0
1398,-100,4,2,2,40,0,0
1561,-100,4,2,1,40,0,0
2702,-100,4,2,2,40,0,0
2865,-100,4,2,1,40,0,0
4006,-100,4,2,2,40,0,0
4169,-100,4,2,1,40,0,0
5311,-100,4,2,2,40,0,0
5474,-100,4,2,1,40,0,0
11832,-100,4,2,1,50,0,0
12648,-100,4,2,1,40,0,0
13137,-100,4,2,1,50,0,0
13952,-100,4,2,1,40,0,0
14441,-100,4,2,1,50,0,0
14767,-100,4,2,1,40,0,0
15093,-100,4,2,1,50,0,0
15256,-100,4,2,1,40,0,0
15745,-100,4,2,1,50,0,0
16724,-100,4,2,1,40,0,0
17050,-100,4,2,96,50,0,0
17213,-100,4,2,1,40,0,0
18354,-100,4,2,96,50,0,0
18517,-100,4,2,1,40,0,0
19658,-100,4,2,1,50,0,0
19985,-100,4,2,1,40,0,0
20311,-100,4,2,1,50,0,0
21289,-100,4,2,1,60,0,0
21941,-100,4,2,1,60,0,1
22104,-100,4,2,1,60,0,0
32702,-100,4,2,69,60,0,0
32865,-100,4,2,1,60,0,0
35311,-100,4,2,69,60,0,0
35474,-100,4,2,1,60,0,0
37919,-100,4,2,69,60,0,0
38082,-100,4,2,1,60,0,0
39224,-100,4,2,69,60,0,0
39387,-100,4,2,1,60,0,0
48354,-100,4,2,69,60,0,0
48517,-100,4,2,1,60,0,0
49658,-100,4,2,69,60,0,0
49821,-100,4,2,1,60,0,0
59767,-100,4,2,1,20,0,0
61071,-100,4,2,1,60,0,1
61561,-100,4,2,2,60,0,1
61724,-100,4,2,1,60,0,1
62539,-100,4,2,3,60,0,1
62702,-100,4,2,1,60,0,1
63028,-100,4,2,3,60,0,1
63191,-100,4,2,1,60,0,1
64169,-100,4,2,2,60,0,1
64332,-100,4,2,3,60,0,1
64495,-100,4,2,1,60,0,1
65148,-100,4,2,3,60,0,1
65311,-100,4,2,1,60,0,1
66941,-100,4,2,3,60,0,1
67104,-100,4,2,1,60,0,1
67756,-100,4,2,3,60,0,1
67919,-100,4,2,1,60,0,1
68082,-100,4,2,2,60,0,1
68245,-100,4,2,1,60,0,1
69387,-100,4,2,2,60,0,1
69550,-100,4,2,3,60,0,1
69713,-100,4,2,2,60,0,1
69876,-100,4,2,1,60,0,1
71995,-100,4,2,2,60,0,1
72158,-100,4,2,1,60,0,1
72974,-100,4,2,3,60,0,1
73137,-100,4,2,1,60,0,1
73463,-100,4,2,3,60,0,1
73626,-100,4,2,1,60,0,1
74767,-100,4,2,3,60,0,1
74930,-100,4,2,1,60,0,1
75582,-100,4,2,3,60,0,1
75745,-100,4,2,1,60,0,1
75908,-100,4,2,2,60,0,1
76071,-100,4,2,3,60,0,1
76235,-100,4,2,1,60,0,1
78191,-100,4,2,3,60,0,1
78354,-100,4,2,1,60,0,1
78680,-100,4,2,3,60,0,1
78843,-100,4,2,1,60,0,1
79332,-100,4,2,1,60,0,0
80963,-100,4,2,69,60,0,0
81126,-100,4,2,1,60,0,0
82267,-100,4,2,69,60,0,0
82430,-100,4,2,1,60,0,0
84876,-100,4,2,69,60,0,0
85039,-100,4,2,1,60,0,0
88789,-100,4,2,1,50,0,0
88952,-100,4,2,1,40,0,0
89115,-100,4,2,1,30,0,0
89278,-100,4,2,1,20,0,0
89441,-100,4,2,1,10,0,0

[Colours]
Combo1 : 120,240,240
Combo2 : 200,240,120
Combo3 : 180,90,90
Combo4 : 120,120,120

[HitObjects]
340,200,1072,6,0,P|268:232|192:216,1,160,2|2,0:0|0:0,0:0:0:0:
172,56,2376,2,0,P|244:24|320:40,1,160,2|2,0:0|0:0,0:0:0:0:
384,188,3680,6,0,L|376:348,1,160,2|2,0:0|0:0,0:0:0:0:
224,296,4985,2,0,L|232:136,1,160,2|2,0:0|0:0,0:0:0:0:
120,20,6289,5,2,0:0:0:0:
72,240,7593,1,2,0:0:0:0:
292,288,8898,1,2,0:0:0:0:
340,68,10202,1,2,0:0:0:0:
200,144,10854,1,2,0:0:0:0:
40,100,11506,6,0,P|28:140|32:180,1,79.9999999999999,2|8,0:0|0:1,0:0:0:0:
144,292,12485,2,0,L|224:288,2,79.9999999999999,8|2|8,0:1|0:0|0:1,0:0:0:0:
200,144,13789,6,0,L|120:148,2,79.9999999999999,8|2|8,0:1|0:0|0:1,0:0:0:0:
276,168,14767,1,2,0:0:0:0:
352,144,15093,2,0,P|364:104|360:64,2,79.9999999999999,8|2|8,0:1|0:0|0:1,0:0:0:0:
332,224,16071,2,0,P|360:254|397:270,1,79.9999999999999,2|12,1:2|1:1,0:0:0:0:
472,252,16724,6,0,P|400:284|360:352,1,160,2|2,0:0|0:0,0:0:0:0:
252,236,18028,2,0,P|324:204|364:136,1,160,2|2,0:0|0:0,0:0:0:0:
240,36,19332,6,0,L|244:116,1,79.9999999999999,2|8,0:0|0:1,0:0:0:0:
164,104,19985,2,0,L|168:184,1,79.9999999999999,2|8,0:0|0:1,0:0:0:0:
88,172,20637,2,0,L|92:252,1,79.9999999999999,6|6,0:0|0:0,0:0:0:0:
12,240,21289,2,0,L|13:280,2,40,8|8|8,0:0|0:0|0:0,0:0:0:0:
16,244,21941,5,6,0:0:0:0:
352,100,27158,6,0,L|472:92,2,120,2|8|10,0:0|0:0|0:0,0:0:0:0:
256,172,28626,2,0,L|136:164,1,120,8|8,0:0|0:0,0:0:0:0:
60,184,29441,1,2,0:0:0:0:
32,260,29767,6,0,P|44:264|148:252,1,120,2|8,0:0|0:0,0:0:0:0:
212,352,30745,2,0,L|292:356,1,79.9999999999999,10|8,0:0|0:0,0:0:0:0:
364,320,31398,2,0,P|376:280|372:240,1,79.9999999999999,8|8,0:0|0:0,0:0:0:0:
328,176,32050,1,8,0:0:0:0:
252,200,32376,6,0,B|172:196|172:196|120:136,1,160,6|2,0:0|0:0,0:0:0:0:
52,180,33354,2,0,L|104:240,1,79.9999999999999,10|2,0:0|0:0,0:0:0:0:
156,300,34006,1,10,0:0:0:0:
232,272,34332,2,0,P|272:260|312:264,1,79.9999999999999,2|10,0:0|0:0,0:0:0:0:
368,320,34985,6,0,L|376:160,1,160,2|2,0:0|0:0,0:0:0:0:
456,152,35963,2,0,L|452:232,2,79.9999999999999,10|2|10,0:0|0:0|0:0,0:0:0:0:
408,84,36941,1,2,0:0:0:0:
325,91,37267,1,10,0:0:0:0:
242,98,37593,6,0,L|80:88,1,160,2|2,0:0|0:0,0:0:0:0:
36,240,38898,2,0,L|198:230,1,160,2|2,0:0|0:0,0:0:0:0:
272,252,39876,1,10,0:0:0:0:
284,332,40202,6,0,P|244:344|204:340,2,79.9999999999999,2|10|2,0:0|0:0|0:0,0:0:0:0:
348,280,41180,1,10,0:0:0:0:
334,198,41506,2,0,L|320:116,2,79.9999999999999,2|10|2,0:0|0:0|0:0,0:0:0:0:
348,280,42485,1,10,0:0:0:0:
362,362,42811,6,0,P|402:350|442:354,1,79.9999999999999,6|10,0:0|0:0,0:0:0:0:
502,298,43463,2,0,P|473:271|456:236,1,79.9999999999999,2|10,0:0|0:0,0:0:0:0:
379,208,44115,2,0,P|370:246|347:279,1,79.9999999999999,2|10,0:0|0:0,0:0:0:0:
272,308,44767,2,0,L|196:280,1,79.9999999999999,2|10,0:0|0:0,0:0:0:0:
120,308,45419,5,2,0:0:0:0:
84,152,46071,2,0,L|164:156,1,79.9999999999999,2|10,0:0|0:0,0:0:0:0:
188,76,46724,2,0,L|108:72,2,79.9999999999999,2|10|2,0:0|0:0|0:0,0:0:0:0:
260,116,47702,1,10,0:0:0:0:
340,92,48028,6,0,L|500:84,1,160,2|2,0:0|0:0,0:0:0:0:
472,248,49332,2,0,L|312:256,1,160,2|2,0:0|0:0,0:0:0:0:
232,232,50311,1,10,0:0:0:0:
164,280,50637,6,0,P|168:320|188:356,1,79.9999999999999,2|10,0:0|0:0,0:0:0:0:
256,308,51289,1,2,0:0:0:0:
325,354,51615,2,0,P|344:319|348:280,1,79.9999999999999,10|2,0:0|0:0,0:0:0:0:
280,232,52267,1,10,0:0:0:0:
200,256,52593,2,0,L|40:248,1,160,10|14,0:0|0:0,0:0:0:0:
68,124,53735,6,0,L|187:129,1,120,10|10,0:0|0:0,0:0:0:0:
296,68,54713,2,0,P|312:116|292:200,1,120,10|10,0:0|0:0,0:0:0:0:
228,224,55528,1,10,0:0:0:0:
152,188,55854,6,0,P|136:140|156:56,1,120,14|10,0:0|0:0,0:0:0:0:
256,12,56832,2,0,L|375:17,1,120,10|10,0:0|0:0,0:0:0:0:
472,88,57811,2,0,L|468:168,1,79.9999999999999,10|10,0:0|0:0,0:0:0:0:
512,236,58463,6,0,B|480:211|432:203|392:222|366:250|366:250|340:277|300:296|252:288|221:264,1,320,10|0,0:0|0:0,0:0:0:0:
200,240,61071,6,0,L|208:80,1,160,6|8,0:0|0:0,0:0:0:0:
76,172,62376,2,0,L|70:291,2,120,2|2|8,0:0|0:0|0:0,0:0:0:0:
40,100,63680,6,0,P|96:156|244:136,1,240,2|0,0:0|0:0,0:0:0:0:
296,76,64985,2,0,B|332:60|332:60|372:64,1,79.9999999999999,2|0,0:0|0:0,0:0:0:0:
404,140,65637,2,0,B|368:156|368:156|328:152,1,79.9999999999999,8|8,0:0|0:0,0:0:0:0:
256,192,66289,6,0,B|252:232|252:232|268:268|268:268|264:308,2,120,6|2|0,0:0|0:0|0:0,0:0:0:0:
200,132,67593,2,0,L|40:140,1,160,2|8,0:0|0:0,0:0:0:0:
4,296,68898,6,0,L|244:284,1,240,2|0,0:0|0:0,0:0:0:0:
308,332,70202,1,2,0:0:0:0:
348,176,70854,1,8,0:0:0:0:
416,220,71180,1,4,0:3:0:0:
496,204,71506,6,0,P|516:128|504:48,1,160,2|8,0:0|0:0,0:0:0:0:
348,80,72811,2,0,L|228:74,2,120,2|2|8,0:0|0:0|0:0,0:0:0:0:
372,156,74115,2,0,L|491:150,2,120,2|2|0,0:0|0:0|0:0,0:0:0:0:
304,200,75419,2,0,B|280:232|288:276|288:276|216:232|132:256,1,240,2|8,0:0|0:0,0:0:0:0:
72,308,76724,5,6,0:0:0:0:
24,72,77702,1,0,0:0:0:0:
92,120,78028,2,0,L|211:114,2,120,2|2|8,0:0|0:0|0:0,0:0:0:0:
40,180,79332,6,0,P|28:220|32:260,1,79.9999999999999,10|10,0:0|0:0,0:0:0:0:
112,272,79985,2,0,P|124:232|120:192,1,79.9999999999999,10|10,0:0|0:0,0:0:0:0:
92,120,80637,2,0,P|156:164|232:148,1,160,10|10,0:0|0:0,0:0:0:0:
296,100,81615,1,10,0:0:0:0:
369,131,81941,6,0,P|421:188|415:266,1,160,10|10,0:0|0:0,0:0:0:0:
368,332,82919,2,0,L|288:324,1,79.9999999999999,10|10,0:0|0:0,0:0:0:0:
216,356,83571,2,0,L|136:348,1,79.9999999999999,10|10,0:0|0:0,0:0:0:0:
72,300,84224,1,10,0:0:0:0:
60,220,84550,6,0,B|120:168|120:168|116:88,1,160,10|10,0:0|0:0,0:0:0:0:
192,60,85528,2,0,L|196:140,1,79.9999999999999,10|10,0:0|0:0,0:0:0:0:
352,176,86506,2,0,L|348:96,2,79.9999999999999,10|10|4,0:0|0:0|0:2,0:0:0:0:
256,192,87321,12,0,89441,0:0:0:0:
