osu file format v13

[General]
AudioFilename: aya.mp3
AudioLeadIn: 800
PreviewTime: 60714
Countdown: 0
SampleSet: None
StackLeniency: 0.3
Mode: 0
LetterboxInBreaks: 0
WidescreenStoryboard: 0

[Editor]
Bookmarks: 11149,22570,43358,43847,44845,44954,45967,46483,46592,47271,47434,48576,49092,49201,49880,50070,50171,51184,53386,53875,54364,54853,55505,55994,56483,56972,57462,57788,86809,89092
DistanceSpacing: 1.4
BeatDivisor: 4
GridSize: 16
TimelineZoom: 1

[Metadata]
Title:Let Me Hear
TitleUnicode:Let Me Hear
Artist:Fear, and Loathing in Las Vegas
ArtistUnicode:Fear, and Loathing in Las Vegas
Creator:Kihhou
Version:Extra
Source:寄生獣 セイの格率
Tags:parasyte the maxim Kiseijuu Sei no Kakuritsu tv size opening op pkk pkmnyab oracle
BeatmapID:532842
BeatmapSetID:228875

[Difficulty]
HPDrainRate:6.5
CircleSize:4
OverallDifficulty:8
ApproachRate:9
SliderMultiplier:1.7
SliderTickRate:1

[Events]
//Background and Video events
0,0,"ringatingworkONCEagain.png",0,0
Video,188,"wawwawaw.avi"
//Break Periods
//Storyboard Layer 0 (Background)
//Storyboard Layer 1 (Fail)
//Storyboard Layer 2 (Pass)
//Storyboard Layer 3 (Foreground)
//Storyboard Sound Samples
//Background Colour Transformations
3,100,163,162,255

[TimingPoints]
715,326.086956521739,4,3,10,45,1,0
15714,-100,4,2,1,50,0,0
16041,-133.333333333333,4,2,30,50,0,0
16367,-100,4,3,10,50,0,0
20280,-100,4,2,2,50,0,0
20932,-100,4,2,1,60,0,0
21258,-80,4,2,1,60,0,0
21584,-90.9090909090909,4,3,1,65,0,0
30714,-90.9090909090909,4,3,1,70,0,0
32019,-133.333333333333,4,2,1,50,0,0
41801,-133.333333333333,4,2,1,60,0,0
51584,-133.333333333333,4,3,1,65,0,0
52236,-133.333333333333,4,3,1,70,0,0
52888,-90.9090909090909,4,3,1,65,0,0
60714,-133.333333333333,4,2,1,70,0,1
70660,-133.333333333333,4,3,2,70,0,1
70823,-133.333333333333,4,2,1,70,0,1
70986,-133.333333333333,4,2,2,70,0,1
71149,-133.333333333333,4,2,1,70,0,1
78975,-90.9090909090909,4,3,1,70,0,1
81584,-90.9090909090909,4,3,1,65,0,0
86149,-90.9090909090909,4,3,1,70,0,0
86475,-200,4,3,1,70,0,0
88758,-90.9090909090909,4,2,1,45,0,0
88839,-90.9090909090909,4,2,1,30,0,0
88921,-90.9090909090909,4,2,1,15,0,0
89003,-90.9090909090909,4,2,1,10,0,0
89084,-90.9090909090909,4,2,1,5,0,0

[Colours]
Combo1 : 190,12,164
Combo2 : 213,4,83
Combo3 : 80,32,223

[HitObjects]
160,283,715,5,0,0:0:0:0:
160,283,1041,2,0,L|151:183,1,85,0|2,0:0|0:2,0:0:0:0:
375,177,1367,2,0,L|470:170,1,85,0|2,0:0|0:2,0:0:0:0:
272,132,1693,6,0,L|270:217,1,85,0|2,0:0|0:2,0:0:0:0:
117,110,2019,2,0,L|124:194,1,85,0|2,0:0|0:2,0:0:0:0:
365,202,2345,2,0,L|373:286,1,85,0|2,0:0|0:2,0:0:0:0:
151,201,2671,1,0,0:0:0:0:
266,60,2834,1,2,0:2:0:0:
295,243,2997,1,2,0:2:0:0:
62,150,3160,1,2,0:2:0:0:
222,134,3323,5,0,0:0:0:0:
222,134,3649,2,0,L|315:141,1,85,0|2,0:0|0:2,0:0:0:0:
110,262,3975,2,0,P|71:280|29:275,1,85,0|2,0:0|0:2,0:0:0:0:
114,49,4301,6,0,P|134:93|119:146,1,85,0|2,0:0|0:2,0:0:0:0:
245,305,4628,2,0,P|225:267|230:226,1,85,0|2,0:0|0:2,0:0:0:0:
403,62,4954,2,0,L|319:69,1,85,0|2,0:0|0:2,0:0:0:0:
470,222,5280,1,0,0:0:0:0:
243,210,5443,1,2,0:2:0:0:
321,32,5606,1,2,0:2:0:0:
354,156,5769,1,2,0:2:0:0:
388,280,5932,5,0,0:2:0:0:
388,280,6258,2,0,L|380:374,1,85,0|2,0:0|0:2,0:0:0:0:
276,173,6584,2,0,L|283:88,1,85,0|2,0:0|0:2,0:0:0:0:
154,287,6910,6,0,P|96:303|56:285,1,85,0|2,0:0|0:2,0:0:0:0:
262,190,7236,2,0,P|303:183|342:199,1,85,0|2,0:0|0:2,0:0:0:0:
109,211,7562,2,0,L|103:127,1,85,0|2,0:0|0:2,0:0:0:0:
246,278,7888,1,0,0:0:0:0:
22,229,8051,1,2,0:2:0:0:
223,150,8214,1,2,0:2:0:0:
267,308,8378,1,2,0:2:0:0:
270,59,8541,5,0,0:0:0:0:
270,59,8867,2,0,P|316:77|355:72,1,85,0|2,0:0|0:2,0:0:0:0:
176,203,9193,2,0,L|92:202,1,85,0|2,0:0|0:2,0:0:0:0:
237,70,9519,1,0,0:0:0:0:
286,234,9682,1,2,0:2:0:0:
398,65,9845,6,0,L|398:157,1,85,0|2,0:0|0:2,0:0:0:0:
265,334,10171,2,0,L|265:249,1,85,0|2,0:0|0:2,0:0:0:0:
366,136,10497,1,0,0:0:0:0:
359,320,10660,2,0,L|453:315,1,85,2|0,0:2|0:0,0:0:0:0:
442,196,10986,1,2,0:2:0:0:
217,108,11149,6,0,L|223:192,1,85
237,320,11393,1,0,0:0:0:0:
237,320,11475,2,0,P|294:325|334:295,1,85,4|0,0:0|0:0,0:0:0:0:
364,122,11801,1,0,0:0:0:0:
200,239,11964,1,0,0:0:0:0:
178,238,12046,1,0,0:0:0:0:
156,237,12128,2,0,L|69:235,1,85,4|0,0:0|0:0,0:0:0:0:
182,327,12454,5,0,0:0:0:0:
349,177,12617,1,0,0:0:0:0:
266,357,12780,2,0,L|264:256,1,85,4|0,0:0|0:0,0:0:0:0:
110,226,13106,1,0,0:0:0:0:
250,66,13269,1,0,0:0:0:0:
250,66,13350,1,0,0:0:0:0:
250,66,13432,2,0,L|245:157,1,85,4|0,0:0|0:0,0:0:0:0:
204,280,13757,6,0,P|261:289|298:272,1,85,0|0,0:0|0:0,0:0:0:0:
322,217,14002,1,0,0:0:0:0:
346,234,14083,2,0,P|397:236|430:203,1,85,4|0,0:0|0:0,0:0:0:0:
240,166,14409,1,0,0:0:0:0:
364,102,14572,1,0,0:0:0:0:
403,313,14735,1,4,0:0:0:0:
487,123,14899,1,0,0:0:0:0:
428,311,15062,5,0,0:0:0:0:
363,102,15225,1,0,0:0:0:0:
324,257,15388,2,0,P|282:269|232:261,1,85,4|0,0:0|0:0,0:0:0:0:
223,46,15714,6,0,L|220:99,1,42.5,8|0,0:0|0:0,0:0:0:0:
295,186,15878,2,0,L|292:144,1,42.5,8|0,0:0|0:0,0:0:0:0:
91,68,16041,2,0,L|103:188,1,95.6250036478044,4|0,0:0|0:0,0:0:0:0:
116,186,16367,6,0,P|101:244|124:290,1,85,0|0,0:0|0:0,0:0:0:0:
206,320,16611,1,0,0:0:0:0:
231,320,16693,2,0,L|334:323,1,85,4|0,0:0|0:0,0:0:0:0:
390,71,17019,2,0,P|341:56|279:87,1,85
183,120,17263,1,0,0:0:0:0:
161,120,17345,2,0,L|62:117,1,85,4|0,0:0|0:0,0:0:0:0:
12,24,17671,5,0,0:0:0:0:
34,209,17834,1,0,0:0:0:0:
183,120,17997,2,0,P|191:176|173:222,1,85,4|0,0:0|0:0,0:0:0:0:
333,250,18323,1,0,0:0:0:0:
166,315,18486,1,0,0:0:0:0:
145,321,18568,1,0,0:0:0:0:
124,326,18649,2,0,L|14:320,1,85,4|0,0:0|0:0,0:0:0:0:
185,59,18975,6,0,L|181:157,1,85
166,315,19301,1,4,0:0:0:0:
286,221,19464,1,0,0:0:0:0:
441,301,19628,2,0,P|451:246|422:195,1,85
308,138,19954,1,4,0:0:0:0:
463,108,20117,1,0,0:0:0:0:
257,74,20280,5,4,0:0:0:0:
441,301,20606,1,4,0:0:0:0:
252,158,20932,5,8,0:0:0:0:
213,142,21013,1,8,0:0:0:0:
171,150,21095,1,8,0:0:0:0:
130,139,21176,1,8,0:0:0:0:
88,146,21258,2,0,B|47:106|32:48|32:48|17:90,1,159.375,8|0,0:0|0:0,0:0:0:0:
5,189,21584,6,0,P|80:183|126:255,1,140.25000428009,4|0,0:1|0:0,0:0:0:0:
126,259,21910,1,0,0:0:0:0:
213,142,22073,1,8,0:0:0:0:
282,306,22236,2,0,L|389:301,1,93.5000028533936
449,114,22562,1,8,0:0:0:0:
351,228,22725,1,0,0:0:0:0:
213,142,22888,6,0,L|119:146,1,93.5000028533936,0|8,0:0|0:0,0:0:0:0:
324,72,23214,1,0,0:0:0:0:
257,222,23378,1,0,0:0:0:0:
119,146,23541,5,8,0:0:0:0:
123,178,23622,1,8,0:0:0:0:
126,210,23704,1,0,0:0:0:0:
58,60,23867,1,8,0:0:0:0:
51,91,23948,1,8,0:0:0:0:
44,123,24030,1,0,0:0:0:0:
240,43,24193,5,0,0:0:0:0:
314,160,24356,1,0,0:0:0:0:
445,103,24519,2,0,L|443:210,1,93.5000028533936,0|8,0:0|0:0,0:0:0:0:
314,160,24845,1,0,0:0:0:0:
444,22,25008,1,0,0:0:0:0:
443,196,25171,1,8,0:0:0:0:
314,160,25334,1,0,0:0:0:0:
374,316,25497,5,0,0:0:0:0:
446,103,25660,1,8,0:0:0:0:
314,160,25823,2,0,L|211:160,1,93.5000028533936
93,50,26149,5,8,0:0:0:0:
97,82,26231,1,8,0:0:0:0:
101,114,26312,1,8,0:0:0:0:
105,146,26394,1,8,0:0:0:0:
89,174,26475,5,8,0:0:0:0:
106,201,26557,1,8,0:0:0:0:
123,228,26638,1,8,0:0:0:0:
140,255,26720,1,8,0:0:0:0:
158,282,26801,6,0,P|210:297|252:282,1,93.5000028533936,4|0,0:1|0:0,0:0:0:0:
312,138,27128,1,0,0:0:0:0:
246,285,27291,1,8,0:0:0:0:
398,353,27454,2,0,L|388:257,1,93.5000028533936
246,285,27780,1,8,0:0:0:0:
312,138,27943,1,0,0:0:0:0:
468,208,28106,5,0,0:0:0:0:
445,50,28269,1,8,0:0:0:0:
312,138,28432,2,0,L|199:146,1,93.5000028533936
27,225,28758,5,8,0:0:0:0:
47,199,28839,1,8,0:0:0:0:
67,173,28921,1,0,0:0:0:0:
132,339,29084,1,8,0:0:0:0:
129,307,29165,1,8,0:0:0:0:
126,273,29247,1,0,0:0:0:0:
322,245,29410,5,4,0:1:0:0:
197,129,29573,1,0,0:0:0:0:
358,90,29736,1,0,0:0:0:0:
130,63,29899,1,8,0:0:0:0:
183,241,30062,1,0,0:0:0:0:
313,106,30225,1,0,0:0:0:0:
249,295,30388,1,8,0:0:0:0:
240,43,30551,1,0,0:0:0:0:
106,207,30714,5,0,0:0:0:0:
72,225,30795,1,0,0:0:0:0:
34,219,30877,1,0,0:0:0:0:
15,186,30958,1,0,0:0:0:0:
27,151,31040,5,8,3:3:0:0:
62,135,31121,1,8,3:3:0:0:
101,135,31203,1,4,3:3:0:0:
139,137,31284,1,4,3:3:0:0:
178,130,31366,5,8,0:0:0:0:
202,102,31447,1,8,0:0:0:0:
192,65,31529,1,8,0:0:0:0:
157,53,31610,1,8,0:0:0:0:
122,66,31692,1,8,0:0:0:0:
122,66,32019,5,4,0:0:0:0:
209,211,32345,1,8,0:0:0:0:
298,218,32508,1,0,0:0:0:0:
287,129,32671,1,0,0:0:0:0:
318,212,32834,1,0,0:0:0:0:
349,296,32997,1,8,0:0:0:0:
252,45,33323,5,0,0:0:0:0:
466,94,33649,1,8,0:0:0:0:
388,138,33812,1,0,0:0:0:0:
159,138,34138,1,2,0:3:0:0:
131,223,34302,1,8,0:0:0:0:
43,205,34465,1,0,0:0:0:0:
74,288,34628,5,0,0:0:0:0:
426,341,34954,1,8,0:0:0:0:
387,260,35117,1,0,0:0:0:0:
475,248,35280,1,0,0:0:0:0:
386,236,35443,1,0,0:0:0:0:
296,224,35606,1,8,0:0:0:0:
253,58,35932,5,0,0:0:0:0:
170,258,36258,1,8,0:0:0:0:
386,236,36584,1,0,0:0:0:0:
313,303,36747,1,2,0:3:0:0:
313,303,36829,1,0,0:0:0:0:
313,303,36910,1,8,0:0:0:0:
275,222,37073,1,0,0:0:0:0:
364,228,37236,5,0,0:0:0:0:
213,23,37562,1,8,0:0:0:0:
227,110,37725,1,0,0:0:0:0:
311,139,37888,1,0,0:0:0:0:
221,136,38051,1,0,0:0:0:0:
131,133,38214,1,8,0:0:0:0:
321,28,38541,5,0,0:0:0:0:
267,238,38867,1,8,0:0:0:0:
218,162,39030,1,0,0:0:0:0:
467,104,39356,1,2,0:3:0:0:
417,178,39519,1,8,0:0:0:0:
449,259,39682,1,0,0:0:0:0:
361,247,39845,5,0,0:0:0:0:
128,250,40171,1,8,0:0:0:0:
39,261,40334,1,0,0:0:0:0:
94,330,40497,1,0,0:0:0:0:
116,243,40660,1,0,0:0:0:0:
139,156,40823,1,8,0:0:0:0:
310,26,41149,5,0,0:0:0:0:
33,86,41475,1,8,0:0:0:0:
238,134,41801,2,0,L|228:76,2,31.8750012159348,2|2|2,0:3|0:3|0:3,0:0:0:0:
272,232,42128,1,8,0:0:0:0:
366,189,42291,1,2,0:3:0:0:
348,344,42454,5,4,0:1:0:0:
263,314,42617,1,2,0:3:0:0:
181,350,42780,1,8,0:0:0:0:
98,315,42943,2,0,L|28:317,1,63.7500024318696,2|0,0:3|0:0,0:0:0:0:
40,227,43269,5,2,0:3:0:0:
49,224,43350,1,2,0:3:0:0:
58,221,43432,1,8,0:0:0:0:
144,243,43595,1,2,0:3:0:0:
188,165,43758,5,2,0:3:0:0:
187,155,43839,1,2,0:3:0:0:
186,145,43921,1,2,0:3:0:0:
272,167,44084,1,8,0:0:0:0:
341,110,44247,1,2,0:3:0:0:
417,156,44410,6,0,L|422:227,1,63.7500024318696,0|2,0:0|0:3,0:0:0:0:
418,229,44655,1,2,0:3:0:0:
414,237,44736,2,0,L|361:230,2,42.5000016212464,8|2|2,0:0|0:3|0:3,0:0:0:0:
474,296,45062,5,0,0:0:0:0:
383,310,45225,1,2,0:3:0:0:
303,269,45388,1,8,0:0:0:0:
236,328,45551,1,2,0:3:0:0:
156,287,45714,6,0,L|156:361,1,63.7500024318696,0|2,0:0|0:3,0:0:0:0:
149,343,45959,1,2,0:3:0:0:
142,335,46041,1,8,0:3:0:0:
73,277,46204,1,2,0:3:0:0:
31,198,46367,6,0,L|26:148,2,42.5000016212464,2|2|2,0:3|0:3|0:3,0:0:0:0:
73,277,46693,1,8,0:0:0:0:
127,205,46856,1,2,0:3:0:0:
213,226,47019,5,0,0:0:0:0:
288,177,47182,1,2,0:3:0:0:
297,177,47263,1,2,0:3:0:0:
307,178,47345,1,8,0:0:0:0:
316,178,47426,1,2,0:3:0:0:
325,178,47508,1,2,0:3:0:0:
355,261,47671,5,0,0:0:0:0:
421,201,47834,1,2,0:3:0:0:
438,288,47997,1,8,0:0:0:0:
372,349,48160,1,2,0:3:0:0:
286,324,48323,5,0,0:0:0:0:
212,373,48486,1,2,0:3:0:0:
207,364,48568,1,2,0:3:0:0:
202,355,48649,1,10,0:3:0:0:
165,273,48812,1,2,0:3:0:0:
88,318,48975,6,0,L|32:320,2,42.5000016212464,2|2|2,0:3|0:3|0:3,0:0:0:0:
165,273,49301,1,8,0:0:0:0:
88,318,49464,2,0,L|88:250,1,63.7500024318696,2|0,0:3|0:0,0:0:0:0:
136,178,49791,5,2,0:3:0:0:
143,171,49872,1,2,0:3:0:0:
150,164,49954,2,0,L|150:115,2,42.5000016212464,8|2|2,0:0|0:3|0:3,0:0:0:0:
222,216,50280,6,0,L|292:217,1,63.7500024318696,0|2,0:0|0:3,0:0:0:0:
426,171,50606,2,0,L|363:171,1,63.7500024318696,8|2,0:0|0:3,0:0:0:0:
359,330,50932,2,0,L|359:266,1,63.7500024318696,0|2,0:0|0:3,0:0:0:0:
359,266,51176,1,2,0:3:0:0:
359,266,51258,1,8,0:0:0:0:
444,188,51421,1,2,0:3:0:0:
359,330,51584,5,0,0:0:0:0:
239,186,51747,1,8,0:0:0:0:
403,98,51910,1,8,0:0:0:0:
349,322,52236,5,8,0:0:0:0:
206,150,52399,1,8,0:0:0:0:
401,46,52562,1,8,0:0:0:0:
72,98,52888,6,0,P|94:159|81:224,1,93.5000028533936,4|0,0:1|0:0,0:0:0:0:
32,280,53214,1,0,0:0:0:0:
202,229,53378,2,0,L|306:225,1,93.5000028533936,8|0,0:0|0:0,0:0:0:0:
414,309,53704,1,0,0:0:0:0:
450,107,53867,2,0,L|453:228,1,93.5000028533936,8|0,0:0|0:0,0:0:0:0:
480,362,54193,5,0,0:0:0:0:
280,297,54356,2,0,P|222:279|158:308,1,93.5000028533936,8|0,0:0|0:0,0:0:0:0:
29,347,54682,1,0,0:0:0:0:
225,363,54845,2,0,L|223:266,1,93.5000028533936,8|0,0:0|0:0,0:0:0:0:
278,76,55171,1,0,0:0:0:0:
278,85,55253,1,0,0:0:0:0:
278,94,55334,1,0,0:0:0:0:
278,103,55416,1,0,0:0:0:0:
278,112,55497,6,0,L|279:205,1,93.5000028533936,8|0,0:0|0:0,0:0:0:0:
435,181,55823,1,0,0:0:0:0:
187,280,55986,2,0,L|185:186,1,93.5000028533936,8|0,0:0|0:0,0:0:0:0:
111,47,56312,1,0,0:0:0:0:
282,117,56475,2,0,P|350:119|391:98,1,93.5000028533936,8|0,0:0|0:0,0:0:0:0:
186,33,56801,5,0,0:0:0:0:
282,117,56964,2,0,P|296:178|277:221,1,93.5000028533936,8|0,0:0|0:0,0:0:0:0:
261,21,57291,1,0,0:0:0:0:
161,217,57454,1,8,0:0:0:0:
367,313,57617,1,0,0:0:0:0:
282,117,57780,1,8,0:0:0:0:
184,294,57943,1,0,0:0:0:0:
56,213,58106,5,8,0:0:0:0:
52,176,58187,1,8,0:0:0:0:
66,141,58269,1,0,0:0:0:0:
83,146,58350,1,0,0:0:0:0:
101,151,58432,5,8,0:0:0:0:
115,116,58514,1,8,0:0:0:0:
111,79,58595,1,0,0:0:0:0:
129,74,58676,1,0,0:0:0:0:
147,69,58758,5,8,0:0:0:0:
181,82,58839,1,8,0:0:0:0:
195,116,58921,1,8,0:0:0:0:
188,153,59003,1,8,0:0:0:0:
167,183,59084,5,0,0:0:0:0:
169,201,59166,1,0,0:0:0:0:
171,219,59247,1,0,0:0:0:0:
173,237,59329,1,0,0:0:0:0:
197,177,60714,6,0,B|207:264|207:264|224:239|253:225,1,127.500004863739,4|0,0:1|0:0,0:0:0:0:
399,163,61204,1,0,0:0:0:0:
210,22,61367,1,8,0:0:0:0:
313,178,61530,2,0,B|318:221|318:221|342:258|342:258|348:324,1,127.500004863739
345,297,61937,1,0,0:0:0:0:
345,297,62019,5,4,0:1:0:0:
129,243,62182,2,0,L|43:250,1,63.7500024318696,8|0,0:0|0:0,0:0:0:0:
286,161,62508,1,0,0:0:0:0:
78,42,62671,2,0,L|89:129,1,63.7500024318696,8|0,0:0|0:0,0:0:0:0:
129,243,62997,1,0,0:0:0:0:
129,246,63079,1,0,0:0:0:0:
129,249,63160,1,0,0:0:0:0:
129,252,63242,1,0,0:0:0:0:
129,255,63323,6,0,B|190:272|190:272|262:254,1,127.500004863739,4|0,0:1|0:0,0:0:0:0:
174,66,63812,1,0,0:0:0:0:
413,44,63975,1,8,0:0:0:0:
215,159,64138,2,0,L|87:163,1,127.500004863739
87,162,64546,1,0,0:0:0:0:
87,162,64628,5,4,0:1:0:0:
303,111,64791,2,0,L|384:109,1,63.7500024318696,8|0,0:0|0:0,0:0:0:0:
174,66,65117,1,0,0:0:0:0:
256,256,65280,2,0,B|276:257|276:257|302:250|302:250|337:254,1,63.7500024318696,8|0,0:0|0:0,0:0:0:0:
318,251,65524,1,0,0:0:0:0:
318,251,65606,1,0,0:0:0:0:
169,147,65769,1,8,0:0:0:0:
431,75,65932,6,0,B|436:118|436:118|418:154|418:154|422:197,1,127.500004863739,4|0,0:1|0:0,0:0:0:0:
506,295,66421,1,0,0:0:0:0:
264,137,66584,1,8,0:0:0:0:
431,75,66747,2,0,L|423:203,1,127.500004863739,0|0,0:0|0:0,0:0:0:0:
423,202,67155,1,0,0:0:0:0:
423,202,67236,5,4,0:1:0:0:
231,312,67399,2,0,L|96:311,1,127.500004863739,8|0,0:0|0:0,0:0:0:0:
264,137,67888,1,8,0:0:0:0:
319,357,68051,1,0,0:0:0:0:
107,229,68214,1,0,0:0:0:0:
99,214,68296,1,0,0:0:0:0:
91,199,68378,1,0,0:0:0:0:
96,184,68459,1,0,0:0:0:0:
102,169,68541,6,0,B|128:148|128:148|28:145,1,127.500004863739,4|0,0:1|0:0,0:0:0:0:
184,40,69030,1,0,0:0:0:0:
198,245,69193,1,8,0:0:0:0:
372,74,69356,2,0,B|367:158|367:158|387:196,1,127.500004863739
387,196,69763,1,0,0:0:0:0:
387,196,69845,5,4,0:1:0:0:
195,309,70008,2,0,L|200:218,1,63.7500024318696,8|0,0:0|0:0,0:0:0:0:
342,334,70334,1,0,0:0:0:0:
104,165,70497,1,8,0:0:0:0:
263,187,70660,5,8,3:3:0:0:
274,170,70742,1,8,3:3:0:0:
252,139,70823,5,4,0:3:0:0:
251,118,70905,1,4,0:3:0:0:
221,94,70986,5,8,0:0:0:0:
209,77,71068,1,8,0:0:0:0:
171,71,71149,6,0,B|145:95|145:95|96:70|41:108,1,127.500004863739,4|0,0:1|0:0,0:0:0:0:
251,118,71638,1,0,0:0:0:0:
95,318,71801,1,8,0:0:0:0:
271,213,71964,2,0,L|411:211,1,127.500004863739
398,211,72372,1,0,0:0:0:0:
398,211,72454,5,4,0:1:0:0:
180,160,72617,2,0,L|182:243,1,63.7500024318696,8|0,0:0|0:0,0:0:0:0:
262,25,72943,1,0,0:0:0:0:
398,211,73106,2,0,P|443:214|479:200,1,63.7500024318696,8|0,0:0|0:0,0:0:0:0:
406,33,73432,1,0,0:0:0:0:
391,53,73513,1,0,0:0:0:0:
375,73,73595,1,0,0:0:0:0:
360,93,73676,1,0,0:0:0:0:
345,114,73758,6,0,B|321:88|321:88|333:141|314:191,1,127.500004863739,4|0,0:1|0:0,0:0:0:0:
148,206,74247,1,0,0:0:0:0:
246,30,74410,1,8,0:0:0:0:
236,237,74573,2,0,L|232:319,1,63.7500024318696
379,346,74899,1,0,0:0:0:0:
379,346,74981,1,0,0:0:0:0:
379,346,75062,5,4,0:1:0:0:
119,297,75225,2,0,B|88:303|88:303|37:294,1,63.7500024318696,8|0,0:0|0:0,0:0:0:0:
110,69,75551,1,0,0:0:0:0:
236,237,75714,2,0,L|324:238,1,63.7500024318696,8|0,0:0|0:0,0:0:0:0:
299,237,75959,1,0,0:0:0:0:
299,237,76041,1,0,0:0:0:0:
119,297,76204,1,8,0:0:0:0:
233,81,76367,6,0,B|251:57|251:57|239:110|239:110|251:169,1,127.500004863739,4|0,0:1|0:0,0:0:0:0:
298,329,76856,1,0,0:0:0:0:
429,171,77019,2,0,L|492:167,1,63.7500024318696,8|0,0:0|0:0,0:0:0:0:
233,81,77345,1,0,0:0:0:0:
208,85,77426,1,0,0:0:0:0:
182,89,77508,1,0,0:0:0:0:
157,93,77589,1,0,0:0:0:0:
135,97,77671,5,4,0:1:0:0:
50,265,77834,2,0,L|50:328,1,63.7500024318696,8|0,0:0|0:0,0:0:0:0:
184,144,78160,1,0,0:0:0:0:
247,316,78323,1,8,0:0:0:0:
392,193,78486,2,0,B|397:158|397:158|385:119,1,63.7500024318696
410,135,78731,1,0,0:0:0:0:
431,139,78812,1,0,0:0:0:0:
452,143,78894,1,0,0:0:0:0:
473,147,78975,6,0,L|477:248,1,93.5000028533936,4|0,0:1|0:0,0:0:0:0:
372,64,79301,1,8,0:0:0:0:
299,219,79464,1,0,0:0:0:0:
151,125,79628,2,0,L|146:228,1,93.5000028533936,8|0,0:0|0:0,0:0:0:0:
276,118,79954,1,8,0:0:0:0:
343,298,80117,1,0,0:0:0:0:
147,218,80280,6,0,L|47:218,1,93.5000028533936,8|0,0:0|0:0,0:0:0:0:
196,317,80606,1,8,0:0:0:0:
276,118,80769,1,0,0:0:0:0:
310,319,80932,1,8,0:0:0:0:
276,118,81095,1,0,0:0:0:0:
385,243,81258,1,8,0:0:0:0:
161,138,81421,1,0,0:0:0:0:
350,47,81584,6,0,L|349:160,1,93.5000028533936,4|0,0:1|0:0,0:0:0:0:
207,52,81910,1,8,0:0:0:0:
224,209,82073,1,0,0:0:0:0:
39,156,82236,1,8,0:0:0:0:
89,331,82399,1,0,0:0:0:0:
224,209,82562,1,8,0:0:0:0:
39,156,82725,1,0,0:0:0:0:
20,178,82807,1,0,0:0:0:0:
1,199,82888,6,0,L|94:198,1,93.5000028533936,8|0,0:0|0:0,0:0:0:0:
207,52,83214,1,8,0:0:0:0:
375,178,83378,1,0,0:0:0:0:
375,178,83459,1,0,0:0:0:0:
375,178,83541,5,8,0:0:0:0:
335,42,83704,1,0,0:0:0:0:
335,42,83785,1,0,0:0:0:0:
335,42,83867,1,8,0:0:0:0:
250,192,84030,1,0,0:0:0:0:
250,192,84111,1,0,0:0:0:0:
250,192,84193,5,8,0:0:0:0:
207,52,84356,1,0,0:0:0:0:
165,244,84519,1,8,0:0:0:0:
110,134,84682,1,0,0:0:0:0:
295,272,84845,5,8,0:0:0:0:
278,124,85008,1,0,0:0:0:0:
135,333,85171,1,8,0:0:0:0:
61,215,85334,1,0,0:0:0:0:
60,205,85416,1,0,0:0:0:0:
59,195,85497,5,8,0:0:0:0:
214,310,85660,1,0,0:0:0:0:
312,111,85823,1,8,0:0:0:0:
288,358,85986,1,0,0:0:0:0:
288,358,86068,1,0,0:0:0:0:
288,358,86149,5,8,0:0:0:0:
136,133,86312,1,8,0:0:0:0:
419,209,86475,2,0,L|510:209,1,85,8|4,0:0|0:1,0:0:0:0:
256,192,86883,12,0,89085,0:0:0:0:
