osu file format v14

[General]
AudioFilename: Let Me Hear.mp3.mp3
AudioLeadIn: 0
PreviewTime: 32025
Countdown: 0
SampleSet: Soft
StackLeniency: 0.7
Mode: 3
LetterboxInBreaks: 0
SpecialStyle: 0
WidescreenStoryboard: 1

[Editor]
DistanceSpacing: 1.1
BeatDivisor: 4
GridSize: 4
TimelineZoom: 2.999999

[Metadata]
Title:Let Me Hear
TitleUnicode:Let Me Hear
Artist:Fear, and Loathing in Las Vegas
ArtistUnicode:Fear, and Loathing in Las Vegas
Creator:Icing_wind
Version:7K HD
Source:寄生獣 セイの格率
Tags:[ S a k u r a ] Sky_Demon kiseijuu sei no kakuritsu
BeatmapID:645915
BeatmapSetID:225840

[Difficulty]
HPDrainRate:7
CircleSize:7
OverallDifficulty:7
ApproachRate:5
SliderMultiplier:1.4
SliderTickRate:1

[Events]
//Background and Video events
0,0,"Bg.jpg",0,0
//Break Periods
//Storyboard Layer 0 (Background)
//Storyboard Layer 1 (Fail)
//Storyboard Layer 2 (Pass)
//Storyboard Layer 3 (Foreground)
//Storyboard Sound Samples

[TimingPoints]
1870,326.086956521739,4,2,0,10,1,0
61869,-100,4,2,0,10,0,1
87956,-100,4,2,0,10,0,0

[HitObjects]
109,192,1870,5,0,0:0:0:0:
402,192,1870,1,0,0:0:0:0:
109,192,2033,1,0,0:0:0:0:
329,192,2196,1,0,0:0:0:0:
475,192,2196,1,0,0:0:0:0:
402,192,2359,128,0,2522:0:0:0:0:
475,192,2522,1,0,0:0:0:0:
182,192,2522,1,0,0:0:0:0:
402,192,2685,128,0,2848:0:0:0:0:
109,192,2848,1,0,0:0:0:0:
329,192,2848,1,0,0:0:0:0:
256,192,3011,128,0,3174:0:0:0:0:
36,192,3174,1,0,0:0:0:0:
329,192,3174,1,0,0:0:0:0:
182,192,3337,128,0,3500:0:0:0:0:
475,192,3500,1,0,0:0:0:0:
109,192,3500,1,0,0:0:0:0:
109,192,3663,128,0,3826:0:0:0:0:
36,192,3826,1,0,0:0:0:0:
402,192,3826,1,0,0:0:0:0:
109,192,3989,128,0,4152:0:0:0:0:
182,192,4152,128,0,4315:0:0:0:0:
475,192,4152,1,0,0:0:0:0:
329,192,4152,1,0,0:0:0:0:
256,192,4315,128,0,4478:0:0:0:0:
329,192,4478,1,0,0:0:0:0:
36,192,4478,1,0,0:0:0:0:
182,192,4641,1,0,0:0:0:0:
329,192,4804,1,0,0:0:0:0:
36,192,4804,1,0,0:0:0:0:
109,192,4967,128,0,5130:0:0:0:0:
36,192,5130,1,0,0:0:0:0:
329,192,5130,1,0,0:0:0:0:
182,192,5293,128,0,5456:0:0:0:0:
109,192,5456,1,0,0:0:0:0:
402,192,5456,1,0,0:0:0:0:
256,192,5619,128,0,5783:0:0:0:0:
182,192,5783,1,0,0:0:0:0:
475,192,5783,1,0,0:0:0:0:
329,192,5946,128,0,6109:0:0:0:0:
256,192,6109,1,0,0:0:0:0:
36,192,6109,1,0,0:0:0:0:
402,192,6272,128,0,6435:0:0:0:0:
329,192,6435,1,0,0:0:0:0:
36,192,6435,1,0,0:0:0:0:
182,192,6598,128,0,6679:0:0:0:0:
182,192,6761,128,0,6842:0:0:0:0:
36,192,6761,1,0,0:0:0:0:
329,192,6761,1,0,0:0:0:0:
402,192,6924,128,0,7087:0:0:0:0:
475,192,7087,1,0,0:0:0:0:
36,192,7087,1,0,0:0:0:0:
182,192,7250,1,0,0:0:0:0:
329,192,7413,1,0,0:0:0:0:
475,192,7413,1,0,0:0:0:0:
402,192,7576,128,0,7739:0:0:0:0:
36,192,7739,1,0,0:0:0:0:
256,192,7739,1,0,0:0:0:0:
329,192,7902,128,0,8065:0:0:0:0:
36,192,8065,1,0,0:0:0:0:
182,192,8065,1,0,0:0:0:0:
256,192,8228,128,0,8391:0:0:0:0:
36,192,8391,1,0,0:0:0:0:
402,192,8391,1,0,0:0:0:0:
182,192,8554,128,0,8717:0:0:0:0:
475,192,8717,1,0,0:0:0:0:
329,192,8717,1,0,0:0:0:0:
109,192,8880,128,0,9043:0:0:0:0:
402,192,9043,1,0,0:0:0:0:
256,192,9043,1,0,0:0:0:0:
402,192,9206,128,0,9369:0:0:0:0:
329,192,9369,128,0,9533:0:0:0:0:
36,192,9369,1,0,0:0:0:0:
182,192,9369,1,0,0:0:0:0:
256,192,9533,128,0,9696:0:0:0:0:
36,192,9696,1,0,0:0:0:0:
475,192,9696,1,0,0:0:0:0:
256,192,9859,1,0,0:0:0:0:
36,192,10022,1,0,0:0:0:0:
402,192,10022,1,0,0:0:0:0:
182,192,10185,128,0,10348:0:0:0:0:
329,192,10348,1,0,0:0:0:0:
475,192,10348,1,0,0:0:0:0:
329,192,10511,128,0,10674:0:0:0:0:
36,192,10674,1,0,0:0:0:0:
182,192,10674,1,0,0:0:0:0:
475,192,10837,128,0,11000:0:0:0:0:
109,192,11000,1,0,0:0:0:0:
256,192,11000,1,0,0:0:0:0:
329,192,11163,128,0,11326:0:0:0:0:
182,192,11326,1,0,0:0:0:0:
475,192,11326,1,0,0:0:0:0:
256,192,11489,128,0,11652:0:0:0:0:
36,192,11652,1,0,0:0:0:0:
402,192,11652,1,0,0:0:0:0:
109,192,11815,128,0,12141:0:0:0:0:
256,192,11978,1,0,0:0:0:0:
475,192,11978,1,0,0:0:0:0:
329,192,12141,128,0,12630:0:0:0:0:
475,192,12304,1,0,0:0:0:0:
182,192,12304,1,0,0:0:0:0:
182,192,12467,1,0,0:0:0:0:
36,192,12630,1,0,0:0:0:0:
182,192,12630,1,0,0:0:0:0:
402,192,12793,128,0,12956:0:0:0:0:
182,192,12956,1,0,0:0:0:0:
329,192,13119,128,0,13283:0:0:0:0:
402,192,13283,1,0,0:0:0:0:
109,192,13283,1,0,0:0:0:0:
256,192,13446,128,0,13609:0:0:0:0:
36,192,13609,1,0,0:0:0:0:
182,192,13772,128,0,13935:0:0:0:0:
109,192,13935,1,0,0:0:0:0:
402,192,13935,1,0,0:0:0:0:
109,192,14098,128,0,14261:0:0:0:0:
329,192,14261,1,0,0:0:0:0:
182,192,14424,128,0,14587:0:0:0:0:
256,192,14587,128,0,14750:0:0:0:0:
475,192,14587,1,0,0:0:0:0:
109,192,14587,1,0,0:0:0:0:
329,192,14750,128,0,14913:0:0:0:0:
36,192,14913,1,0,0:0:0:0:
182,192,15076,1,0,0:0:0:0:
329,192,15239,1,0,0:0:0:0:
475,192,15239,1,0,0:0:0:0:
109,192,15402,128,0,15565:0:0:0:0:
329,192,15565,1,0,0:0:0:0:
182,192,15728,128,0,15891:0:0:0:0:
402,192,15891,1,0,0:0:0:0:
36,192,15891,1,0,0:0:0:0:
256,192,16054,128,0,16543:0:0:0:0:
475,192,16217,1,0,0:0:0:0:
36,192,16543,1,0,0:0:0:0:
475,192,16543,1,0,0:0:0:0:
402,192,16543,128,0,16706:0:0:0:0:
329,192,16706,128,0,16869:0:0:0:0:
36,192,16869,1,0,0:0:0:0:
475,192,16869,1,0,0:0:0:0:
109,192,17033,1,0,0:0:0:0:
402,192,17033,1,0,0:0:0:0:
256,192,17196,1,0,0:0:0:0:
475,192,17196,1,0,0:0:0:0:
36,192,17359,1,0,0:0:0:0:
109,192,17522,1,0,0:0:0:0:
256,192,17522,1,0,0:0:0:0:
329,192,17685,1,0,0:0:0:0:
36,192,17848,1,0,0:0:0:0:
182,192,17848,1,0,0:0:0:0:
329,192,18011,128,0,18174:0:0:0:0:
109,192,18174,1,0,0:0:0:0:
256,192,18337,128,0,18500:0:0:0:0:
475,192,18500,1,0,0:0:0:0:
109,192,18500,1,0,0:0:0:0:
182,192,18663,128,0,18826:0:0:0:0:
36,192,18826,1,0,0:0:0:0:
109,192,18989,128,0,19152:0:0:0:0:
475,192,19152,1,0,0:0:0:0:
329,192,19152,1,0,0:0:0:0:
256,192,19315,128,0,19478:0:0:0:0:
475,192,19478,1,0,0:0:0:0:
109,192,19641,128,0,19804:0:0:0:0:
475,192,19804,1,0,0:0:0:0:
329,192,19804,1,0,0:0:0:0:
109,192,19967,128,0,20130:0:0:0:0:
402,192,20130,1,0,0:0:0:0:
256,192,20293,1,0,0:0:0:0:
109,192,20456,1,0,0:0:0:0:
402,192,20456,1,0,0:0:0:0:
109,192,20619,1,0,0:0:0:0:
329,192,20783,128,0,21435:0:0:0:0:
256,192,20783,1,0,0:0:0:0:
475,192,20783,1,0,0:0:0:0:
109,192,20946,1,0,0:0:0:0:
36,192,21109,1,0,0:0:0:0:
182,192,21109,1,0,0:0:0:0:
182,192,21435,1,0,0:0:0:0:
475,192,21435,1,0,0:0:0:0:
182,192,21761,1,0,0:0:0:0:
329,192,21761,1,0,0:0:0:0:
256,192,22087,1,0,0:0:0:0:
402,192,22168,1,0,0:0:0:0:
182,192,22250,1,0,0:0:0:0:
329,192,22331,1,0,0:0:0:0:
182,192,22413,1,0,0:0:0:0:
36,192,22413,1,0,0:0:0:0:
109,192,22739,1,0,0:0:0:0:
402,192,22739,1,0,0:0:0:0:
256,192,23065,1,0,0:0:0:0:
402,192,23065,1,0,0:0:0:0:
182,192,23228,1,0,0:0:0:0:
329,192,23228,1,0,0:0:0:0:
109,192,23391,1,0,0:0:0:0:
256,192,23391,1,0,0:0:0:0:
256,192,23717,1,0,0:0:0:0:
475,192,23717,1,0,0:0:0:0:
329,192,24043,1,0,0:0:0:0:
109,192,24043,1,0,0:0:0:0:
402,192,24206,1,0,0:0:0:0:
182,192,24206,1,0,0:0:0:0:
475,192,24369,1,0,0:0:0:0:
256,192,24369,1,0,0:0:0:0:
402,192,24696,1,0,0:0:0:0:
256,192,24696,1,0,0:0:0:0:
109,192,25022,1,0,0:0:0:0:
256,192,25022,1,0,0:0:0:0:
182,192,25185,1,0,0:0:0:0:
329,192,25185,1,0,0:0:0:0:
256,192,25348,1,0,0:0:0:0:
402,192,25348,1,0,0:0:0:0:
109,192,25674,1,0,0:0:0:0:
329,192,25674,1,0,0:0:0:0:
36,192,25837,1,0,0:0:0:0:
256,192,25837,1,0,0:0:0:0:
109,192,26000,1,0,0:0:0:0:
329,192,26000,1,0,0:0:0:0:
256,192,26326,1,0,0:0:0:0:
475,192,26326,1,0,0:0:0:0:
36,192,26652,1,0,0:0:0:0:
329,192,26652,1,0,0:0:0:0:
109,192,26815,1,0,0:0:0:0:
256,192,26815,1,0,0:0:0:0:
182,192,26978,1,0,0:0:0:0:
329,192,26978,1,0,0:0:0:0:
475,192,27304,1,0,0:0:0:0:
36,192,27304,1,0,0:0:0:0:
182,192,27386,1,0,0:0:0:0:
329,192,27467,1,0,0:0:0:0:
109,192,27630,1,0,0:0:0:0:
256,192,27712,1,0,0:0:0:0:
402,192,27793,1,0,0:0:0:0:
36,192,27875,1,0,0:0:0:0:
256,192,27956,128,0,28119:0:0:0:0:
329,192,28119,128,0,28283:0:0:0:0:
36,192,28283,1,0,0:0:0:0:
475,192,28283,1,0,0:0:0:0:
182,192,28446,1,0,0:0:0:0:
402,192,28446,1,0,0:0:0:0:
109,192,28609,1,0,0:0:0:0:
329,192,28609,1,0,0:0:0:0:
109,192,28772,128,0,28935:0:0:0:0:
182,192,28935,1,0,0:0:0:0:
402,192,28935,1,0,0:0:0:0:
475,192,29098,128,0,29261:0:0:0:0:
182,192,29261,1,0,0:0:0:0:
329,192,29261,1,0,0:0:0:0:
109,192,29424,1,0,0:0:0:0:
402,192,29424,1,0,0:0:0:0:
182,192,29587,1,0,0:0:0:0:
329,192,29587,1,0,0:0:0:0:
402,192,29750,128,0,29913:0:0:0:0:
36,192,29913,1,0,0:0:0:0:
475,192,29913,1,0,0:0:0:0:
329,192,30076,128,0,30239:0:0:0:0:
109,192,30239,1,0,0:0:0:0:
402,192,30239,1,0,0:0:0:0:
182,192,30402,128,0,30565:0:0:0:0:
329,192,30565,1,0,0:0:0:0:
475,192,30565,1,0,0:0:0:0:
402,192,30728,128,0,30891:0:0:0:0:
329,192,30891,128,0,31054:0:0:0:0:
36,192,31054,1,0,0:0:0:0:
182,192,31054,1,0,0:0:0:0:
109,192,31217,1,0,0:0:0:0:
402,192,31217,128,0,31380:0:0:0:0:
329,192,31380,128,0,31543:0:0:0:0:
36,192,31543,1,0,0:0:0:0:
182,192,31543,1,0,0:0:0:0:
109,192,31706,128,0,31869:0:0:0:0:
402,192,31869,1,0,0:0:0:0:
475,192,31869,1,0,0:0:0:0:
329,192,32033,128,0,32196:0:0:0:0:
182,192,32033,1,0,0:0:0:0:
109,192,32114,1,0,0:0:0:0:
36,192,32196,1,0,0:0:0:0:
475,192,32277,1,0,0:0:0:0:
402,192,32359,1,0,0:0:0:0:
329,192,32440,1,0,0:0:0:0:
256,192,32522,1,0,0:0:0:0:
402,192,32603,1,0,0:0:0:0:
109,192,32685,1,0,0:0:0:0:
256,192,32766,1,0,0:0:0:0:
402,192,32848,1,0,0:0:0:0:
36,192,32848,1,0,0:0:0:0:
329,192,33174,1,0,0:0:0:0:
475,192,33174,1,0,0:0:0:0:
256,192,33337,1,0,0:0:0:0:
109,192,33500,1,0,0:0:0:0:
402,192,33500,1,0,0:0:0:0:
329,192,33663,1,0,0:0:0:0:
182,192,33826,1,0,0:0:0:0:
36,192,33826,1,0,0:0:0:0:
402,192,33989,1,0,0:0:0:0:
256,192,34152,1,0,0:0:0:0:
475,192,34152,1,0,0:0:0:0:
109,192,34315,1,0,0:0:0:0:
402,192,34478,1,0,0:0:0:0:
256,192,34478,1,0,0:0:0:0:
182,192,34641,1,0,0:0:0:0:
36,192,34804,1,0,0:0:0:0:
256,192,34804,1,0,0:0:0:0:
182,192,34967,1,0,0:0:0:0:
329,192,35130,1,0,0:0:0:0:
475,192,35130,1,0,0:0:0:0:
256,192,35212,1,0,0:0:0:0:
182,192,35293,1,0,0:0:0:0:
329,192,35456,1,0,0:0:0:0:
475,192,35456,1,0,0:0:0:0:
256,192,35619,1,0,0:0:0:0:
402,192,35783,1,0,0:0:0:0:
475,192,35783,1,0,0:0:0:0:
182,192,35946,1,0,0:0:0:0:
36,192,36109,1,0,0:0:0:0:
329,192,36109,1,0,0:0:0:0:
182,192,36272,1,0,0:0:0:0:
475,192,36435,1,0,0:0:0:0:
109,192,36435,1,0,0:0:0:0:
256,192,36598,1,0,0:0:0:0:
402,192,36761,1,0,0:0:0:0:
109,192,36761,1,0,0:0:0:0:
109,192,36924,1,0,0:0:0:0:
475,192,37087,1,0,0:0:0:0:
256,192,37087,1,0,0:0:0:0:
182,192,37250,1,0,0:0:0:0:
329,192,37413,1,0,0:0:0:0:
475,192,37413,1,0,0:0:0:0:
36,192,37576,1,0,0:0:0:0:
329,192,37739,1,0,0:0:0:0:
475,192,37739,1,0,0:0:0:0:
256,192,37821,1,0,0:0:0:0:
182,192,37902,1,0,0:0:0:0:
475,192,38065,1,0,0:0:0:0:
109,192,38065,1,0,0:0:0:0:
182,192,38228,1,0,0:0:0:0:
36,192,38391,1,0,0:0:0:0:
329,192,38391,1,0,0:0:0:0:
109,192,38554,1,0,0:0:0:0:
402,192,38717,1,0,0:0:0:0:
475,192,38717,1,0,0:0:0:0:
182,192,38880,1,0,0:0:0:0:
329,192,39043,1,0,0:0:0:0:
475,192,39043,1,0,0:0:0:0:
402,192,39206,1,0,0:0:0:0:
256,192,39369,1,0,0:0:0:0:
36,192,39369,1,0,0:0:0:0:
109,192,39533,1,0,0:0:0:0:
256,192,39696,1,0,0:0:0:0:
475,192,39696,1,0,0:0:0:0:
329,192,39859,1,0,0:0:0:0:
329,192,40022,1,0,0:0:0:0:
36,192,40022,1,0,0:0:0:0:
182,192,40185,1,0,0:0:0:0:
329,192,40348,1,0,0:0:0:0:
475,192,40348,1,0,0:0:0:0:
256,192,40429,1,0,0:0:0:0:
182,192,40511,1,0,0:0:0:0:
36,192,40674,1,0,0:0:0:0:
329,192,40674,1,0,0:0:0:0:
182,192,40837,1,0,0:0:0:0:
329,192,41000,1,0,0:0:0:0:
475,192,41000,1,0,0:0:0:0:
402,192,41163,1,0,0:0:0:0:
256,192,41326,1,0,0:0:0:0:
36,192,41326,1,0,0:0:0:0:
109,192,41489,1,0,0:0:0:0:
256,192,41652,1,0,0:0:0:0:
475,192,41652,1,0,0:0:0:0:
402,192,41815,1,0,0:0:0:0:
256,192,41978,1,0,0:0:0:0:
36,192,41978,1,0,0:0:0:0:
109,192,42141,1,0,0:0:0:0:
256,192,42304,1,0,0:0:0:0:
402,192,42304,1,0,0:0:0:0:
329,192,42467,1,0,0:0:0:0:
36,192,42630,1,0,0:0:0:0:
402,192,42630,1,0,0:0:0:0:
182,192,42793,1,0,0:0:0:0:
329,192,42956,1,0,0:0:0:0:
475,192,42956,1,0,0:0:0:0:
256,192,43038,1,0,0:0:0:0:
182,192,43119,1,0,0:0:0:0:
329,192,43283,1,0,0:0:0:0:
475,192,43283,1,0,0:0:0:0:
402,192,43446,1,0,0:0:0:0:
475,192,43609,1,0,0:0:0:0:
109,192,43609,1,0,0:0:0:0:
256,192,43609,1,0,0:0:0:0:
329,192,43772,1,0,0:0:0:0:
256,192,43853,1,0,0:0:0:0:
36,192,43935,1,0,0:0:0:0:
182,192,43935,1,0,0:0:0:0:
402,192,44098,1,0,0:0:0:0:
329,192,44261,1,0,0:0:0:0:
475,192,44261,1,0,0:0:0:0:
109,192,44424,1,0,0:0:0:0:
182,192,44505,1,0,0:0:0:0:
256,192,44587,1,0,0:0:0:0:
402,192,44587,1,0,0:0:0:0:
329,192,44750,1,0,0:0:0:0:
109,192,44913,1,0,0:0:0:0:
256,192,44913,1,0,0:0:0:0:
402,192,45076,1,0,0:0:0:0:
329,192,45158,1,0,0:0:0:0:
256,192,45239,1,0,0:0:0:0:
36,192,45239,1,0,0:0:0:0:
182,192,45402,1,0,0:0:0:0:
329,192,45565,1,0,0:0:0:0:
475,192,45565,1,0,0:0:0:0:
182,192,45728,1,0,0:0:0:0:
256,192,45810,1,0,0:0:0:0:
329,192,45891,1,0,0:0:0:0:
36,192,45891,1,0,0:0:0:0:
182,192,46054,1,0,0:0:0:0:
256,192,46136,1,0,0:0:0:0:
329,192,46217,1,0,0:0:0:0:
475,192,46217,1,0,0:0:0:0:
182,192,46380,1,0,0:0:0:0:
109,192,46462,1,0,0:0:0:0:
36,192,46543,1,0,0:0:0:0:
329,192,46543,1,0,0:0:0:0:
256,192,46706,1,0,0:0:0:0:
182,192,46869,1,0,0:0:0:0:
402,192,46869,1,0,0:0:0:0:
329,192,47033,1,0,0:0:0:0:
256,192,47114,1,0,0:0:0:0:
182,192,47196,1,0,0:0:0:0:
36,192,47196,1,0,0:0:0:0:
402,192,47359,1,0,0:0:0:0:
109,192,47522,1,0,0:0:0:0:
256,192,47522,1,0,0:0:0:0:
402,192,47630,1,0,0:0:0:0:
329,192,47739,1,0,0:0:0:0:
36,192,47848,1,0,0:0:0:0:
182,192,47848,1,0,0:0:0:0:
329,192,48011,1,0,0:0:0:0:
182,192,48174,1,0,0:0:0:0:
402,192,48174,1,0,0:0:0:0:
109,192,48337,1,0,0:0:0:0:
182,192,48418,1,0,0:0:0:0:
256,192,48500,1,0,0:0:0:0:
475,192,48500,1,0,0:0:0:0:
182,192,48581,1,0,0:0:0:0:
109,192,48663,1,0,0:0:0:0:
329,192,48826,1,0,0:0:0:0:
475,192,48826,1,0,0:0:0:0:
182,192,48989,1,0,0:0:0:0:
402,192,49152,1,0,0:0:0:0:
109,192,49152,1,0,0:0:0:0:
256,192,49315,1,0,0:0:0:0:
36,192,49478,1,0,0:0:0:0:
182,192,49478,1,0,0:0:0:0:
256,192,49641,1,0,0:0:0:0:
329,192,49723,1,0,0:0:0:0:
402,192,49804,1,0,0:0:0:0:
475,192,49804,1,0,0:0:0:0:
109,192,49967,1,0,0:0:0:0:
36,192,50130,1,0,0:0:0:0:
256,192,50130,1,0,0:0:0:0:
182,192,50239,1,0,0:0:0:0:
329,192,50348,1,0,0:0:0:0:
36,192,50456,1,0,0:0:0:0:
182,192,50456,1,0,0:0:0:0:
329,192,50619,1,0,0:0:0:0:
36,192,50783,1,0,0:0:0:0:
182,192,50783,1,0,0:0:0:0:
475,192,50946,1,0,0:0:0:0:
329,192,51027,1,0,0:0:0:0:
182,192,51109,1,0,0:0:0:0:
36,192,51109,1,0,0:0:0:0:
256,192,51190,1,0,0:0:0:0:
329,192,51272,1,0,0:0:0:0:
109,192,51435,1,0,0:0:0:0:
329,192,51435,1,0,0:0:0:0:
256,192,51598,1,0,0:0:0:0:
329,192,51761,1,0,0:0:0:0:
475,192,51761,1,0,0:0:0:0:
329,192,51924,1,0,0:0:0:0:
36,192,52087,1,0,0:0:0:0:
182,192,52087,1,0,0:0:0:0:
109,192,52250,1,0,0:0:0:0:
402,192,52413,1,0,0:0:0:0:
256,192,52413,1,0,0:0:0:0:
329,192,52576,1,0,0:0:0:0:
182,192,52739,1,0,0:0:0:0:
329,192,52739,1,0,0:0:0:0:
256,192,52902,1,0,0:0:0:0:
109,192,52902,1,0,0:0:0:0:
402,192,52902,1,0,0:0:0:0:
109,192,53065,1,0,0:0:0:0:
256,192,53065,1,0,0:0:0:0:
402,192,53065,1,0,0:0:0:0:
182,192,53228,1,0,0:0:0:0:
329,192,53228,1,0,0:0:0:0:
109,192,53391,1,0,0:0:0:0:
256,192,53391,1,0,0:0:0:0:
182,192,53554,1,0,0:0:0:0:
36,192,53554,1,0,0:0:0:0:
329,192,53554,1,0,0:0:0:0:
182,192,53717,1,0,0:0:0:0:
36,192,53717,1,0,0:0:0:0:
329,192,53717,1,0,0:0:0:0:
329,192,53880,1,0,0:0:0:0:
109,192,53880,1,0,0:0:0:0:
109,192,54043,1,0,0:0:0:0:
256,192,54043,1,0,0:0:0:0:
402,192,54043,1,0,0:0:0:0:
475,192,54206,1,0,0:0:0:0:
256,192,54206,1,0,0:0:0:0:
475,192,54369,1,0,0:0:0:0:
256,192,54369,1,0,0:0:0:0:
402,192,54533,1,0,0:0:0:0:
256,192,54533,1,0,0:0:0:0:
109,192,54533,1,0,0:0:0:0:
182,192,54696,1,0,0:0:0:0:
329,192,54696,1,0,0:0:0:0:
329,192,54859,1,0,0:0:0:0:
182,192,54859,1,0,0:0:0:0:
109,192,55022,1,0,0:0:0:0:
402,192,55022,1,0,0:0:0:0:
329,192,55185,1,0,0:0:0:0:
182,192,55185,1,0,0:0:0:0:
109,192,55348,1,0,0:0:0:0:
402,192,55348,1,0,0:0:0:0:
182,192,55511,1,0,0:0:0:0:
329,192,55511,1,0,0:0:0:0:
402,192,55674,1,0,0:0:0:0:
109,192,55674,1,0,0:0:0:0:
402,192,55837,1,0,0:0:0:0:
109,192,55837,1,0,0:0:0:0:
256,192,56000,1,0,0:0:0:0:
402,192,56000,1,0,0:0:0:0:
402,192,56163,1,0,0:0:0:0:
182,192,56163,1,0,0:0:0:0:
36,192,56326,1,0,0:0:0:0:
182,192,56326,1,0,0:0:0:0:
402,192,56408,1,0,0:0:0:0:
182,192,56489,1,0,0:0:0:0:
329,192,56571,1,0,0:0:0:0:
182,192,56652,1,0,0:0:0:0:
36,192,56652,1,0,0:0:0:0:
256,192,56815,1,0,0:0:0:0:
402,192,56815,1,0,0:0:0:0:
256,192,56978,1,0,0:0:0:0:
402,192,56978,1,0,0:0:0:0:
109,192,57141,1,0,0:0:0:0:
329,192,57141,1,0,0:0:0:0:
36,192,57304,1,0,0:0:0:0:
256,192,57304,1,0,0:0:0:0:
109,192,57467,1,0,0:0:0:0:
329,192,57467,1,0,0:0:0:0:
109,192,57630,1,0,0:0:0:0:
329,192,57630,1,0,0:0:0:0:
475,192,57793,1,0,0:0:0:0:
256,192,57793,1,0,0:0:0:0:
182,192,57956,1,0,0:0:0:0:
475,192,57956,1,0,0:0:0:0:
182,192,58119,1,0,0:0:0:0:
475,192,58119,1,0,0:0:0:0:
109,192,58283,1,0,0:0:0:0:
402,192,58283,1,0,0:0:0:0:
182,192,58446,1,0,0:0:0:0:
329,192,58446,1,0,0:0:0:0:
256,192,58609,1,0,0:0:0:0:
475,192,58609,1,0,0:0:0:0:
109,192,58609,1,0,0:0:0:0:
109,192,58772,1,0,0:0:0:0:
329,192,58772,1,0,0:0:0:0:
256,192,58935,1,0,0:0:0:0:
109,192,58935,1,0,0:0:0:0:
475,192,58935,1,0,0:0:0:0:
329,192,59098,1,0,0:0:0:0:
109,192,59098,1,0,0:0:0:0:
256,192,59261,1,0,0:0:0:0:
475,192,59261,1,0,0:0:0:0:
109,192,59261,1,0,0:0:0:0:
402,192,59342,1,0,0:0:0:0:
329,192,59424,1,0,0:0:0:0:
256,192,59505,1,0,0:0:0:0:
182,192,59587,1,0,0:0:0:0:
402,192,59587,1,0,0:0:0:0:
329,192,59668,1,0,0:0:0:0:
256,192,59750,1,0,0:0:0:0:
182,192,59831,1,0,0:0:0:0:
109,192,59913,1,0,0:0:0:0:
329,192,59913,1,0,0:0:0:0:
256,192,59994,1,0,0:0:0:0:
182,192,60076,1,0,0:0:0:0:
109,192,60158,1,0,0:0:0:0:
329,192,60239,1,0,0:0:0:0:
36,192,60239,1,0,0:0:0:0:
109,192,60321,1,0,0:0:0:0:
182,192,60402,1,0,0:0:0:0:
256,192,60484,1,0,0:0:0:0:
329,192,60565,128,0,61217:0:0:0:0:
402,192,61869,1,0,0:0:0:0:
182,192,61869,1,0,0:0:0:0:
109,192,61869,128,0,63174:0:0:0:0:
475,192,62359,1,0,0:0:0:0:
329,192,62359,1,0,0:0:0:0:
256,192,62522,1,0,0:0:0:0:
402,192,62522,1,0,0:0:0:0:
182,192,62685,1,0,0:0:0:0:
475,192,62685,1,0,0:0:0:0:
402,192,63011,1,0,0:0:0:0:
329,192,63092,1,0,0:0:0:0:
402,192,63174,128,0,63826:0:0:0:0:
256,192,63174,1,0,0:0:0:0:
182,192,63255,1,0,0:0:0:0:
109,192,63337,1,0,0:0:0:0:
329,192,63337,1,0,0:0:0:0:
36,192,63663,1,0,0:0:0:0:
182,192,63663,1,0,0:0:0:0:
329,192,63826,128,0,64152:0:0:0:0:
109,192,63826,1,0,0:0:0:0:
256,192,63989,1,0,0:0:0:0:
475,192,63989,1,0,0:0:0:0:
36,192,64152,1,0,0:0:0:0:
182,192,64152,1,0,0:0:0:0:
402,192,64234,1,0,0:0:0:0:
109,192,64315,1,0,0:0:0:0:
329,192,64397,1,0,0:0:0:0:
182,192,64478,1,0,0:0:0:0:
475,192,64478,1,0,0:0:0:0:
329,192,64967,1,0,0:0:0:0:
256,192,65130,1,0,0:0:0:0:
402,192,65130,1,0,0:0:0:0:
182,192,65293,1,0,0:0:0:0:
109,192,65619,1,0,0:0:0:0:
182,192,65701,1,0,0:0:0:0:
256,192,65783,1,0,0:0:0:0:
475,192,65783,1,0,0:0:0:0:
402,192,65946,1,0,0:0:0:0:
109,192,65946,1,0,0:0:0:0:
182,192,66272,1,0,0:0:0:0:
329,192,66435,1,0,0:0:0:0:
475,192,66435,1,0,0:0:0:0:
182,192,66598,1,0,0:0:0:0:
402,192,66679,1,0,0:0:0:0:
36,192,66761,1,0,0:0:0:0:
182,192,66761,1,0,0:0:0:0:
329,192,66924,1,0,0:0:0:0:
475,192,66924,1,0,0:0:0:0:
182,192,67087,1,0,0:0:0:0:
329,192,67087,1,0,0:0:0:0:
36,192,67087,1,0,0:0:0:0:
182,192,67576,1,0,0:0:0:0:
329,192,67576,1,0,0:0:0:0:
329,192,67739,1,0,0:0:0:0:
475,192,67739,1,0,0:0:0:0:
256,192,67902,1,0,0:0:0:0:
475,192,67902,1,0,0:0:0:0:
182,192,68228,1,0,0:0:0:0:
256,192,68310,1,0,0:0:0:0:
329,192,68391,1,0,0:0:0:0:
475,192,68391,1,0,0:0:0:0:
402,192,68554,1,0,0:0:0:0:
182,192,68554,1,0,0:0:0:0:
109,192,68880,1,0,0:0:0:0:
256,192,68880,1,0,0:0:0:0:
182,192,69043,1,0,0:0:0:0:
329,192,69043,1,0,0:0:0:0:
256,192,69206,1,0,0:0:0:0:
36,192,69206,1,0,0:0:0:0:
36,192,69369,1,0,0:0:0:0:
256,192,69369,1,0,0:0:0:0:
329,192,69451,1,0,0:0:0:0:
402,192,69533,1,0,0:0:0:0:
475,192,69614,1,0,0:0:0:0:
36,192,69696,1,0,0:0:0:0:
182,192,69696,1,0,0:0:0:0:
256,192,70185,1,0,0:0:0:0:
402,192,70185,1,0,0:0:0:0:
182,192,70348,1,0,0:0:0:0:
475,192,70348,1,0,0:0:0:0:
329,192,70511,1,0,0:0:0:0:
109,192,70511,1,0,0:0:0:0:
109,192,70837,1,0,0:0:0:0:
256,192,70918,1,0,0:0:0:0:
402,192,71000,1,0,0:0:0:0:
475,192,71000,1,0,0:0:0:0:
256,192,71163,1,0,0:0:0:0:
329,192,71489,1,0,0:0:0:0:
402,192,71489,1,0,0:0:0:0:
256,192,71652,1,0,0:0:0:0:
475,192,71652,1,0,0:0:0:0:
109,192,71815,1,0,0:0:0:0:
182,192,71897,1,0,0:0:0:0:
256,192,71978,1,0,0:0:0:0:
109,192,72060,1,0,0:0:0:0:
182,192,72141,1,0,0:0:0:0:
256,192,72223,1,0,0:0:0:0:
329,192,72304,1,0,0:0:0:0:
475,192,72304,1,0,0:0:0:0:
402,192,72793,1,0,0:0:0:0:
182,192,72793,1,0,0:0:0:0:
256,192,72956,1,0,0:0:0:0:
475,192,72956,1,0,0:0:0:0:
109,192,73119,1,0,0:0:0:0:
182,192,73446,1,0,0:0:0:0:
329,192,73527,1,0,0:0:0:0:
36,192,73609,1,0,0:0:0:0:
182,192,73609,1,0,0:0:0:0:
329,192,73772,1,0,0:0:0:0:
475,192,73772,1,0,0:0:0:0:
109,192,74098,1,0,0:0:0:0:
256,192,74098,1,0,0:0:0:0:
36,192,74261,1,0,0:0:0:0:
329,192,74261,1,0,0:0:0:0:
256,192,74424,1,0,0:0:0:0:
109,192,74587,1,0,0:0:0:0:
402,192,74587,1,0,0:0:0:0:
329,192,74668,1,0,0:0:0:0:
256,192,74750,1,0,0:0:0:0:
182,192,74831,1,0,0:0:0:0:
109,192,74913,1,0,0:0:0:0:
402,192,74913,1,0,0:0:0:0:
182,192,75402,1,0,0:0:0:0:
329,192,75565,1,0,0:0:0:0:
402,192,75565,1,0,0:0:0:0:
256,192,75728,1,0,0:0:0:0:
329,192,76054,1,0,0:0:0:0:
182,192,76136,1,0,0:0:0:0:
475,192,76217,1,0,0:0:0:0:
36,192,76217,1,0,0:0:0:0:
329,192,76380,1,0,0:0:0:0:
36,192,76380,1,0,0:0:0:0:
182,192,76706,1,0,0:0:0:0:
329,192,76706,1,0,0:0:0:0:
109,192,76869,1,0,0:0:0:0:
402,192,76869,1,0,0:0:0:0:
182,192,77033,1,0,0:0:0:0:
256,192,77114,1,0,0:0:0:0:
329,192,77196,1,0,0:0:0:0:
475,192,77196,1,0,0:0:0:0:
182,192,77359,1,0,0:0:0:0:
329,192,77359,1,0,0:0:0:0:
256,192,77522,1,0,0:0:0:0:
402,192,77522,1,0,0:0:0:0:
109,192,77522,1,0,0:0:0:0:
329,192,78011,1,0,0:0:0:0:
109,192,78174,1,0,0:0:0:0:
402,192,78174,1,0,0:0:0:0:
182,192,78337,1,0,0:0:0:0:
402,192,78663,1,0,0:0:0:0:
329,192,78744,1,0,0:0:0:0:
256,192,78826,1,0,0:0:0:0:
109,192,78989,1,0,0:0:0:0:
402,192,78989,1,0,0:0:0:0:
182,192,79315,1,0,0:0:0:0:
329,192,79478,1,0,0:0:0:0:
475,192,79478,1,0,0:0:0:0:
109,192,79478,1,0,0:0:0:0:
402,192,79641,1,0,0:0:0:0:
329,192,79723,1,0,0:0:0:0:
256,192,79804,1,0,0:0:0:0:
402,192,79886,1,0,0:0:0:0:
329,192,79967,1,0,0:0:0:0:
256,192,80049,1,0,0:0:0:0:
182,192,80130,1,0,0:0:0:0:
36,192,80130,1,0,0:0:0:0:
402,192,80293,1,0,0:0:0:0:
182,192,80456,1,0,0:0:0:0:
329,192,80456,1,0,0:0:0:0:
402,192,80619,1,0,0:0:0:0:
329,192,80783,1,0,0:0:0:0:
475,192,80783,1,0,0:0:0:0:
256,192,80946,1,0,0:0:0:0:
36,192,81109,1,0,0:0:0:0:
182,192,81109,1,0,0:0:0:0:
109,192,81272,1,0,0:0:0:0:
256,192,81435,1,0,0:0:0:0:
402,192,81435,1,0,0:0:0:0:
329,192,81598,1,0,0:0:0:0:
109,192,81761,1,0,0:0:0:0:
402,192,81761,1,0,0:0:0:0:
329,192,81924,1,0,0:0:0:0:
475,192,82087,1,0,0:0:0:0:
256,192,82087,1,0,0:0:0:0:
402,192,82250,1,0,0:0:0:0:
36,192,82413,1,0,0:0:0:0:
182,192,82413,1,0,0:0:0:0:
329,192,82576,1,0,0:0:0:0:
256,192,82658,1,0,0:0:0:0:
182,192,82739,1,0,0:0:0:0:
36,192,82739,1,0,0:0:0:0:
329,192,82902,1,0,0:0:0:0:
36,192,83065,1,0,0:0:0:0:
182,192,83065,1,0,0:0:0:0:
109,192,83228,1,0,0:0:0:0:
402,192,83391,1,0,0:0:0:0:
182,192,83391,1,0,0:0:0:0:
256,192,83554,1,0,0:0:0:0:
36,192,83717,1,0,0:0:0:0:
402,192,83717,1,0,0:0:0:0:
109,192,83880,1,0,0:0:0:0:
256,192,83962,1,0,0:0:0:0:
402,192,84043,1,0,0:0:0:0:
475,192,84043,1,0,0:0:0:0:
329,192,84206,1,0,0:0:0:0:
182,192,84369,1,0,0:0:0:0:
402,192,84369,1,0,0:0:0:0:
256,192,84533,1,0,0:0:0:0:
182,192,84614,1,0,0:0:0:0:
109,192,84696,1,0,0:0:0:0:
402,192,84696,1,0,0:0:0:0:
256,192,84859,1,0,0:0:0:0:
329,192,84940,1,0,0:0:0:0:
402,192,85022,1,0,0:0:0:0:
109,192,85022,1,0,0:0:0:0:
182,192,85185,1,0,0:0:0:0:
329,192,85266,1,0,0:0:0:0:
475,192,85348,1,0,0:0:0:0:
109,192,85348,1,0,0:0:0:0:
256,192,85511,1,0,0:0:0:0:
402,192,85511,1,0,0:0:0:0:
256,192,85674,1,0,0:0:0:0:
402,192,85674,1,0,0:0:0:0:
182,192,85837,1,0,0:0:0:0:
475,192,85837,1,0,0:0:0:0:
182,192,86000,1,0,0:0:0:0:
329,192,86000,1,0,0:0:0:0:
182,192,86163,1,0,0:0:0:0:
329,192,86163,1,0,0:0:0:0:
109,192,86326,1,0,0:0:0:0:
402,192,86326,1,0,0:0:0:0:
182,192,86489,1,0,0:0:0:0:
256,192,86571,1,0,0:0:0:0:
329,192,86652,1,0,0:0:0:0:
475,192,86652,1,0,0:0:0:0:
402,192,86815,1,0,0:0:0:0:
36,192,86978,1,0,0:0:0:0:
182,192,86978,1,0,0:0:0:0:
475,192,87141,1,0,0:0:0:0:
36,192,87223,1,0,0:0:0:0:
182,192,87304,1,0,0:0:0:0:
329,192,87304,1,0,0:0:0:0:
402,192,87467,1,0,0:0:0:0:
109,192,87467,1,0,0:0:0:0:
256,192,87467,1,0,0:0:0:0:
256,192,87630,1,0,0:0:0:0:
109,192,87630,1,0,0:0:0:0:
402,192,87630,1,0,0:0:0:0:
36,192,87956,1,0,0:0:0:0:
182,192,87956,1,0,0:0:0:0:
329,192,87956,1,0,0:0:0:0:
475,192,87956,1,0,0:0:0:0:
