osu file format v14

[General]
AudioFilename: Let Me Hear.mp3
AudioLeadIn: 0
PreviewTime: 61018
Countdown: 0
SampleSet: Soft
StackLeniency: 0.7
Mode: 0
LetterboxInBreaks: 0
WidescreenStoryboard: 0

[Editor]
DistanceSpacing: 1.4
BeatDivisor: 4
GridSize: 8
TimelineZoom: 2

[Metadata]
Title:Let Me Hear
TitleUnicode:Let Me Hear
Artist:Fear, and Loathing in Las Vegas
ArtistUnicode:Fear, and Loathing in Las Vegas
Creator:Hollow Wings
Version:Hard
Source:寄生獣 セイの格率
Tags:Parasyte きせいじゅう Kiseijuu Sei no Kakuritsu Guu Minakami Yuki mtbbsben Shad0w1and TV Size
BeatmapID:530495
BeatmapSetID:225293

[Difficulty]
HPDrainRate:6
CircleSize:4
OverallDifficulty:7
ApproachRate:8
SliderMultiplier:1.4
SliderTickRate:1

[Events]
//Background and Video events
Video,0,"Let Me Hear.avi"
0,0,"Let Me Hear.jpg",0,0
//Break Periods
//Storyboard Layer 0 (Background)
//Storyboard Layer 1 (Fail)
//Storyboard Layer 2 (Pass)
//Storyboard Layer 3 (Foreground)
//Storyboard Sound Samples

[TimingPoints]
-123,326.086956521739,4,2,1,35,1,0
1181,-100,4,2,1,70,0,0
10963,-100,4,2,1,70,0,0
11616,-100,4,2,1,70,0,0
16833,-100,4,2,1,70,0,0
22050,-100,4,1,1,80,0,1
32485,-100,4,2,2,70,0,0
42920,-100,4,1,2,70,0,0
53355,-100,4,1,1,70,0,0
59876,-100,4,2,1,30,0,0
61181,-100,4,1,1,80,0,1
79442,-100,4,1,1,80,0,1
87268,-100,4,2,1,30,0,0

[Colours]
Combo1 : 255,47,52
Combo2 : 109,109,109
Combo3 : 255,146,142
Combo4 : 213,213,213

[HitObjects]
50,219,529,6,0,L|43:309,2,70,0|0|0,0:0|0:0|0:0,0:0:0:0:
128,248,1018,1,0,0:0:0:0:
128,248,1181,6,0,L|218:254,1,70,2|0,0:0|0:0,0:0:0:0:
213,171,1507,2,0,L|303:165,1,70,2|0,0:0|0:0,0:0:0:0:
335,231,1833,1,2,0:0:0:0:
335,231,1996,1,0,0:0:0:0:
369,156,2159,2,0,L|459:150,1,70,2|0,0:0|0:0,0:0:0:0:
479,224,2485,6,0,L|485:314,1,70,2|0,0:0|0:0,0:0:0:0:
473,133,2811,2,0,L|479:43,1,70,2|0,0:0|0:0,0:0:0:0:
477,63,3137,1,2,0:0:0:0:
389,11,3300,1,0,0:0:0:0:
389,11,3463,2,0,L|393:80,1,70,2|0,0:0|0:0,0:0:0:0:
438,151,3790,6,0,L|369:156,1,70,2|0,0:0|0:0,0:0:0:0:
315,91,4116,2,0,L|246:87,1,70,2|0,0:0|0:0,0:0:0:0:
181,140,4442,1,2,0:0:0:0:
181,140,4605,1,0,0:0:0:0:
168,58,4768,2,0,L|98:53,1,70,2|0,0:0|0:0,0:0:0:0:
72,132,5094,6,0,L|2:136,1,70,2|0,0:0|0:0,0:0:0:0:
118,228,5420,2,0,L|48:223,1,70,2|0,0:0|0:0,0:0:0:0:
186,274,5746,1,2,0:0:0:0:
186,274,5909,1,0,0:0:0:0:
111,311,6072,2,0,L|41:315,1,70,2|0,0:0|0:0,0:0:0:0:
180,363,6398,5,2,0:0:0:0:
180,363,6561,1,0,0:0:0:0:
180,363,6724,1,2,0:0:0:0:
180,363,6887,1,0,0:0:0:0:
111,311,7050,2,0,L|41:315,1,70,2|0,0:0|0:0,0:0:0:0:
186,274,7376,2,0,L|276:280,1,70,2|0,0:0|0:0,0:0:0:0:
344,231,7703,6,0,L|338:321,1,70,2|0,0:0|0:0,0:0:0:0:
425,254,8029,2,0,L|515:248,1,70,2|0,0:0|0:0,0:0:0:0:
466,330,8355,1,2,0:0:0:0:
495,249,8518,2,0,L|490:179,2,70,0|2|0,0:0|0:0|0:0,0:0:0:0:
466,330,9007,5,2,0:0:0:0:
466,330,9170,1,0,0:0:0:0:
425,254,9333,1,2,0:0:0:0:
425,254,9496,1,0,0:0:0:0:
347,215,9659,1,2,0:0:0:0:
260,213,9822,1,0,0:0:0:0:
184,254,9985,1,2,0:0:0:0:
184,254,10148,1,0,0:0:0:0:
141,180,10311,6,0,B|32:155|32:155|0:162,2,140,2|2|2,0:0|0:0|0:0,0:0:0:0:
109,266,11126,1,0,0:0:0:0:
23,304,11290,2,0,L|27:234,1,70,2|0,0:0|0:0,0:0:0:0:
97,355,11616,5,2,0:0:0:0:
97,355,11779,1,0,0:0:0:0:
198,312,11942,2,0,L|193:242,1,70,8|0,0:0|0:0,0:0:0:0:
308,320,12268,5,2,0:0:0:0:
308,320,12431,1,0,0:0:0:0:
397,371,12594,2,0,L|392:301,1,70,8|0,0:0|0:0,0:0:0:0:
298,231,12920,5,2,0:0:0:0:
298,231,13083,1,0,0:0:0:0:
340,143,13246,2,0,L|344:73,1,70,10|0,0:0|0:0,0:0:0:0:
213,184,13572,5,2,0:0:0:0:
213,184,13735,1,0,0:0:0:0:
298,231,13898,2,0,L|302:161,1,70,10|0,0:0|0:0,0:0:0:0:
156,242,14224,5,2,0:0:0:0:
156,242,14387,1,0,0:0:0:0:
50,182,14550,2,0,L|45:112,1,70,10|0,0:0|0:0,0:0:0:0:
136,160,14876,5,2,0:0:0:0:
136,160,15039,1,0,0:0:0:0:
251,100,15203,2,0,L|255:30,1,70,10|0,0:0|0:0,0:0:0:0:
213,184,15529,5,2,0:0:0:0:
213,184,15692,1,0,0:0:0:0:
298,230,15855,2,0,L|293:160,1,70,10|0,0:0|0:0,0:0:0:0:
437,97,16181,5,8,0:1:0:0:
437,97,16344,1,8,0:1:0:0:
422,268,16507,2,0,L|426:198,1,70,4|0,0:1|0:0,0:0:0:0:
298,230,16833,6,0,L|207:216,1,70,2|0,0:0|0:0,0:0:0:0:
138,277,17159,2,0,L|133:207,1,70,10|0,0:0|0:0,0:0:0:0:
64,219,17485,6,0,L|155:205,1,70,2|0,0:0|0:0,0:0:0:0:
229,219,17811,2,0,L|233:149,1,70,10|0,0:0|0:0,0:0:0:0:
151,59,18137,6,0,L|155:128,1,70,2|0,0:0|0:0,0:0:0:0:
138,277,18463,2,0,L|142:207,1,70,10|0,0:0|0:0,0:0:0:0:
229,219,18790,6,0,L|233:288,1,70,2|0,0:0|0:0,0:0:0:0:
374,334,19116,2,0,L|378:264,1,70,10|0,0:0|0:0,0:0:0:0:
459,173,19442,6,0,L|319:181,1,140,2|10,0:0|0:0,0:0:0:0:
320,181,19931,1,0,0:0:0:0:
230,219,20094,6,0,L|391:229,1,140,2|10,0:0|0:0,0:0:0:0:
369,227,20583,1,0,0:0:0:0:
303,307,20746,6,0,L|464:297,2,140,4|4|8,0:1|0:1|0:1,0:0:0:0:
263,321,21480,1,8,0:1:0:0:
224,306,21561,2,0,L|216:257,2,35,8|8|8,0:1|0:1|0:1,0:0:0:0:
59,328,22050,5,6,0:0:0:0:
256,192,22132,12,0,26290,3:0:0:0:
122,217,26616,6,0,L|112:174,6,35,8|2|2|8|2|2|10,0:0|0:0|0:0|0:0|0:0|0:0|0:0,0:0:0:0:
96,253,27268,6,0,L|257:263,1,140,4|2,0:0|0:0,0:0:0:0:
235,261,27757,1,8,0:0:0:0:
211,341,27920,2,0,L|372:331,1,140,2|8,0:0|0:0,0:0:0:0:
318,256,28409,1,2,0:0:0:0:
235,261,28572,5,2,0:0:0:0:
197,180,28735,2,0,L|267:184,1,70,8|2,0:0|0:0,0:0:0:0:
318,256,29061,1,2,0:0:0:0:
345,156,29224,2,0,L|335:113,2,35,8|2|2,0:0|0:0|0:0,0:0:0:0:
417,117,29550,2,0,L|427:74,2,35,2|2|2,0:0|0:0|0:0,0:0:0:0:
485,165,29876,6,0,L|345:156,1,140,6|2,0:0|0:0,0:0:0:0:
267,184,30365,1,8,0:0:0:0:
236,261,30529,2,0,L|96:269,1,140,2|2,0:0|0:0,0:0:0:0:
66,346,31017,1,0,0:0:0:0:
12,283,31180,5,2,0:0:0:0:
19,199,31344,1,0,0:0:0:0:
42,165,31425,1,0,0:0:0:0:
35,124,31507,2,0,L|25:81,3,35,8|8|4|4,0:3|0:3|0:3|0:3,0:0:0:0:
38,49,31833,2,0,L|48:6,3,35,8|8|2|2,0:0|0:0|0:0|0:0,0:0:0:0:
79,41,32159,2,0,L|149:37,1,70,8|0,0:0|0:0,0:0:0:0:
205,100,32485,5,6,0:0:0:0:
205,100,32648,1,0,0:0:0:0:
202,185,32811,2,0,L|272:189,1,70,8|0,0:0|0:0,0:0:0:0:
348,157,33137,1,2,0:0:0:0:
385,81,33300,2,0,L|375:38,2,35,0|0|8,0:0|0:0|0:0,0:0:0:0:
466,61,33626,1,0,0:0:0:0:
489,142,33790,5,2,0:0:0:0:
489,142,33953,2,0,L|481:176,2,35,0|0|8,0:0|0:0|0:0,0:0:0:0:
466,61,34279,1,0,0:0:0:0:
385,81,34442,2,0,L|315:77,1,70,2|0,0:0|0:0,0:0:0:0:
241,35,34768,2,0,L|171:39,1,70,8|0,0:0|0:0,0:0:0:0:
36,98,35094,6,0,L|106:102,1,70,2|0,0:0|0:0,0:0:0:0:
124,250,35420,2,0,L|194:246,1,70,8|0,0:0|0:0,0:0:0:0:
210,163,35746,1,2,0:0:0:0:
289,136,35909,2,0,L|299:93,2,35,0|0|8,0:0|0:0|0:0,0:0:0:0:
361,178,36235,1,0,0:0:0:0:
373,261,36399,5,2,0:0:0:0:
373,261,36561,2,0,L|365:295,2,35,0|0|8,0:0|0:0|0:0,0:0:0:0:
361,178,36887,1,0,0:0:0:0:
289,136,37051,2,0,L|219:140,1,70,2|0,0:0|0:0,0:0:0:0:
194,254,37377,2,0,L|124:250,1,70,8|0,0:0|0:0,0:0:0:0:
62,187,37703,5,2,0:0:0:0:
62,187,37866,1,0,0:0:0:0:
145,178,38029,2,0,L|215:174,1,70,8|0,0:0|0:0,0:0:0:0:
194,254,38355,1,2,0:0:0:0:
220,333,38518,2,0,L|230:376,2,35,0|0|8,0:0|0:0|0:0,0:0:0:0:
274,225,38844,1,0,0:0:0:0:
343,272,39008,5,2,0:0:0:0:
426,271,39171,2,0,L|433:236,2,35,0|0|8,0:0|0:0|0:0,0:0:0:0:
340,355,39497,1,0,0:0:0:0:
220,333,39660,2,0,L|216:263,1,70,2|0,0:0|0:0,0:0:0:0:
128,145,39985,2,0,L|124:215,1,70,8|0,0:0|0:0,0:0:0:0:
64,349,40311,6,0,L|134:345,1,70,2|0,0:0|0:0,0:0:0:0:
4,267,40637,2,0,L|74:271,1,70,8|0,0:0|0:0,0:0:0:0:
129,145,40963,1,2,0:0:0:0:
129,145,41126,2,0,L|139:102,2,35,0|0|8,0:0|0:0|0:0,0:0:0:0:
155,265,41452,1,0,0:0:0:0:
64,349,41616,5,2,0:0:0:0:
64,349,41779,2,0,L|54:306,2,35,0|0|8,0:0|0:0|0:0,0:0:0:0:
147,343,42105,1,0,0:0:0:0:
155,265,42268,2,0,L|151:195,1,70,2|0,0:0|0:0,0:0:0:0:
218,124,42594,2,0,L|222:54,1,70,8|0,0:0|0:0,0:0:0:0:
292,58,42920,6,0,L|222:54,1,70,6|0,0:0|0:0,0:0:0:0:
409,112,43246,2,0,L|339:116,1,70,8|0,0:0|0:0,0:0:0:0:
443,46,43572,1,2,0:0:0:0:
443,46,43735,2,0,L|486:56,2,35,0|0|8,0:0|0:0|0:0,0:0:0:0:
339,116,44061,1,0,0:0:0:0:
322,198,44224,6,0,L|279:208,2,35,2|0|0,0:0|0:0|0:0,0:0:0:0:
388,249,44550,2,0,L|458:245,1,70,8|0,0:0|0:0,0:0:0:0:
430,324,44876,2,0,L|360:320,1,70,2|0,0:0|0:0,0:0:0:0:
324,297,45121,1,0,0:0:0:0:
287,317,45203,2,0,L|240:319,2,46.6666666666667,8|0|0,0:0|0:0|0:0,0:0:0:0:
172,278,45529,6,0,L|102:274,1,70,2|0,0:0|0:0,0:0:0:0:
207,171,45855,2,0,L|67:179,1,140,8|2,0:0|0:0,0:0:0:0:
34,101,46344,2,0,L|32:56,2,35,0|0|8,0:0|0:0|0:0,0:0:0:0:
21,248,46670,1,0,0:0:0:0:
47,327,46833,6,0,L|111:323,2,46.6666666666667,2|0|0,0:0|0:0|0:0,0:0:0:0:
17,317,47159,2,0,L|21:247,1,70,8|0,0:0|0:0,0:0:0:0:
71,179,47485,1,2,0:0:0:0:
35,101,47648,1,0,0:0:0:0:
35,101,47730,1,0,0:0:0:0:
35,101,47811,2,0,L|33:66,2,35,8|0|0,0:0|0:0|0:0,0:0:0:0:
106,27,48137,6,0,L|110:96,1,70,2|0,0:0|0:0,0:0:0:0:
220,153,48463,2,0,L|216:223,1,70,8|0,0:0|0:0,0:0:0:0:
272,336,48790,1,2,0:0:0:0:
272,336,48953,2,0,L|274:291,2,35,0|0|8,0:0|0:0|0:0,0:0:0:0:
308,213,49279,1,0,0:0:0:0:
404,324,49442,6,0,L|408:388,2,46.6666666666667,2|0|0,0:0|0:0|0:0,0:0:0:0:
383,271,49768,2,0,L|387:201,2,70,8|0|2,0:0|0:0|0:0,0:0:0:0:
308,213,50257,1,0,0:0:0:0:
308,213,50338,1,0,0:0:0:0:
308,213,50420,2,0,L|261:210,2,46.6666666666667,8|0|0,0:0|0:0|0:0,0:0:0:0:
200,252,50746,6,0,L|130:256,1,70,2|0,0:0|0:0,0:0:0:0:
20,183,51072,2,0,L|90:187,1,70,8|0,0:0|0:0,0:0:0:0:
201,252,51398,1,2,0:0:0:0:
209,140,51561,2,0,L|211:95,2,35,0|0|8,0:0|0:0|0:0,0:0:0:0:
136,76,51887,1,0,0:0:0:0:
58,107,52050,5,2,0:0:0:0:
24,253,52213,2,0,L|20:182,1,70,8|8,0:0|0:0,0:0:0:0:
121,156,52540,1,2,0:0:0:0:
205,210,52703,2,0,L|209:139,1,70,8|8,0:0|0:0,0:0:0:0:
274,325,53029,2,0,L|270:254,1,70,8|2,0:0|0:0,0:0:0:0:
286,133,53355,6,0,L|289:63,1,70,12|2,0:0|0:0,0:0:0:0:
364,25,53681,1,2,0:0:0:0:
364,25,53844,6,0,L|367:94,1,70,8|2,0:0|0:0,0:0:0:0:
357,183,54170,1,2,0:0:0:0:
357,183,54333,6,0,L|360:252,1,70,12|2,0:0|0:0,0:0:0:0:
438,358,54659,1,2,0:0:0:0:
438,358,54822,6,0,L|441:288,1,70,8|2,0:0|0:0,0:0:0:0:
431,200,55148,1,2,0:0:0:0:
431,200,55311,6,0,L|434:130,1,70,8|2,0:0|0:0,0:0:0:0:
476,57,55637,2,0,L|441:55,3,35,2|2|2|2,0:0|0:0|0:0|0:0,0:0:0:0:
501,41,55963,6,0,L|504:110,1,70,12|2,0:0|0:0,0:0:0:0:
431,201,56290,2,0,L|427:131,1,70,2|8,0:0|0:0,0:0:0:0:
333,244,56616,6,0,L|336:174,1,70,2|2,0:0|0:0,0:0:0:0:
431,61,56942,2,0,L|427:130,1,70,12|2,0:0|0:0,0:0:0:0:
334,105,57268,6,0,L|337:174,1,70,2|8,0:0|0:0,0:0:0:0:
143,211,57594,2,0,L|139:141,1,70,2|2,0:0|0:0,0:0:0:0:
144,72,57920,6,0,L|140:141,1,70,8|2,0:0|0:0,0:0:0:0:
143,211,58246,2,0,L|139:280,1,70,8|2,0:0|0:0,0:0:0:0:
226,331,58572,6,0,L|224:286,3,35,8|8|2|2,0:0|0:0|0:0|0:0,0:0:0:0:
261,263,58898,2,0,L|263:218,3,35,8|2|2|2,0:0|0:0|0:0|0:0,0:0:0:0:
228,189,59224,2,0,L|226:144,3,35,8|8|2|8,0:0|0:0|0:0|0:0,0:0:0:0:
268,123,59550,2,0,L|270:78,3,35,2|2|2|2,0:0|0:0|0:0|0:0,0:0:0:0:
256,192,59876,12,0,60855,3:0:0:0:
451,89,61181,6,0,L|311:80,1,140,6|2,0:2|0:0,0:0:0:0:
321,179,61670,1,2,0:0:0:0:
240,235,61833,1,8,0:0:0:0:
240,235,61996,2,0,L|401:225,1,140,2|2,0:0|0:0,0:0:0:0:
402,270,62404,1,2,0:0:0:0:
402,270,62485,6,0,L|398:340,1,70,2|8,0:0|0:0,0:0:0:0:
455,19,62974,1,2,0:0:0:0:
455,19,63137,2,0,L|451:89,1,70,8|2,0:0|0:0,0:0:0:0:
368,87,63463,2,0,L|366:42,3,35,2|2|2|2,0:0|0:0|0:0|0:0,0:0:0:0:
326,22,63790,6,0,L|186:30,1,140,6|2,0:0|0:0,0:0:0:0:
88,24,64279,1,2,0:0:0:0:
36,107,64442,1,8,0:0:0:0:
36,107,64605,2,0,L|197:117,1,140,2|2,0:0|0:0,0:0:0:0:
210,151,65013,1,2,0:0:0:0:
210,151,65094,6,0,L|214:221,1,70,2|8,0:0|0:0,0:0:0:0:
268,347,65420,2,0,L|272:277,1,70,2|2,0:0|0:0,0:0:0:0:
284,130,65746,2,0,L|288:200,1,70,8|2,0:0|0:0,0:0:0:0:
321,219,65991,1,2,0:0:0:0:
343,249,66072,2,0,L|344:283,3,35,2|2|8|2,0:0|0:0|0:0|0:0,0:0:0:0:
375,322,66398,6,0,L|383:182,1,140,6|2,0:2|0:0,0:0:0:0:
284,129,66887,1,2,0:0:0:0:
174,153,67050,1,8,0:0:0:0:
174,153,67213,2,0,L|165:13,1,140,2|2,0:0|0:0,0:0:0:0:
120,33,67621,1,2,0:0:0:0:
74,16,67702,6,0,L|70:86,1,70,2|8,0:0|0:0,0:0:0:0:
94,330,68191,1,2,0:0:0:0:
94,330,68355,2,0,L|98:260,1,70,8|2,0:0|0:0,0:0:0:0:
43,186,68680,2,0,L|8:187,3,35,2|2|2|2,0:0|0:0|0:0|0:0,0:0:0:0:
25,140,69007,6,0,L|35:301,1,140,6|2,0:0|0:0,0:0:0:0:
180,189,69496,1,2,0:0:0:0:
180,189,69659,2,0,L|170:350,1,140,8|2,0:0|0:0,0:0:0:0:
269,344,70148,6,0,L|267:299,2,35,2|2|2,0:0|0:0|0:0,0:0:0:0:
332,269,70474,2,0,L|323:129,1,140,8|2,0:0|0:0,0:0:0:0:
341,27,70963,1,8,0:0:0:0:
407,107,71126,2,0,L|405:141,5,35,8|8|4|4|2|2,0:3|0:3|0:3|0:3|0:0|0:0,0:0:0:0:
399,191,71616,6,0,L|238:201,1,140,6|2,0:2|0:0,0:0:0:0:
164,141,72105,1,2,0:0:0:0:
166,28,72268,1,8,0:0:0:0:
166,28,72431,2,0,L|5:38,1,140,2|2,0:0|0:0,0:0:0:0:
56,75,72839,1,2,0:0:0:0:
43,122,72920,6,0,L|39:192,1,70,2|8,0:0|0:0,0:0:0:0:
341,28,73409,1,2,0:0:0:0:
341,28,73572,2,0,L|337:98,1,70,8|2,0:0|0:0,0:0:0:0:
328,270,73898,2,0,L|326:235,3,35,2|2|2|2,0:0|0:0|0:0|0:0,0:0:0:0:
289,202,74224,6,0,L|149:193,1,140,6|2,0:0|0:0,0:0:0:0:
74,290,74713,2,0,L|235:280,1,140,0|2,0:0|0:0,0:0:0:0:
328,270,75203,1,2,0:0:0:0:
328,270,75366,6,0,L|326:225,2,35,2|2|2,0:0|0:0|0:0,0:0:0:0:
432,313,75692,1,8,0:0:0:0:
432,313,75855,2,0,L|436:243,1,70,2|2,0:0|0:0,0:0:0:0:
495,125,76181,1,8,0:0:0:0:
495,125,76344,2,0,L|499:195,2,70,2|2|8,0:0|0:0|0:0,0:0:0:0:
341,30,76833,6,0,L|502:40,1,140,6|2,0:2|0:0,0:0:0:0:
400,131,77322,1,2,0:0:0:0:
400,131,77485,2,0,L|330:135,1,70,8|2,0:0|0:0,0:0:0:0:
254,72,77811,1,2,0:0:0:0:
157,59,77974,2,0,L|155:14,2,35,2|2|2,0:0|0:0|0:0,0:0:0:0:
64,88,78300,1,8,0:0:0:0:
400,131,78626,6,0,L|330:135,1,70,2|8,0:0|0:0,0:0:0:0:
254,72,78953,1,2,0:0:0:0:
157,59,79116,2,0,L|155:14,3,35,2|2|2|2,0:0|0:0|0:0|0:0,0:0:0:0:
180,107,79442,6,0,L|170:268,1,140,6|2,0:2|0:0,0:0:0:0:
171,246,79931,1,2,0:0:0:0:
86,196,80094,2,0,L|90:266,1,70,8|2,0:0|0:0,0:0:0:0:
7,255,80420,2,0,L|3:325,1,70,8|2,0:0|0:0,0:0:0:0:
172,246,80746,6,0,L|176:316,1,70,8|2,0:0|0:0,0:0:0:0:
73,20,81235,1,2,0:0:0:0:
73,20,81398,2,0,L|77:90,1,70,8|2,0:0|0:0,0:0:0:0:
86,196,81724,2,0,L|82:266,1,70,8|2,0:0|0:0,0:0:0:0:
168,135,82050,6,0,L|164:65,1,70,8|2,0:0|0:0,0:0:0:0:
455,24,82539,1,2,0:0:0:0:
455,24,82702,2,0,L|451:94,1,70,8|2,0:0|0:0,0:0:0:0:
338,88,83028,2,0,L|342:158,1,70,8|2,0:0|0:0,0:0:0:0:
305,190,83273,1,2,0:0:0:0:
255,186,83355,6,0,L|259:116,1,70,8|2,0:0|0:0,0:0:0:0:
164,66,83681,2,0,L|168:136,1,70,8|2,0:0|0:0,0:0:0:0:
177,316,84007,2,0,L|181:246,1,70,8|2,0:0|0:0,0:0:0:0:
86,196,84333,2,0,L|90:266,1,70,8|2,0:0|0:0,0:0:0:0:
169,136,84659,5,8,0:0:0:0:
370,351,84985,2,0,L|374:281,1,70,8|2,0:0|0:0,0:0:0:0:
380,159,85311,1,8,0:0:0:0:
380,159,85474,1,2,0:0:0:0:
293,280,85637,2,0,L|289:210,1,70,8|2,0:0|0:0,0:0:0:0:
244,190,85882,1,2,0:0:0:0:
196,201,85963,6,0,L|187:61,1,140,8|8,0:0|0:0,0:0:0:0:
187,61,86453,1,2,0:0:0:0:
78,34,86616,5,10,0:0:0:0:
78,34,86779,1,10,0:0:0:0:
78,34,86942,1,10,0:0:0:0:
168,324,87268,5,14,0:0:0:0:
256,192,87349,12,0,89387,3:0:0:0:
