osu file format v14

[General]
AudioFilename: Parasyte.mp3
AudioLeadIn: 800
PreviewTime: 60714
Countdown: 0
SampleSet: Soft
StackLeniency: 0.5
Mode: 0
LetterboxInBreaks: 0
WidescreenStoryboard: 0

[Editor]
DistanceSpacing: 1.3
BeatDivisor: 4
GridSize: 4
TimelineZoom: 2.1

[Metadata]
Title:Let Me Hear
TitleUnicode:Let Me Hear
Artist:Fear, and Loathing in Las Vegas
ArtistUnicode:Fear, and Loathing in Las Vegas
Creator:Aerous
Version:Pho's Hard
Source:寄生獣 セイの格率
Tags:parasyte the maxim Kiseijuu Sei no Kakuritsu -Yuzuriha-inori- Pho Guy IamKwaN
BeatmapID:595983
BeatmapSetID:260405

[Difficulty]
HPDrainRate:5.5
CircleSize:4
OverallDifficulty:6
ApproachRate:8
SliderMultiplier:1.4
SliderTickRate:1

[Events]
//Background and Video events
Video,0,"Parasyte!.avi"
0,0,"JamesHaFixed.png",0,0
//Break Periods
//Storyboard Layer 0 (Background)
//Storyboard Layer 1 (Fail)
//Storyboard Layer 2 (Pass)
//Storyboard Layer 3 (Foreground)
//Storyboard Sound Samples

[TimingPoints]
715,326.086956521739,4,2,25,70,1,0
15714,-83.3333333333333,4,1,25,80,0,0
16367,-100,4,2,25,70,0,0
20280,-83.3333333333333,4,2,25,70,0,0
20932,-100,4,1,25,80,0,0
32019,-100,4,2,0,60,0,0
32100,-100,4,2,25,60,0,0
42454,-100,4,1,25,60,0,0
52888,-83.3333333333333,4,1,25,70,0,0
53214,-100,4,1,25,60,0,0
59410,-100,4,2,0,50,0,0
60388,-100,4,2,0,20,0,0
60714,-90.9090909090909,4,1,25,70,0,1
70823,-90.9090909090909,4,1,25,50,0,1
71149,-90.9090909090909,4,1,25,70,0,1
78975,-90.9090909090909,4,1,0,70,0,0
81584,-100,4,1,0,70,0,0
84193,-100,4,1,25,70,0,0
86149,-100,4,1,25,70,0,0
86475,-100,4,1,25,70,0,0
86801,-100,4,1,25,70,0,0
87128,-100,4,2,0,50,0,0
87780,-100,4,2,0,30,0,0
88432,-100,4,2,0,10,0,0
88921,-100,4,2,0,5,0,0

[Colours]
Combo1 : 128,0,255
Combo2 : 0,128,192
Combo3 : 255,0,159
Combo4 : 192,192,192

[HitObjects]
357,214,715,6,0,B|363:190|363:190|396:159,1,70,8|0,0:0|0:0,0:0:0:0:
394,281,1041,2,0,B|417:287|417:287|448:320,1,70,8|0,0:0|0:0,0:0:0:0:
326,316,1367,2,0,B|319:339|319:339|286:370,1,70,8|0,0:0|0:0,0:0:0:0:
288,251,1693,2,0,B|264:245|264:245|233:212,1,70,8|0,0:0|0:0,0:0:0:0:
156,153,2019,6,0,B|133:104|133:104|138:62,1,70,8|0,0:0|0:0,0:0:0:0:
231,74,2345,2,0,B|253:25|253:25|289:1,1,70,8|0,0:0|0:0,0:0:0:0:
336,84,2671,2,0,B|387:70|387:70|428:82,1,70,8|0,0:0|0:0,0:0:0:0:
408,172,2997,2,0,B|451:202|451:202|469:241,1,70,8|0,0:0|0:0,0:0:0:0:
387,304,3323,5,8,0:0:0:0:
387,304,3486,1,0,0:0:0:0:
325,248,3649,2,0,L|237:268,1,70,8|0,0:0|0:0,0:0:0:0:
176,238,3975,1,8,0:0:0:0:
125,304,4138,1,0,0:0:0:0:
54,258,4301,2,0,L|26:173,1,70,8|0,0:0|0:0,0:0:0:0:
98,99,4628,6,0,L|76:32,1,70,8|0,0:0|0:0,0:0:0:0:
165,48,4954,2,0,L|187:115,1,70,8|0,0:0|0:0,0:0:0:0:
285,167,5280,2,0,L|263:100,1,70,8|0,0:0|0:0,0:0:0:0:
340,77,5606,2,0,L|362:144,1,70,8|0,0:0|0:0,0:0:0:0:
380,253,5932,6,0,P|360:323|296:350,1,140,8|0,0:0|0:0,0:0:0:0:
298,266,6421,1,0,0:0:0:0:
219,295,6584,2,0,L|138:303,1,70,8|0,0:0|0:0,0:0:0:0:
191,213,6910,2,0,L|110:221,1,70,8|0,0:0|0:0,0:0:0:0:
37,168,7236,6,0,B|23:89|23:89|57:26,1,140,8|8,0:0|0:0,0:0:0:0:
128,70,7725,1,0,0:0:0:0:
212,58,7888,2,0,L|295:50,1,70,8|0,0:0|0:0,0:0:0:0:
352,96,8214,1,8,0:0:0:0:
429,63,8378,1,0,0:0:0:0:
429,63,8541,6,0,B|413:150|413:150|450:220,1,140,8|8,0:0|0:0,0:0:0:0:
485,264,9030,1,0,0:0:0:0:
440,334,9193,2,0,L|366:319,1,70,8|0,0:0|0:0,0:0:0:0:
308,264,9519,2,0,L|234:279,1,70,8|0,0:0|0:0,0:0:0:0:
108,303,9845,5,8,0:0:0:0:
108,303,10008,1,0,0:0:0:0:
103,205,10171,1,8,0:0:0:0:
103,205,10334,1,0,0:0:0:0:
100,107,10497,2,0,L|97:15,1,70,8|0,0:0|0:0,0:0:0:0:
186,151,10823,2,0,L|180:61,1,70,8|0,0:0|0:0,0:0:0:0:
272,16,11149,6,0,L|368:14,1,70,8|0,0:0|0:0,0:0:0:0:
439,14,11475,1,12,0:0:0:0:
439,14,11638,1,0,0:0:0:0:
469,108,11801,2,0,L|375:114,1,70,8|0,0:0|0:0,0:0:0:0:
300,117,12128,1,12,0:0:0:0:
300,118,12291,1,0,0:0:0:0:
229,186,12454,6,0,B|234:236|234:236|231:256,1,70,8|0,0:0|0:0,0:0:0:0:
164,362,12780,2,0,B|159:312|159:312|162:292,1,70,12|0,0:0|0:0,0:0:0:0:
90,188,13106,2,0,B|95:238|95:238|92:258,1,70,8|0,0:0|0:0,0:0:0:0:
16,156,13432,2,0,B|11:106|11:106|14:86,1,70,12|0,0:0|0:0,0:0:0:0:
87,46,13758,5,8,0:0:0:0:
87,46,13921,1,0,0:0:0:0:
147,108,14084,2,0,B|194:121|194:121|236:122,1,70,12|0,0:0|0:0,0:0:0:0:
320,199,14410,2,0,B|333:151|333:151|334:110,1,70,8|0,0:0|0:0,0:0:0:0:
223,217,14736,2,0,B|213:272|213:272|225:302,1,70,12|0,0:0|0:0,0:0:0:0:
285,334,15062,5,8,0:0:0:0:
285,334,15225,1,0,0:0:0:0:
357,291,15388,2,0,B|408:287|408:287|438:272,1,70,12|0,0:0|0:0,0:0:0:0:
493,200,15714,5,0,1:0:0:0:
493,98,15878,1,0,1:0:0:0:
399,60,16041,2,0,B|354:90|354:90|352:144,1,83.9999974365235,2|0,1:0|2:0,0:0:0:0:
268,215,16367,6,0,B|179:215|179:215|123:182,1,140,8|12,0:0|0:0,0:0:0:0:
82,123,16856,1,0,0:0:0:0:
14,172,17019,2,0,L|21:248,1,70,8|0,0:0|0:0,0:0:0:0:
82,123,17345,2,0,L|75:47,1,70,12|0,0:0|0:0,0:0:0:0:
159,62,17671,5,8,0:0:0:0:
163,147,17834,1,0,0:0:0:0:
262,96,17997,2,0,L|349:91,1,70,4|0,0:0|0:0,0:0:0:0:
337,175,18323,1,8,0:0:0:0:
347,258,18486,1,0,0:0:0:0:
434,151,18649,2,0,L|435:56,1,70,4|0,0:0|0:0,0:0:0:0:
368,30,18975,6,0,B|296:38|296:38|228:89,1,140,8|4,0:0|0:0,0:0:0:0:
175,130,19464,1,0,0:0:0:0:
87,38,19628,2,0,B|71:121|71:121|113:180,1,140,8|4,0:0|0:0,0:0:0:0:
194,201,20117,1,0,0:0:0:0:
318,183,20280,6,0,B|312:133|312:133|277:91,1,83.9999974365235,2|0,0:1|0:0,0:0:0:0:
194,201,20606,2,0,B|200:251|200:251|235:293,1,83.9999974365235,2|0,0:1|0:0,0:0:0:0:
327,312,20932,2,0,L|377:298,1,35
384,267,21095,2,0,L|435:256,1,35
443,225,21258,1,0,0:0:0:0:
379,69,21584,5,4,0:0:0:0:
256,192,21666,12,0,23867,0:0:0:0:
379,69,24193,6,0,B|336:38|336:38|295:39,1,70
271,99,24519,2,0,L|281:181,1,70,0|8,0:0|0:0,0:0:0:0:
230,227,24845,1,2,0:0:0:0:
154,240,25008,1,2,0:0:0:0:
132,316,25171,6,0,P|160:356|260:360,1,140,8|0,0:0|0:0,0:0:0:0:
270,294,25660,1,2,0:0:0:0:
341,323,25823,2,0,L|413:315,1,70,0|0,0:0|0:0,0:0:0:0:
442,215,26149,2,0,L|455:172,3,35,8|8|8|8,0:0|0:0|0:0|0:0,0:0:0:0:
419,161,26475,2,0,L|406:118,3,35,8|8|8|8,0:0|0:0|0:0|0:0,0:0:0:0:
445,114,26801,6,0,B|452:60|452:60|447:44,1,70
342,33,27128,2,0,B|288:25|288:25|272:31,1,70,0|8,0:0|0:0,0:0:0:0:
256,133,27454,2,0,B|248:186|248:186|254:203,1,70,2|2,0:0|0:0,0:0:0:0:
356,219,27780,6,0,B|409:226|409:226|426:221,2,70,8|0|0,0:0|0:0|0:0,0:0:0:0:
274,284,28269,2,0,B|267:329|267:329|238:357,2,70,10|0|0,0:0|0:0|0:0,0:0:0:0:
202,207,28758,2,0,B|154:195|154:195|124:166,1,70,8|0,0:0|0:0,0:0:0:0:
116,78,29084,2,0,L|131:34,2,35,8|8|8,0:0|0:0|0:0,0:0:0:0:
39,78,29410,5,0,0:0:0:0:
7,147,29573,1,0,0:0:0:0:
61,210,29736,2,0,L|59:305,1,70,0|8,0:0|0:0,0:0:0:0:
135,227,30062,2,0,L|139:129,1,70,2|2,0:0|0:0,0:0:0:0:
192,93,30388,1,8,0:0:0:0:
268,128,30551,1,0,0:0:0:0:
314,59,30714,6,0,B|347:53|347:53|390:63,1,70,0|10,0:0|0:0,0:0:0:0:
437,117,31041,2,0,L|451:172,3,35,8|8|8|4,0:3|0:3|0:3|0:3,0:0:0:0:
413,171,31367,2,0,L|399:226,3,35,0|0|0|0,0:0|0:0|0:0|0:0,0:0:0:0:
440,219,31693,2,0,L|452:295,1,70,0|0,0:0|2:0,0:0:0:0:
353,343,32019,6,0,L|255:358,1,70,4|0,0:0|0:0,0:0:0:0:
245,278,32345,1,2,0:0:0:0:
175,325,32508,1,0,0:0:0:0:
120,261,32671,2,0,L|76:200,1,70
28,114,32997,1,2,0:0:0:0:
28,114,33160,1,0,0:0:0:0:
117,128,33323,6,0,P|166:90|176:7,1,140,0|2,0:0|0:0,0:0:0:0:
258,81,33812,2,0,L|333:59,1,70
370,132,34138,1,0,0:0:0:0:
453,142,34301,1,2,0:0:0:0:
443,225,34464,6,0,P|410:281|327:301,1,140
280,244,34954,1,2,0:0:0:0:
195,256,35117,1,0,0:0:0:0:
195,256,35280,2,0,B|188:304|188:304|162:335,2,70,0|0|2,0:0|0:0|0:0,0:0:0:0:
168,183,35769,6,0,P|65:163|26:192,1,140
60,82,36258,2,0,L|79:0,1,70,2|0,0:0|0:0,0:0:0:0:
159,19,36584,1,0,0:0:0:0:
217,79,36747,1,0,0:0:0:0:
275,18,36910,2,0,L|345:37,1,70,2|0,0:0|0:0,0:0:0:0:
383,110,37236,6,0,P|347:158|372:251,1,140,0|2,0:0|0:0,0:0:0:0:
439,187,37725,2,0,B|478:186|478:186|524:218,1,70
506,287,38051,1,0,0:0:0:0:
431,322,38214,2,0,B|395:331|395:331|349:322,1,70,2|0,0:0|0:0,0:0:0:0:
321,250,38541,6,0,B|301:219|301:219|299:163,1,70
212,186,38867,1,2,0:0:0:0:
212,185,39030,2,0,B|211:219|211:219|191:250,1,70
149,321,39356,2,0,B|117:328|117:328|81:319,2,70,0|2|0,0:0|0:0|0:0,0:0:0:0:
117,243,39845,6,0,P|85:205|139:113,1,140,0|2,0:0|0:0,0:0:0:0:
176,74,40334,1,0,0:0:0:0:
212,145,40497,2,0,L|261:212,2,70,0|0|2,0:0|0:0|0:0,0:0:0:0:
259,75,40986,6,0,B|342:36|342:36|407:54,1,140
469,72,41475,1,2,0:0:0:0:
469,72,41638,1,0,0:0:0:0:
474,155,41801,2,0,B|474:193|474:193|457:227,1,70
378,246,42128,2,0,B|363:274|363:274|363:312,1,70,2|0,0:0|0:0,0:0:0:0:
257,260,42454,5,4,0:0:0:0:
257,260,42617,2,0,L|256:181,2,70,2|10|0,0:0|0:0|0:0,0:0:0:0:
197,318,43106,1,0,0:0:0:0:
147,250,43269,2,0,L|75:239,1,70,0|8,0:0|0:0,0:0:0:0:
32,168,43595,1,0,0:0:0:0:
40,84,43758,5,0,0:0:0:0:
40,84,43921,2,0,B|45:40|45:40|18:-4,2,70,2|10|2,0:0|0:0|0:0,0:0:0:0:
105,136,44410,1,0,0:0:0:0:
172,86,44573,2,0,L|251:95,1,70,0|8,0:0|0:0,0:0:0:0:
316,56,44899,1,0,0:0:0:0:
316,56,45062,6,0,P|382:46|442:102,1,140,0|10,0:0|0:0,0:0:0:0:
466,167,45551,1,0,0:0:0:0:
458,251,45714,2,0,L|441:327,2,70,0|0|10,0:0|0:0|0:0,0:0:0:0:
367,183,46204,6,0,B|317:172|317:172|275:192|275:192|203:177,1,140
170,108,46693,2,0,P|217:85|266:91,1,70,8|2,0:0|0:0,0:0:0:0:
321,128,47019,1,0,0:0:0:0:
310,226,47182,1,2,0:0:0:0:
220,265,47345,2,0,L|214:299,2,35,10|2|2,0:0|0:0|0:0,0:0:0:0:
129,228,47671,6,0,B|88:219|88:219|41:233,1,70
32,118,47997,2,0,B|74:129|74:129|112:124,1,70,8|2,0:0|0:0,0:0:0:0:
170,79,48323,2,0,B|208:57|208:57|251:49,1,70,0|2,0:0|0:0,0:0:0:0:
298,105,48649,1,8,0:0:0:0:
298,105,48812,1,0,0:0:0:0:
408,33,48975,6,0,B|400:121|400:121|350:161,1,140,0|8,0:0|0:0,0:0:0:0:
291,201,49464,1,2,0:0:0:0:
212,170,49628,2,0,B|179:160|179:160|138:160,1,70,0|2,0:0|0:0,0:0:0:0:
10,193,49954,2,0,B|43:202|43:202|79:203,1,70,10|0,0:0|0:0,0:0:0:0:
131,301,50280,6,0,B|133:327|133:327|131:353|131:353|132:387,2,70,0|2|8,0:0|0:0|0:0,0:0:0:0:
193,225,50769,2,0,L|277:213,1,70,2|0,0:0|0:0,0:0:0:0:
413,258,51095,2,0,L|344:268,1,70,2|10,0:0|0:0,0:0:0:0:
344,268,51421,1,0,0:0:0:0:
351,156,51584,6,0,B|362:107|362:107|352:68,2,70,10|8|8,0:0|0:0|0:0,0:0:0:0:
257,138,52073,1,0,0:0:0:0:
154,87,52236,2,0,B|149:107|149:107|161:156,2,70,8|8|8,0:0|0:0|0:0,0:0:0:0:
257,138,52725,1,0,0:0:0:0:
254,238,52888,6,0,B|249:270|249:270|257:294|257:294|251:337,1,83.9999974365235,4|0,0:0|0:0,0:0:0:0:
179,360,53214,6,0,B|131:362|131:362|107:346,1,70,0|8,0:0|0:0,0:0:0:0:
51,291,53541,1,0,0:0:0:0:
112,233,53704,1,0,0:0:0:0:
48,178,53867,2,0,L|44:101,1,70,8|0,0:0|0:0,0:0:0:0:
137,46,54193,5,0,0:0:0:0:
200,100,54356,1,8,0:0:0:0:
268,51,54519,1,0,0:0:0:0:
268,51,54682,2,0,B|313:60|313:60|334:94|334:94|397:109,1,140
463,71,55171,2,0,L|498:31,2,35,0|0|0,0:0|0:0|0:0,0:0:0:0:
449,182,55497,6,0,B|466:239|466:239|461:265,1,70,8|0,0:0|0:0,0:0:0:0:
464,249,55823,1,0,0:0:0:0:
341,277,55986,6,0,B|317:332|317:332|296:348,1,70,8|0,0:0|0:0,0:0:0:0:
310,338,56312,1,0,0:0:0:0:
220,248,56475,6,0,B|166:274|166:274|140:274,1,70,8|0,0:0|0:0,0:0:0:0:
156,274,56801,1,0,0:0:0:0:
150,148,56964,6,0,B|99:114|99:114|87:92,1,70,8|0,0:0|0:0,0:0:0:0:
96,106,57290,1,0,0:0:0:0:
182,13,57454,5,8,0:0:0:0:
230,81,57617,1,0,0:0:0:0:
350,118,57780,5,8,0:0:0:0:
315,194,57943,1,0,0:0:0:0:
198,241,58106,6,0,L|157:258,3,35,0|0|0|0,0:0|0:0|0:0|0:0,0:0:0:0:
139,230,58432,2,0,L|97:213,3,35,0|0|0|0,0:0|0:0|0:0|0:0,0:0:0:0:
74,232,58758,6,0,L|29:241,3,35,0|0|0|0,0:0|0:0|0:0|0:0,0:0:0:0:
28,205,59084,2,0,L|-8:181,3,35,0|0|0|0,0:0|0:0|0:0|0:0,0:0:0:0:
256,192,59410,12,0,60388,0:0:0:0:
114,42,60714,6,0,P|173:54|196:146,1,154.000004699707,4|0,0:0|0:0,0:0:0:0:
256,199,61204,1,0,0:0:0:0:
311,135,61367,2,0,P|327:63|398:42,1,154.000004699707,8|0,0:0|0:0,0:0:0:0:
467,88,61856,6,0,L|514:98,2,38.5000011749268,0|0|0,0:0|0:0|0:0,0:0:0:0:
387,116,62182,2,0,B|399:205|399:205|447:269,1,154.000004699707,8|0,0:0|0:0,0:0:0:0:
492,321,62671,2,0,L|409:351,1,77.0000023498536,8|0,0:0|0:0,0:0:0:0:
335,334,62997,1,0,0:0:0:0:
251,320,63160,6,0,L|212:351,2,38.5000011749268,0|0|0,0:0|0:0|0:0,0:0:0:0:
237,236,63486,1,0,0:0:0:0:
321,230,63649,1,0,0:0:0:0:
317,145,63812,1,0,0:0:0:0:
246,99,63975,2,0,B|194:93|194:93|154:62|154:62|93:59,1,154.000004699707,8|0,0:0|0:0,0:0:0:0:
36,132,64464,6,0,L|-18:109,2,38.5000011749268,0|0|0,0:0|0:0|0:0,0:0:0:0:
48,232,64791,2,0,P|98:267|196:235,1,154.000004699707,8|0,0:0|0:0,0:0:0:0:
260,132,65280,2,0,L|268:229,1,77.0000023498536,8|0,0:0|0:0,0:0:0:0:
266,208,65524,1,0,0:0:0:0:
266,208,65606,1,0,0:0:0:0:
352,260,65769,1,0,0:0:0:0:
384,163,65932,6,0,B|407:133|437:115|437:115|484:116|516:142,1,154.000004699707,4|0,0:0|0:0,0:0:0:0:
464,209,66421,1,0,0:0:0:0:
464,209,66584,2,0,B|473:306|473:306|401:355,1,154.000004699707,8|0,0:0|0:0,0:0:0:0:
378,267,67073,6,0,L|346:208,2,38.5000011749268,0|0|0,0:0|0:0|0:0,0:0:0:0:
324,331,67399,2,0,P|258:355|174:321,1,154.000004699707,8|0,0:0|0:0,0:0:0:0:
140,205,67888,2,0,L|137:121,1,77.0000023498536,8|0,0:0|0:0,0:0:0:0:
207,66,68214,2,0,L|258:63,3,38.5000011749268,0|0|0|0,0:0|0:0|0:0|0:0,0:0:0:0:
282,71,68541,6,0,B|353:101|353:101|387:194,1,154.000004699707,4|0,0:1|0:0,0:0:0:0:
392,256,69030,1,0,0:0:0:0:
335,318,69193,2,0,L|242:332,1,77.0000023498536,8|0,0:0|0:0,0:0:0:0:
202,266,69519,1,0,0:0:0:0:
118,280,69682,6,0,L|88:320,2,38.5000011749268,0|0|0,0:0|0:0|0:0,0:0:0:0:
99,196,70008,2,0,B|101:112|101:112|59:38,1,154.000004699707,8|0,0:0|0:0,0:0:0:0:
216,31,70497,2,0,L|140:24,1,77.0000023498536,8|8,0:0|0:3,0:0:0:0:
204,109,70823,2,0,L|203:155,2,38.5000011749268,4|4|4,3:3|3:3|3:3,0:0:0:0:
292,47,71149,6,0,L|379:39,1,77.0000023498536,4|0,0:0|0:0,0:0:0:0:
485,99,71475,2,0,L|404:109,1,77.0000023498536
341,159,71801,2,0,B|326:251|326:251|363:324,1,154.000004699707,8|0,0:0|0:0,0:0:0:0:
353,305,72291,1,0,0:0:0:0:
281,224,72454,5,0,0:0:0:0:
281,224,72617,2,0,P|224:221|139:307,1,154.000004699707,8|0,0:0|0:0,0:0:0:0:
149,277,73106,2,0,L|132:175,1,77.0000023498536,8|0,0:0|0:0,0:0:0:0:
142,116,73432,2,0,L|151:60,3,38.5000011749268,0|0|0|0,0:0|0:0|0:0|0:0,0:0:0:0:
158,36,73758,6,0,P|224:35|317:95,1,154.000004699707,4|0,0:0|0:0,0:0:0:0:
337,151,74247,1,0,0:0:0:0:
391,67,74410,2,0,P|431:52|479:63,1,77.0000023498536,8|0,0:0|0:0,0:0:0:0:
490,129,74736,2,0,L|494:217,1,77.0000023498536
494,205,74981,1,0,0:0:0:0:
494,205,75062,5,0,0:0:0:0:
353,242,75225,2,0,P|367:204|409:171,1,77.0000023498536,8|0,0:0|0:0,0:0:0:0:
436,251,75551,1,0,0:0:0:0:
394,324,75714,1,8,0:0:0:0:
308,320,75878,2,0,L|291:373,2,38.5000011749268,0|0|0,0:0|0:0|0:0,0:0:0:0:
266,246,76204,1,8,0:0:0:0:
181,246,76367,6,0,P|115:262|49:339,1,154.000004699707,4|0,0:0|0:0,0:0:0:0:
56,322,76856,1,0,0:0:0:0:
16,236,77019,2,0,B|28:212|28:212|92:196,1,77.0000023498536,8|0,0:0|0:0,0:0:0:0:
181,247,77345,6,0,B|233:239|233:239|275:206,1,77.0000023498536
252,224,77589,1,0,0:0:0:0:
252,224,77671,1,0,0:0:0:0:
260,138,77834,2,0,L|268:49,1,77.0000023498536,8|0,0:0|0:0,0:0:0:0:
372,157,78160,1,0,0:0:0:0:
372,157,78323,2,0,L|380:68,1,77.0000023498536,8|0,0:0|0:0,0:0:0:0:
488,115,78649,2,0,L|483:153,3,38.5000011749268,0|0|0|0,0:0|0:0|0:0|0:0,0:0:0:0:
477,191,78975,6,0,B|471:236|471:236|438:272,1,77.0000023498536,2|0,0:0|0:0,0:0:0:0:
341,262,79301,2,0,B|307:292|307:292|259:298,1,77.0000023498536,2|0,0:0|0:0,0:0:0:0:
196,222,79628,2,0,B|150:223|150:223|109:197,1,77.0000023498536,2|0,0:0|0:0,0:0:0:0:
129,99,79954,2,0,B|93:71|93:71|78:24,1,77.0000023498536,2|0,0:0|0:0,0:0:0:0:
206,40,80280,6,0,B|248:54|248:54|292:56,1,77.0000023498536,2|0,0:0|0:0,0:0:0:0:
409,106,80606,2,0,B|366:120|366:120|323:122,1,77.0000023498536,2|0,0:0|0:0,0:0:0:0:
206,175,80932,2,0,B|248:189|248:189|292:191,1,77.0000023498536,2|0,0:0|0:0,0:0:0:0:
406,249,81258,2,0,B|363:263|363:263|320:265,1,77.0000023498536,2|0,0:0|0:0,0:0:0:0:
331,264,81503,1,0,0:0:0:0:
331,264,81584,5,6,0:0:0:0:
264,336,81747,1,0,0:0:0:0:
196,264,81910,2,0,L|108:299,1,70,2|0,0:0|0:0,0:0:0:0:
40,253,82236,1,2,0:0:0:0:
40,253,82399,1,0,0:0:0:0:
103,178,82562,2,0,L|180:148,1,70,2|0,0:0|0:0,0:0:0:0:
168,152,82807,1,0,0:0:0:0:
168,152,82888,5,2,0:0:0:0:
234,80,83051,1,0,0:0:0:0:
295,156,83214,1,0,0:0:0:0:
356,78,83378,2,2,B|373:76|393:58|393:58|425:68|425:68|463:51|510:81,1,140,0|2,0:2|0:0,0:0:0:0:
457,144,83867,2,0,L|452:217,1,70,0|0,0:0|0:0,0:0:0:0:
372,239,84193,5,12,0:0:0:0:
413,311,84356,1,0,0:0:0:0:
304,339,84519,2,0,B|277:354|277:354|213:347,1,70,8|0,0:0|0:0,0:0:0:0:
163,248,84845,1,8,0:0:0:0:
163,248,85008,2,0,B|163:217|163:217|201:165,1,70,0|8,0:0|0:0,0:0:0:0:
311,170,85334,1,0,0:0:0:0:
311,170,85497,2,0,B|337:185|337:185|363:244,2,70,8|8|8,0:0|0:0|0:0,0:0:0:0:
242,121,85986,1,0,0:0:0:0:
262,248,86149,6,0,B|265:276|265:276|259:301|259:301|273:339,2,70,8|8|8,0:0|0:0|0:0,0:0:0:0:
319,86,86801,1,4,0:0:0:0:
256,192,86883,12,0,88921,0:0:0:0:
