osu file format v14

[General]
AudioFilename: Parasyte.mp3
AudioLeadIn: 800
PreviewTime: 60714
Countdown: 0
SampleSet: Soft
StackLeniency: 0.7
Mode: 0
LetterboxInBreaks: 0
WidescreenStoryboard: 0

[Editor]
DistanceSpacing: 1.8
BeatDivisor: 4
GridSize: 4
TimelineZoom: 2.999999

[Metadata]
Title:Let Me Hear
TitleUnicode:Let Me Hear
Artist:Fear, and Loathing in Las Vegas
ArtistUnicode:Fear, and Loathing in Las Vegas
Creator:Aerous
Version:Extra
Source:寄生獣 セイの格率
Tags:parasyte the maxim Kiseijuu Sei no Kakuritsu -Yuzuriha-inori- Pho Guy IamKwaN
BeatmapID:594963
BeatmapSetID:260405

[Difficulty]
HPDrainRate:7
CircleSize:4
OverallDifficulty:8
ApproachRate:9
SliderMultiplier:1.7
SliderTickRate:1

[Events]
//Background and Video events
Video,0,"Parasyte!.avi"
0,0,"JamesHaFixed.png",0,0
//Break Periods
//Storyboard Layer 0 (Background)
//Storyboard Layer 1 (Fail)
//Storyboard Layer 2 (Pass)
//Storyboard Layer 3 (Foreground)
//Storyboard Sound Samples

[TimingPoints]
715,326.086956521739,4,2,11,60,1,0
715,-125,4,2,11,60,0,0
15714,-125,4,2,22,70,0,0
16041,-125,4,2,11,40,0,0
16367,-125,4,2,11,90,0,0
20280,-66.6666666666667,4,2,11,70,0,0
20932,-100,4,1,11,70,0,0
21584,-100,4,1,11,70,0,1
32019,-125,4,2,22,70,0,0
42454,-125,4,1,22,70,0,0
52888,-100,4,1,22,70,0,0
58106,-100,4,1,22,70,0,0
59410,-166.666666666667,4,2,11,20,0,0
60714,-133.333333333333,4,1,11,70,0,1
78975,-90.9090909090909,4,1,11,70,0,1
81584,-90.9090909090909,4,1,11,70,0,0
86801,-200,4,1,0,70,0,0
87128,-200,4,2,0,50,0,0
87780,-200,4,2,0,30,0,0
88432,-200,4,2,0,10,0,0
88758,-90.9090909090909,4,2,0,10,0,0
88839,-90.9090909090909,4,2,0,10,0,0
88921,-90.9090909090909,4,2,0,5,0,0

[Colours]
Combo1 : 128,0,255
Combo2 : 0,128,192
Combo3 : 255,0,159
Combo4 : 192,192,192

[HitObjects]
384,124,715,6,0,P|426:112|462:123,1,68,2|0,0:0|0:0,0:0:0:0:
316,216,1041,2,0,P|272:216|240:196,1,68,2|0,0:0|0:0,0:0:0:0:
152,164,1367,2,0,B|158:120|158:92|142:85,1,68,2|0,0:0|0:0,0:0:0:0:
44,96,1693,2,0,B|37:139|37:167|53:174,1,68,2|0,0:0|0:0,0:0:0:0:
88,264,2019,6,0,P|144:284|216:244,1,136,2|2,0:0|0:0,0:0:0:0:
304,196,2508,1,0,0:0:0:0:
380,272,2671,2,0,P|396:303|401:347,1,68,2|0,0:0|0:0,0:0:0:0:
476,192,2997,2,0,P|492:160|496:116,1,68,2|0,0:0|0:0,0:0:0:0:
376,108,3323,6,0,B|328:64|268:72|268:72|308:48,1,136,2|2,0:0|0:0,0:0:0:0:
296,172,3812,1,0,0:0:0:0:
272,276,3975,6,0,L|204:292,1,68,2|0,0:0|0:0,0:0:0:0:
64,352,4301,2,0,L|68:264,1,68,2|0,0:0|0:0,0:0:0:0:
40,116,4628,2,0,L|32:184,1,68,2|0,0:0|0:0,0:0:0:0:
144,56,4954,2,0,L|216:36,1,68,2|0,0:0|0:0,0:0:0:0:
264,196,5280,2,0,L|196:184,1,68,2|0,0:0|0:0,0:0:0:0:
360,124,5606,2,0,L|392:40,1,68,2|0,0:0|0:0,0:0:0:0:
276,48,5932,5,2,0:0:0:0:
480,60,6095,1,0,0:0:0:0:
260,72,6258,1,2,0:0:0:0:
468,36,6421,1,0,0:0:0:0:
400,180,6584,2,0,P|390:212|365:235,1,68,2|0,0:0|0:0,0:0:0:0:
268,360,6910,2,0,P|235:369|202:362,1,68,2|0,0:0|0:0,0:0:0:0:
112,244,7236,6,0,B|79:180|100:136|100:136|120:151,1,136,2|2,0:0|0:0,0:0:0:0:
208,244,7725,1,0,0:0:0:0:
72,336,7888,1,2,0:0:0:0:
20,172,8051,1,0,0:0:0:0:
208,244,8214,2,0,L|288:244,1,68,2|0,0:0|0:0,0:0:0:0:
440,248,8541,5,2,0:0:0:0:
448,88,8704,1,0,0:0:0:0:
472,252,8867,1,2,0:0:0:0:
420,88,9030,1,0,0:0:0:0:
308,192,9193,2,0,P|284:215|252:228,1,68,2|0,0:0|0:0,0:0:0:0:
96,180,9519,2,0,P|120:157|152:144,1,68,2|0,0:0|0:0,0:0:0:0:
164,300,9845,6,0,L|168:372,1,68,2|0,0:0|0:0,0:0:0:0:
312,352,10171,2,0,L|388:352,1,68,2|0,0:0|0:0,0:0:0:0:
496,224,10497,1,2,0:0:0:0:
296,188,10660,1,0,0:0:0:0:
420,288,10823,1,2,0:0:0:0:
372,92,10986,1,0,0:0:0:0:
152,48,11149,6,0,L|84:40,1,68,2|0,0:0|0:0,0:0:0:0:
40,200,11475,2,0,L|116:212,1,68,10|0,0:0|0:0,0:0:0:0:
360,140,11801,5,2,0:0:0:0:
160,140,11964,1,0,0:0:0:0:
256,296,12128,2,0,L|256:228,1,68,10|0,0:0|0:0,0:0:0:0:
376,144,12454,5,2,0:0:0:0:
348,336,12617,1,0,0:0:0:0:
220,104,12780,2,0,L|144:104,1,68,10|0,0:0|0:0,0:0:0:0:
4,220,13106,6,0,P|60:228|96:228,1,68,2|0,0:0|0:0,0:0:0:0:
236,344,13432,1,10,0:0:0:0:
336,192,13595,1,0,0:0:0:0:
192,168,13758,5,2,0:0:0:0:
408,296,13921,1,0,0:0:0:0:
464,56,14084,2,0,P|392:32|324:68,1,136,10|2,0:0|0:0,0:0:0:0:
212,144,14573,1,0,0:0:0:0:
32,128,14736,1,10,0:0:0:0:
144,320,14899,1,0,0:0:0:0:
40,224,15062,6,0,L|132:224,1,68,2|0,0:0|0:0,0:0:0:0:
240,304,15388,2,0,L|332:304,1,68,10|0,0:0|0:0,0:0:0:0:
460,304,15714,5,8,0:0:0:0:
492,108,15878,1,8,0:0:0:0:
392,224,16041,6,0,P|340:228|280:216,1,102,4|0,0:0|0:0,0:0:0:0:
268,188,16367,6,0,L|188:208,1,68,2|0,0:0|0:0,0:0:0:0:
104,324,16693,1,10,0:0:0:0:
96,324,16774,1,0,0:0:0:0:
88,324,16856,1,0,0:0:0:0:
12,196,17019,6,0,L|16:116,1,68,2|0,0:0|0:0,0:0:0:0:
136,36,17345,1,10,0:0:0:0:
140,44,17426,1,0,0:0:0:0:
144,52,17508,1,0,0:0:0:0:
296,72,17671,6,0,L|392:52,1,68,2|0,0:0|0:0,0:0:0:0:
488,148,17997,1,10,0:0:0:0:
488,156,18078,1,0,0:0:0:0:
488,164,18160,1,0,0:0:0:0:
424,304,18323,6,0,L|336:352,1,68,2|0,0:0|0:0,0:0:0:0:
212,336,18649,1,10,0:0:0:0:
208,332,18730,1,0,0:0:0:0:
204,328,18812,1,0,0:0:0:0:
72,204,18975,5,2,0:0:0:0:
200,56,19138,1,0,0:0:0:0:
16,168,19301,1,10,0:0:0:0:
216,164,19464,1,0,0:0:0:0:
380,48,19628,5,2,0:0:0:0:
212,76,19791,1,0,0:0:0:0:
376,144,19954,1,10,0:0:0:0:
248,252,20117,1,0,0:0:0:0:
380,48,20280,6,0,P|456:36|508:56,1,127.500004863739,4|0,0:0|0:0,0:0:0:0:
508,272,20606,2,0,P|447:289|385:276,1,127.500004863739,4|0,0:0|0:0,0:0:0:0:
207,287,20932,1,8,0:0:0:0:
176,264,21013,1,8,0:0:0:0:
148,240,21095,1,8,0:0:0:0:
116,216,21176,1,8,0:0:0:0:
88,188,21258,1,8,0:0:0:0:
48,56,21584,5,6,0:0:0:0:
192,112,21747,1,0,0:0:0:0:
60,240,21910,1,2,0:0:0:0:
136,36,22073,1,8,0:0:0:0:
233,184,22236,2,0,P|169:188|121:160,1,85,2|0,0:0|0:0,0:0:0:0:
316,40,22562,2,0,P|364:40|412:64,1,85,8|0,0:0|0:0,0:0:0:0:
500,200,22888,5,2,0:0:0:0:
336,320,23051,1,8,0:0:0:0:
512,352,23214,1,2,0:0:0:0:
336,244,23378,1,0,0:0:0:0:
156,288,23541,1,10,0:0:0:0:
148,288,23622,1,2,0:0:0:0:
140,288,23704,1,0,0:0:0:0:
96,104,23867,1,2,0:0:0:0:
104,104,23948,1,2,0:0:0:0:
112,104,24030,1,0,0:0:0:0:
280,196,24193,5,6,0:0:0:0:
436,68,24356,1,0,0:0:0:0:
260,168,24519,5,2,0:0:0:0:
460,104,24682,1,8,0:0:0:0:
452,236,24845,5,2,0:0:0:0:
296,56,25008,1,0,0:0:0:0:
432,252,25171,1,10,0:0:0:0:
320,44,25334,1,0,0:0:0:0:
152,176,25497,6,0,L|156:272,1,85,2|8,0:0|0:0,0:0:0:0:
154,79,25823,2,0,P|111:85|79:115,1,85,2|0,0:0|0:0,0:0:0:0:
63,302,26149,5,10,0:0:0:0:
79,316,26231,1,2,0:0:0:0:
96,328,26312,1,0,0:0:0:0:
114,337,26393,1,2,0:0:0:0:
146,348,26475,5,10,0:0:0:0:
179,353,26556,1,2,0:0:0:0:
213,353,26638,1,8,0:0:0:0:
246,353,26719,1,2,0:0:0:0:
280,350,26801,6,0,P|344:338|380:318,1,85,6|0,0:0|0:0,0:0:0:0:
487,174,27128,1,2,0:0:0:0:
304,224,27291,1,8,0:0:0:0:
144,116,27454,1,2,0:0:0:0:
296,40,27617,1,0,0:0:0:0:
120,128,27780,2,0,L|28:128,1,85,10|0,0:0|0:0,0:0:0:0:
32,332,28106,5,2,0:0:0:0:
204,200,28269,1,8,0:0:0:0:
16,296,28432,1,2,0:0:0:0:
224,232,28595,1,0,0:0:0:0:
380,328,28758,1,10,0:0:0:0:
388,328,28840,1,2,0:0:0:0:
396,328,28921,1,0,0:0:0:0:
480,172,29084,1,2,0:0:0:0:
476,164,29166,1,2,0:0:0:0:
472,156,29247,1,0,0:0:0:0:
300,128,29410,5,6,0:0:0:0:
108,120,29573,1,0,0:0:0:0:
312,176,29736,1,2,0:0:0:0:
84,164,29899,1,8,0:0:0:0:
216,32,30062,5,2,0:0:0:0:
200,260,30225,1,0,0:0:0:0:
216,32,30388,2,0,L|200:120,1,85,10|0,0:0|0:0,0:0:0:0:
63,294,30714,5,6,0:0:0:0:
80,304,30795,1,2,0:0:0:0:
100,316,30877,1,0,0:0:0:0:
120,328,30958,1,2,0:0:0:0:
148,340,31040,5,8,0:3:0:0:
176,344,31121,1,8,0:3:0:0:
208,344,31204,1,6,0:3:0:0:
236,344,31284,1,4,0:3:0:0:
276,340,31366,5,2,0:0:0:0:
312,328,31447,1,2,0:0:0:0:
348,312,31530,1,8,0:0:0:0:
384,296,31610,1,2,0:0:0:0:
416,276,31692,5,2,0:0:0:0:
216,188,32019,2,0,L|216:104,1,68,6|0,0:0|0:0,0:0:0:0:
128,72,32345,1,10,0:0:0:0:
184,252,32508,1,0,0:0:0:0:
324,164,32671,2,0,L|416:164,1,68,2|0,0:0|0:0,0:0:0:0:
392,164,32916,1,0,0:0:0:0:
392,164,32997,1,10,0:0:0:0:
480,301,33160,6,0,P|440:342|344:349,1,136,2|0,0:0|0:0,0:0:0:0:
216,328,33649,1,10,0:0:0:0:
392,256,33812,1,0,0:0:0:0:
192,352,33975,2,0,L|104:352,1,68,2|0,0:0|0:0,0:0:0:0:
36,216,34301,1,10,0:0:0:0:
140,152,34464,6,0,P|156:212|140:284,1,136,2|0,0:0|0:0,0:0:0:0:
252,196,34954,2,0,L|344:196,1,68,10|0,0:0|0:0,0:0:0:0:
472,156,35280,1,2,0:0:0:0:
344,80,35443,1,0,0:0:0:0:
481,28,35606,1,10,0:0:0:0:
320,72,35769,6,0,P|272:92|192:72,1,136,2|0,0:0|0:0,0:0:0:0:
48,152,36258,1,10,0:0:0:0:
48,152,36339,1,0,0:0:0:0:
48,152,36421,2,0,L|132:152,1,68,0|2,0:0|0:0,0:0:0:0:
268,180,36747,1,0,0:0:0:0:
217,33,36910,1,10,0:0:0:0:
208,236,37073,6,0,P|276:260|336:224,1,136,2|0,0:0|0:0,0:0:0:0:
460,132,37562,1,10,0:0:0:0:
360,28,37725,1,0,0:0:0:0:
404,236,37888,2,0,L|404:312,1,68,2|0,0:0|0:0,0:0:0:0:
260,340,38214,1,10,0:0:0:0:
100,264,38378,6,0,B|64:224|64:224|120:200|112:148,1,136,2|0,0:0|0:0,0:0:0:0:
24,300,38867,1,10,0:0:0:0:
168,224,39030,1,0,0:0:0:0:
40,144,39193,1,2,0:0:0:0:
107,352,39356,1,0,0:0:0:0:
262,231,39519,2,0,L|261:142,1,68,10|0,0:0|0:0,0:0:0:0:
424,72,39845,6,0,L|520:72,1,68,2|0,0:0|0:0,0:0:0:0:
472,224,40171,2,0,L|404:224,1,68,10|0,0:0|0:0,0:0:0:0:
272,308,40497,1,2,0:0:0:0:
100,152,40660,1,0,0:0:0:0:
136,280,40823,1,10,0:0:0:0:
196,52,40986,6,0,P|260:28|328:72,1,136,2|0,0:0|0:0,0:0:0:0:
392,180,41475,2,0,L|468:180,1,68,10|0,0:0|0:0,0:0:0:0:
397,352,41801,1,2,0:0:0:0:
224,228,41964,1,0,0:0:0:0:
392,180,42128,1,10,0:0:0:0:
222,315,42291,1,0,0:0:0:0:
96,247,42454,6,0,P|144:202|147:135,1,136,4|10,0:0|0:0,0:0:0:0:
220,64,42943,1,0,0:0:0:0:
44,168,43106,1,2,0:0:0:0:
72,32,43269,1,0,0:0:0:0:
296,32,43432,2,0,L|296:88|304:128,1,68,10|0,0:0|0:0,0:0:0:0:
244,240,43758,6,0,P|308:260|384:216,1,136,2|10,0:0|0:0,0:0:0:0:
488,116,44247,1,0,0:0:0:0:
488,284,44410,2,0,L|488:356,1,68,2|0,0:0|0:0,0:0:0:0:
324,364,44736,2,0,L|316:288,1,68,10|0,0:0|0:0,0:0:0:0:
132,304,45062,6,0,P|68:300|-4:240,2,136,2|10|2,0:0|0:0|0:0,0:0:0:0:
236,224,45878,1,0,0:0:0:0:
256,84,46041,2,0,L|256:12,1,68,10|0,0:0|0:0,0:0:0:0:
432,108,46367,6,0,P|408:156|332:188,1,136,2|10,0:0|0:0,0:0:0:0:
200,208,46856,1,0,0:0:0:0:
340,92,47019,1,2,0:0:0:0:
464,215,47182,1,0,0:0:0:0:
312,308,47345,2,0,L|220:312,1,68,10|0,0:0|0:0,0:0:0:0:
76,276,47671,6,0,P|56:212|76:140,1,136,2|10,0:0|0:0,0:0:0:0:
200,84,48160,1,0,0:0:0:0:
344,40,48323,2,0,L|424:40,1,68,2|0,0:0|0:0,0:0:0:0:
242,142,48649,2,0,L|174:142,1,68,10|0,0:0|0:0,0:0:0:0:
314,259,48975,6,0,P|360:307|327:367,1,136,2|10,0:0|0:0,0:0:0:0:
208,308,49464,2,0,L|72:308,1,136,2|0,0:0|0:0,0:0:0:0:
0,174,49954,1,10,0:0:0:0:
89,51,50117,1,0,0:0:0:0:
160,184,50280,6,0,P|216:184|296:152,1,136,0|8,0:0|0:0,0:0:0:0:
356,24,50769,1,0,0:0:0:0:
448,148,50932,2,0,L|448:232,1,68
328,304,51258,2,0,L|328:236,1,68,8|0,0:0|0:0,0:0:0:0:
268,72,51584,5,2,0:0:0:0:
164,272,51747,1,10,0:0:0:0:
268,72,51910,5,10,0:0:0:0:
156,272,52073,1,10,0:0:0:0:
268,72,52236,5,10,0:0:0:0:
148,272,52399,1,10,0:0:0:0:
268,72,52562,5,10,0:0:0:0:
140,272,52725,1,10,0:0:0:0:
124,64,52888,6,0,P|88:72|8:52,1,85,6|2,0:0|0:0,0:0:0:0:
0,216,53214,1,2,0:0:0:0:
139,274,53378,2,0,P|179:262|251:282,1,85,8|2,0:0|0:0,0:0:0:0:
337,319,53704,1,2,0:0:0:0:
255,195,53867,2,0,P|273:158|336:118,1,85,8|2,0:0|0:0,0:0:0:0:
376,252,54193,5,2,0:0:0:0:
264,324,54356,2,0,P|218:329|156:308,1,85,8|2,0:0|0:0,0:0:0:0:
176,176,54682,1,2,0:0:0:0:
240,64,54845,2,0,P|285:54|349:68,1,85,8|2,0:0|0:0,0:0:0:0:
448,160,55171,1,2,0:0:0:0:
462,204,55252,1,2,0:0:0:0:
461,250,55334,1,2,0:0:0:0:
445,294,55415,1,2,0:0:0:0:
400,320,55497,6,0,L|292:320,1,85,8|2,0:0|0:0,0:0:0:0:
192,232,55823,1,2,0:0:0:0:
388,140,55986,2,0,L|288:140,1,85,8|2,0:0|0:0,0:0:0:0:
112,176,56312,1,0,0:0:0:0:
72,324,56475,2,0,P|116:332|172:316,1,85,8|2,0:0|0:0,0:0:0:0:
328,300,56801,5,2,0:0:0:0:
468,204,56964,2,0,P|454:143|472:96,1,85,8|2,0:0|0:0,0:0:0:0:
316,56,57291,1,2,0:0:0:0:
164,96,57454,1,8,0:0:0:0:
20,28,57617,1,2,0:0:0:0:
144,128,57780,1,8,0:0:0:0:
56,256,57943,1,2,0:0:0:0:
164,328,58106,5,8,0:0:0:0:
192,348,58187,1,8,0:0:0:0:
224,356,58269,1,2,0:0:0:0:
256,360,58350,1,2,0:0:0:0:
292,360,58432,1,8,0:0:0:0:
324,356,58513,1,2,0:0:0:0:
356,348,58595,1,2,0:0:0:0:
388,336,58676,1,2,0:0:0:0:
460,300,58758,6,0,L|459:240,1,42.5,8|8,0:0|0:0,0:0:0:0:
420,144,58921,2,0,L|420:192,1,42.5,2|2,0:0|0:0,0:0:0:0:
512,104,59084,2,0,L|512:44,1,42.5,8|2,0:0|0:0,0:0:0:0:
408,48,59247,2,0,L|365:48,1,42.5,2|2,0:0|0:0,0:0:0:0:
328,128,59410,6,0,B|284:164|236:120|236:120|172:160|172:160|112:72|64:172,1,305.999990661621,2|0,0:0|0:0,0:0:0:0:
74,152,60714,6,0,P|42:204|37:277,1,127.500004863739,6|2,0:0|0:0,0:0:0:0:
188,344,61204,1,2,0:0:0:0:
336,296,61367,2,0,P|368:264|392:248,1,63.7500024318696,8|2,0:0|0:0,0:0:0:0:
504,168,61693,2,0,P|472:136|444:120,1,63.7500024318696,2|2,0:0|0:0,0:0:0:0:
456,125,61937,1,2,0:0:0:0:
456,125,62019,5,2,0:0:0:0:
256,56,62182,2,0,P|208:56|168:72,1,63.7500024318696,12|2,0:0|0:0,0:0:0:0:
104,264,62508,1,2,0:0:0:0:
336,296,62671,2,0,P|360:260|364:220,1,63.7500024318696,12|2,0:0|0:0,0:0:0:0:
368,56,62997,1,2,0:0:0:0:
337,46,63078,1,2,0:0:0:0:
305,44,63160,1,2,0:0:0:0:
274,49,63241,1,2,0:0:0:0:
248,56,63323,6,0,P|208:64|96:56,1,127.500004863739,6|2,0:0|0:0,0:0:0:0:
104,264,63812,1,2,0:0:0:0:
336,288,63975,2,0,L|336:224,1,63.7500024318696,8|2,0:0|0:0,0:0:0:0:
472,96,64301,2,0,L|472:32,1,63.7500024318696,2|2,0:0|0:0,0:0:0:0:
472,32,64546,1,2,0:0:0:0:
472,32,64628,5,2,0:0:0:0:
320,144,64791,2,0,L|239:146,1,63.7500024318696,12|2,0:0|0:0,0:0:0:0:
336,288,65117,1,2,0:0:0:0:
168,208,65280,2,0,B|87:210,1,63.7500024318696,12|2,0:0|0:0,0:0:0:0:
104,209,65524,1,2,0:0:0:0:
104,209,65606,1,2,0:0:0:0:
24,80,65769,1,8,0:0:0:0:
16,288,65932,6,0,P|48:312|136:328,1,127.500004863739,6|2,0:0|0:0,0:0:0:0:
336,288,66421,1,2,0:0:0:0:
168,208,66584,1,8,0:0:0:0:
256,32,66747,2,0,L|256:160,1,127.500004863739,2|2,0:0|0:0,0:0:0:0:
256,159,67155,1,2,0:0:0:0:
256,159,67236,5,2,0:0:0:0:
336,288,67399,2,0,P|400:308|476:280,1,127.500004863739,12|2,0:0|0:0,0:0:0:0:
456,96,67888,2,0,L|456:32,1,63.7500024318696,12|2,0:0|0:0,0:0:0:0:
256,32,68214,1,2,0:0:0:0:
224,37,68295,1,2,0:0:0:0:
195,50,68377,1,2,0:0:0:0:
169,69,68458,1,2,0:0:0:0:
144,88,68541,6,0,P|104:136|96:216,1,127.500004863739,6|2,0:0|0:0,0:0:0:0:
240,336,69030,1,2,0:0:0:0:
460,232,69193,1,8,0:0:0:0:
292,204,69356,2,0,P|256:202|228:192,1,63.7500024318696,2|2,0:0|0:0,0:0:0:0:
368,336,69682,1,2,0:0:0:0:
432,136,69845,6,0,P|463:134|500:140,1,63.7500024318696,2|12,0:0|0:0,0:0:0:0:
372,252,70171,1,2,0:0:0:0:
184,128,70334,1,2,0:0:0:0:
196,332,70497,1,6,0:0:0:0:
240,200,70660,5,8,0:3:0:0:
252,171,70741,1,8,0:3:0:0:
277,151,70823,1,4,0:3:0:0:
296,128,70904,1,2,0:0:0:0:
288,97,70986,1,2,0:0:0:0:
309,74,71067,1,2,0:0:0:0:
328,56,71149,6,0,B|354:32|403:57|458:19,1,127.500004863739,6|2,0:0|0:0,0:0:0:0:
323,259,71638,1,2,0:0:0:0:
212,39,71801,1,12,0:0:0:0:
148,153,71964,2,0,L|276:152,1,127.500004863739,2|2,0:0|0:0,0:0:0:0:
276,152,72372,1,2,0:0:0:0:
276,152,72454,5,2,0:0:0:0:
71,320,72617,2,0,L|8:320,1,63.7500024318696,12|2,0:0|0:0,0:0:0:0:
250,359,72943,1,2,0:0:0:0:
384,200,73106,2,0,L|448:200,1,63.7500024318696,12|2,0:0|0:0,0:0:0:0:
400,32,73432,5,2,0:0:0:0:
368,24,73513,1,2,0:0:0:0:
337,23,73595,1,2,0:0:0:0:
305,29,73676,1,2,0:0:0:0:
280,40,73758,6,0,P|232:64|144:48,1,127.500004863739,6|2,0:0|0:0,0:0:0:0:
72,160,74247,2,0,P|36:160|4:156,1,63.7500024318696,2|8,0:0|0:0,0:0:0:0:
72,324,74573,2,0,P|108:324|140:320,1,63.7500024318696,2|2,0:0|0:0,0:0:0:0:
248,192,74899,1,2,0:0:0:0:
279,192,74980,1,2,0:0:0:0:
311,192,75062,5,6,0:0:0:0:
412,316,75225,2,0,P|448:316|480:312,1,63.7500024318696,8|2,0:0|0:0,0:0:0:0:
504,152,75551,1,2,0:0:0:0:
376,48,75714,2,0,L|288:47,1,63.7500024318696,12|2,0:0|0:0,0:0:0:0:
312,47,75959,1,2,0:0:0:0:
312,47,76041,1,2,0:0:0:0:
152,64,76204,1,8,0:0:0:0:
248,192,76367,6,0,P|220:240|248:320,1,127.500004863739,6|2,0:0|0:0,0:0:0:0:
424,320,76856,1,2,0:0:0:0:
236,308,77019,2,0,P|200:312|160:304,1,63.7500024318696,8|2,0:0|0:0,0:0:0:0:
20,216,77345,2,0,L|20:144,1,63.7500024318696,2|2,0:0|0:0,0:0:0:0:
180,52,77671,5,2,0:0:0:0:
336,32,77834,2,0,P|376:32|420:24,1,63.7500024318696,12|0,0:0|0:0,0:0:0:0:
460,176,78160,1,2,0:0:0:0:
384,328,78323,1,12,0:0:0:0:
232,304,78486,2,0,L|144:304,1,63.7500024318696,2|2,0:0|0:0,0:0:0:0:
152,304,78731,1,2,0:0:0:0:
136,304,78812,1,2,0:0:0:0:
120,304,78894,1,2,0:0:0:0:
100,304,78975,6,0,L|96:203,1,93.5000028533936,12|2,0:0|0:0,0:0:0:0:
152,40,79301,1,8,0:0:0:0:
248,192,79464,1,2,0:0:0:0:
384,304,79628,2,0,L|480:304,1,93.5000028533936,8|2,0:0|0:0,0:0:0:0:
504,128,79954,2,0,L|384:128,1,93.5000028533936,8|2,0:0|0:0,0:0:0:0:
240,192,80280,6,0,L|146:192,1,93.5000028533936,8|2,0:0|0:0,0:0:0:0:
16,344,80606,1,8,0:0:0:0:
56,128,80769,1,2,0:0:0:0:
240,192,80932,1,8,0:0:0:0:
352,56,81095,1,2,0:0:0:0:
496,160,81258,1,8,0:0:0:0:
384,288,81421,1,2,0:0:0:0:
162,337,81584,6,0,L|163:224,1,93.5000028533936,12|2,0:0|0:0,0:0:0:0:
24,312,81910,1,8,0:0:0:0:
56,128,82073,1,2,0:0:0:0:
184,208,82236,1,8,0:0:0:0:
280,48,82399,1,2,0:0:0:0:
336,224,82562,1,8,0:0:0:0:
456,80,82725,1,2,0:0:0:0:
440,64,82807,1,2,0:0:0:0:
424,48,82888,6,0,L|331:49,1,93.5000028533936,8|2,0:0|0:0,0:0:0:0:
144,56,83214,1,8,0:0:0:0:
48,216,83378,2,0,L|-24:216,2,46.7500014266968,2|2|8,0:0|0:0|0:0,0:0:0:0:
184,344,83704,2,0,L|256:344,2,46.7500014266968,2|2|8,0:0|0:0|0:0,0:0:0:0:
368,288,84030,1,2,0:0:0:0:
368,288,84111,1,2,0:0:0:0:
368,288,84193,6,0,P|424:304|464:296,1,93.5000028533936,12|0,0:0|0:0,0:0:0:0:
448,120,84519,2,0,P|392:104|352:112,1,93.5000028533936,12|0,0:0|0:0,0:0:0:0:
200,184,84845,2,0,P|256:200|296:192,1,93.5000028533936,12|0,0:0|0:0,0:0:0:0:
152,304,85171,2,0,P|96:320|56:312,1,93.5000028533936,12|0,0:0|0:0,0:0:0:0:
62,314,85416,1,0,0:0:0:0:
62,314,85497,5,12,0:0:0:0:
36,164,85660,1,2,0:0:0:0:
248,28,85823,1,12,0:0:0:0:
20,124,85986,1,2,0:0:0:0:
264,68,86149,5,12,0:0:0:0:
360,212,86312,1,8,0:0:0:0:
184,216,86475,1,8,0:0:0:0:
248,28,86801,5,4,0:0:0:0:
256,192,86883,12,0,88921,0:0:0:0:
