osu file format v14

[General]
AudioFilename: Parasyte.mp3
AudioLeadIn: 800
PreviewTime: 60714
Countdown: 0
SampleSet: Soft
StackLeniency: 0.7
Mode: 0
LetterboxInBreaks: 0
WidescreenStoryboard: 0

[Editor]
Bookmarks: 715,5769,11149,14899,21584,26801,32019,37073,42291,47671,51584,52888,59410,71149,81584,86801
DistanceSpacing: 1.9
BeatDivisor: 4
GridSize: 4
TimelineZoom: 2.1

[Metadata]
Title:Let Me Hear
TitleUnicode:Let Me Hear
Artist:Fear, and Loathing in Las Vegas
ArtistUnicode:Fear, and Loathing in Las Vegas
Creator:Aerous
Version:-Yuzuriha's Insane
Source:寄生獣 セイの格率
Tags:parasyte the maxim Kiseijuu Sei no Kakuritsu -Yuzuriha-inori- Pho Guy IamKwaN
BeatmapID:595105
BeatmapSetID:260405

[Difficulty]
HPDrainRate:7
CircleSize:4
OverallDifficulty:7
ApproachRate:9
SliderMultiplier:1.6
SliderTickRate:1

[Events]
//Background and Video events
Video,0,"Parasyte!.avi"
0,0,"JamesHaFixed.png",0,0
//Break Periods
//Storyboard Layer 0 (Background)
//Storyboard Layer 1 (Fail)
//Storyboard Layer 2 (Pass)
//Storyboard Layer 3 (Foreground)
//Storyboard Sound Samples

[TimingPoints]
715,326.086956521739,4,2,5,60,1,0
11475,-100,4,2,89,60,0,0
11638,-100,4,2,5,60,0,0
12128,-100,4,2,89,60,0,0
12291,-100,4,2,5,60,0,0
12780,-100,4,2,89,60,0,0
12943,-100,4,2,5,60,0,0
13432,-100,4,2,89,60,0,0
13595,-100,4,2,5,60,0,0
14084,-100,4,2,89,60,0,0
14247,-100,4,2,5,60,0,0
14736,-100,4,2,89,60,0,0
14899,-100,4,2,5,60,0,0
15388,-100,4,2,89,60,0,0
15551,-100,4,2,5,60,0,0
16041,-100,4,2,89,60,0,0
16204,-100,4,2,5,60,0,0
16693,-100,4,2,89,60,0,0
16856,-100,4,2,5,60,0,0
17345,-100,4,2,89,60,0,0
17508,-100,4,2,5,60,0,0
17997,-100,4,2,89,60,0,0
18160,-100,4,2,5,60,0,0
18649,-100,4,2,89,60,0,0
18812,-100,4,2,5,60,0,0
19301,-100,4,2,89,60,0,0
19464,-100,4,2,5,60,0,0
19954,-100,4,2,89,60,0,0
20117,-100,4,2,5,60,0,0
21095,-100,4,2,5,70,0,0
21258,-100,4,2,5,80,0,0
21503,-100,4,2,5,5,0,0
21584,-100,4,2,5,80,0,1
32019,-100,4,2,5,60,0,0
59410,-133.333333333333,4,2,5,30,0,0
60062,-133.333333333333,4,2,5,5,0,0
60714,-100,4,2,5,70,0,1
81584,-100,4,2,5,60,0,0
88595,-100,4,2,5,5,0,0

[Colours]
Combo1 : 128,0,255
Combo2 : 0,128,192
Combo3 : 255,0,159
Combo4 : 192,192,192

[HitObjects]
328,160,715,6,0,P|312:103|299:73,1,80,2|0,0:0|0:0,0:0:0:0:
125,251,1041,2,0,P|174:277|210:278,1,80,0|0,0:0|0:0,0:0:0:0:
190,199,1367,1,2,0:0:0:0:
40,259,1530,2,0,L|56:353,1,80,0|0,0:0|0:0,0:0:0:0:
247,142,1856,6,0,P|173:121|114:170,1,160,2|0,0:0|0:0,0:0:0:0:
361,254,2345,2,0,P|412:228|435:197,1,80,0|0,0:0|0:0,0:0:0:0:
369,81,2671,1,2,0:0:0:0:
190,199,2834,1,0,0:0:0:0:
354,170,2997,1,0,0:0:0:0:
114,171,3160,6,0,P|115:230|214:275,1,160,2|0,0:0|0:0,0:0:0:0:
178,120,3649,2,0,P|132:92|92:91,1,80,0|0,0:0|0:0,0:0:0:0:
190,199,3975,1,2,0:0:0:0:
224,47,4138,1,0,0:0:0:0:
114,171,4301,1,0,0:0:0:0:
349,144,4464,6,0,P|376:186|341:291,1,160,2|0,0:0|0:0,0:0:0:0:
196,279,4954,2,0,P|145:264|125:242,1,80,0|0,0:0|0:0,0:0:0:0:
210,123,5280,2,0,P|206:162|190:199,1,80,2|0,0:0|0:0,0:0:0:0:
127,139,5606,1,0,0:0:0:0:
292,80,5769,6,0,B|423:102|423:102|386:116,1,160,2|0,0:0|0:0,0:0:0:0:
197,311,6258,2,0,P|255:308|288:298,1,80,0|0,0:0|0:0,0:0:0:0:
161,218,6584,2,0,P|124:225|70:205,1,80,2|0,0:0|0:0,0:0:0:0:
127,139,6910,1,0,0:0:0:0:
197,311,7073,6,0,B|250:284|256:239|256:239|292:268|314:257,1,160,2|0,0:0|0:0,0:0:0:0:
290,340,7562,1,0,0:0:0:0:
161,218,7725,1,0,0:0:0:0:
302,178,7888,2,0,L|314:257,1,80,2|0,0:0|0:0,0:0:0:0:
404,332,8214,1,0,0:0:0:0:
373,144,8378,6,0,P|304:101|232:144,1,160,2|0,0:0|0:0,0:0:0:0:
161,218,8867,2,0,L|173:297,1,80,0|0,0:0|0:0,0:0:0:0:
302,178,9193,1,2,0:0:0:0:
450,216,9356,1,0,0:0:0:0:
408,69,9519,1,0,0:0:0:0:
370,229,9682,6,0,B|391:294|461:294|461:294|407:314,1,160,2|0,0:0|0:0,0:0:0:0:
243,234,10171,2,0,P|225:199|225:160,1,80,0|0,0:0|0:0,0:0:0:0:
450,216,10497,1,2,0:0:0:0:
302,178,10660,1,0,0:0:0:0:
424,308,10823,1,0,0:0:0:0:
385,141,10986,6,0,L|226:159,1,160,2|0,0:0|0:0,0:0:0:0:
192,303,11475,2,0,P|239:317|275:315,1,80,6|0,0:0|0:0,0:0:0:0:
296,120,11801,1,2,0:0:0:0:
369,222,11964,1,0,0:0:0:0:
424,72,12128,1,6,0:0:0:0:
436,269,12291,6,0,P|388:301|297:260,1,160,2|0,0:0|0:0,0:0:0:0:
160,118,12780,2,0,P|118:153|105:180,1,80,6|0,0:0|0:0,0:0:0:0:
263,348,13106,1,2,0:0:0:0:
369,222,13269,1,0,0:0:0:0:
192,303,13432,1,6,0:0:0:0:
436,269,13595,6,0,B|468:222|427:149|427:149|430:181,1,160,2|0,0:0|0:0,0:0:0:0:
445,348,14084,2,0,P|401:340|370:312,1,80,6|0,0:0|0:0,0:0:0:0:
298,192,14410,2,0,P|342:200|373:228,1,80,2|0,0:0|0:0,0:0:0:0:
304,271,14736,1,6,0:0:0:0:
318,33,14899,6,0,L|298:192,1,160,2|0,0:0|0:0,0:0:0:0:
450,208,15388,2,0,P|446:156|427:131,1,80,6|0,0:0|0:0,0:0:0:0:
232,317,15714,1,2,1:0:0:0:
377,186,15878,1,0,1:0:0:0:
167,260,16041,1,10,0:0:0:0:
450,208,16204,6,0,P|439:144|334:123,1,160,2|0,0:0|0:0,0:0:0:0:
247,229,16693,2,0,L|258:324,1,80,6|0,0:0|0:0,0:0:0:0:
377,186,17019,1,2,0:0:0:0:
250,137,17182,1,0,0:0:0:0:
271,271,17345,1,6,0:0:0:0:
243,60,17508,6,0,P|184:98|189:184,1,160,2|0,0:0|0:0,0:0:0:0:
351,262,17997,2,0,L|362:357,1,80,6|0,0:0|0:0,0:0:0:0:
407,190,18323,2,0,L|418:95,1,80,2|0,0:0|0:0,0:0:0:0:
437,266,18649,1,6,0:0:0:0:
209,202,18812,6,0,B|148:231|92:203|92:203|120:241,1,160,2|0,0:0|0:0,0:0:0:0:
272,345,19301,2,0,P|277:282|275:258,1,80,6|0,0:0|0:0,0:0:0:0:
146,58,19628,2,0,P|144:97|149:137,1,80,2|0,0:0|0:0,0:0:0:0:
28,348,19954,2,0,P|33:285|31:261,1,80,6|0,0:0|0:0,0:0:0:0:
227,98,20280,5,4,0:0:0:0:
354,342,20606,1,4,0:0:0:0:
477,128,20932,2,0,P|443:124|418:126,1,40,8|0,1:0|0:0,0:0:0:0:
368,203,21095,2,0,P|348:203|329:200,1,40,8|0,1:0|0:0,0:0:0:0:
255,275,21258,2,0,B|204:268|204:268|185:259|185:259|121:251,1,120,8|0,1:0|0:0,0:0:0:0:
200,347,21584,6,0,L|290:358,1,80,14|0,0:0|0:0,0:0:0:0:
145,175,21910,2,0,L|55:164,1,80,0|8,0:0|0:0,0:0:0:0:
83,74,22236,1,2,0:0:0:0:
96,259,22399,1,0,0:0:0:0:
193,105,22562,1,8,0:0:0:0:
237,284,22725,1,0,0:0:0:0:
237,284,22807,1,0,0:0:0:0:
237,284,22888,6,0,P|287:268|318:267,1,80,10|0,0:0|0:0,0:0:0:0:
479,170,23214,2,0,P|429:186|398:187,1,80,0|8,0:0|0:0,0:0:0:0:
290,153,23541,1,2,0:0:0:0:
293,346,23704,1,0,0:0:0:0:
218,204,23867,1,8,0:0:0:0:
348,269,24030,1,0,0:0:0:0:
163,264,24193,6,0,P|105:260|72:251,1,80,10|0,0:0|0:0,0:0:0:0:
348,269,24519,2,0,P|406:273|439:282,1,80,0|8,0:0|0:0,0:0:0:0:
293,346,24845,1,2,0:0:0:0:
218,204,25008,1,0,0:0:0:0:
208,336,25171,1,8,0:0:0:0:
301,194,25334,1,0,0:0:0:0:
301,194,25416,1,0,0:0:0:0:
301,194,25497,6,0,P|354:184|384:190,1,80,10|0,0:0|0:0,0:0:0:0:
348,269,25823,1,8,0:0:0:0:
288,104,25986,1,8,0:0:0:0:
437,252,26149,5,2,3:0:0:0:
432,291,26231,1,0,3:0:0:0:
416,327,26312,1,0,3:0:0:0:
383,350,26394,1,0,3:0:0:0:
343,330,26475,1,8,3:0:0:0:
301,314,26557,1,0,3:1:0:0:
257,316,26638,1,0,3:1:0:0:
218,337,26720,1,0,3:1:0:0:
186,367,26801,6,0,P|126:367|97:358,1,80,14|0,0:0|0:0,0:0:0:0:
100,139,27128,1,0,0:0:0:0:
218,204,27291,1,8,0:0:0:0:
229,202,27372,1,0,0:0:0:0:
240,200,27454,1,2,0:0:0:0:
294,69,27617,1,0,0:0:0:0:
321,256,27780,2,0,L|317:345,1,80,8|0,0:0|0:0,0:0:0:0:
389,171,28106,6,0,L|392:91,1,80,10|0,0:0|0:0,0:0:0:0:
471,181,28432,1,0,0:0:0:0:
312,160,28595,1,8,0:0:0:0:
470,91,28758,1,2,0:0:0:0:
405,282,28921,1,0,0:0:0:0:
393,91,29084,1,8,0:0:0:0:
342,335,29247,1,0,0:0:0:0:
342,335,29329,1,0,0:0:0:0:
342,335,29410,6,0,P|287:319|258:303,1,80,10|0,0:0|0:0,0:0:0:0:
165,206,29736,1,0,0:0:0:0:
188,348,29899,1,8,0:0:0:0:
86,226,30062,2,0,P|91:175|110:145,1,80,2|0,0:0|0:0,0:0:0:0:
377,193,30388,2,0,P|338:208|285:201,1,80,8|0,0:0|0:0,0:0:0:0:
272,192,30633,1,0,0:0:0:0:
272,192,30714,6,0,L|286:300,1,80,10|0,0:0|0:0,0:0:0:0:
325,128,31041,2,0,L|311:20,1,80,8|8,3:0|0:0,0:0:0:0:
460,189,31367,5,8,0:0:0:0:
462,232,31448,1,0,0:0:0:0:
451,275,31530,1,8,0:0:0:0:
429,312,31611,1,0,0:0:0:0:
390,334,31693,1,8,0:0:0:0:
215,255,31856,1,0,0:0:0:0:
215,255,31937,1,0,0:0:0:0:
215,255,32019,6,0,P|190:206|189:164,1,80,6|0,0:0|0:0,0:0:0:0:
393,137,32345,2,0,P|435:151|464:193,1,80,8|0,0:0|0:0,0:0:0:0:
325,344,32671,1,2,0:0:0:0:
247,223,32834,1,0,0:0:0:0:
392,216,32997,1,8,0:0:0:0:
176,344,33160,6,0,B|110:351|65:307|65:307|92:306|123:282,1,160,2|0,0:0|0:0,0:0:0:0:
295,161,33649,2,0,P|254:144|210:153,1,80,8|0,0:0|0:0,0:0:0:0:
242,351,33975,1,2,0:0:0:0:
220,149,34138,1,0,0:0:0:0:
325,344,34301,1,8,0:0:0:0:
220,224,34464,6,0,P|166:204|153:112,1,160,2|0,0:0|0:0,0:0:0:0:
373,252,34954,2,0,L|366:348,1,80,8|0,0:0|0:0,0:0:0:0:
291,282,35280,1,2,0:0:0:0:
451,299,35443,1,0,0:0:0:0:
291,282,35606,1,8,0:0:0:0:
451,299,35769,6,0,P|447:208|376:162,1,160,2|0,0:0|0:0,0:0:0:0:
148,281,36258,2,0,P|155:333|174:371,1,80,8|0,0:0|0:0,0:0:0:0:
224,210,36584,1,2,0:0:0:0:
81,230,36747,1,0,0:0:0:0:
181,127,36910,1,8,0:0:0:0:
308,312,37073,6,0,B|263:350|263:350|207:329|153:366,1,160,2|0,0:0|0:0,0:0:0:0:
349,239,37562,2,0,P|373:228|442:228,1,80,8|0,0:0|0:0,0:0:0:0:
403,304,37888,1,2,0:0:0:0:
242,266,38051,2,0,P|232:212|241:175,1,80,0|8,0:0|0:0,0:0:0:0:
360,76,38378,6,0,B|406:118|474:89|474:89|436:113,1,160,2|0,0:0|0:0,0:0:0:0:
297,125,38867,2,0,P|283:79|290:38,1,80,8|0,0:0|0:0,0:0:0:0:
424,21,39193,1,2,0:0:0:0:
353,178,39356,2,0,P|314:199|263:195,1,80,0|8,0:0|0:0,0:0:0:0:
295,359,39682,6,0,L|279:200,1,160,2|0,0:0|0:0,0:0:0:0:
174,280,40171,2,0,P|183:328|208:355,1,80,8|0,0:0|0:0,0:0:0:0:
425,349,40497,1,2,0:0:0:0:
254,289,40660,1,0,0:0:0:0:
378,284,40823,1,8,0:0:0:0:
173,314,40986,6,0,B|59:354|59:354|66:300,1,160,2|0,0:0|0:0,0:0:0:0:
90,126,41475,2,0,P|118:157|131:200,1,80,8|0,0:0|0:0,0:0:0:0:
254,289,41801,1,2,0:0:0:0:
46,201,41964,1,0,0:0:0:0:
118,368,42128,1,8,0:0:0:0:
258,131,42291,6,0,P|180:133|130:192,1,160,2|0,0:0|0:0,0:0:0:0:
326,274,42780,1,8,0:0:0:0:
222,213,42943,1,0,0:0:0:0:
222,333,43106,1,2,0:0:0:0:
310,194,43269,2,0,P|334:156|338:113,1,80,0|8,0:0|0:0,0:0:0:0:
89,214,43595,6,0,B|132:269|99:340|99:340|128:314,1,160,2|0,0:0|0:0,0:0:0:0:
156,164,44084,1,8,0:0:0:0:
31,280,44247,1,0,0:0:0:0:
230,127,44410,2,0,P|199:95|157:81,1,80,2|0,0:0|0:0,0:0:0:0:
191,244,44736,1,8,0:0:0:0:
455,208,44899,6,0,B|402:200|402:200|379:186|379:186|316:177|316:177|336:205,1,160,2|0,0:0|0:0,0:0:0:0:
423,281,45388,2,0,L|505:293,1,80,8|0,0:0|0:0,0:0:0:0:
335,104,45714,2,0,L|253:92,1,80,2|0,0:0|0:0,0:0:0:0:
116,116,46041,1,8,0:0:0:0:
141,297,46204,6,0,P|194:240|172:155,1,160,2|0,0:0|0:0,0:0:0:0:
61,278,46693,2,0,P|66:332|99:368,1,80,8|0,0:0|0:0,0:0:0:0:
273,207,47019,2,0,P|265:161|233:114,1,80,2|0,0:0|0:0,0:0:0:0:
141,297,47345,2,0,B|188:290|215:259|215:259|238:284|265:281,1,120,8|0,0:0|0:0,0:0:0:0:
312,320,47671,6,0,B|348:307|348:307|377:314|377:314|420:288|475:320,2,160,2|8|2,0:0|0:0|0:0,0:0:0:0:
196,191,48486,2,0,B|156:200|156:200|104:192,1,80,0|8,0:0|0:0,0:0:0:0:
155,115,48812,1,0,0:0:0:0:
228,269,48975,6,0,B|280:240|280:193|274:164|274:164|289:201,1,160,2|8,0:0|0:0,0:0:0:0:
213,349,49464,2,0,B|157:339|143:276|143:276|75:277|75:277,1,160,2|0,0:0|0:0,0:0:0:0:
286,327,49954,2,0,P|325:289|342:252,1,80,8|0,0:0|0:0,0:0:0:0:
231,68,50280,6,0,L|238:160,1,80,2|0,0:0|0:0,0:0:0:0:
245,259,50606,1,8,0:0:0:0:
316,202,50769,2,0,P|271:178|166:214,1,160,2|0,0:0|0:0,0:0:0:0:
213,349,51258,1,8,0:0:0:0:
329,288,51421,1,0,0:0:0:0:
118,306,51584,6,0,L|111:267,1,40,8|0,0:0|0:0,0:0:0:0:
33,193,51747,2,0,L|42:130,1,40,8|0,0:0|0:0,0:0:0:0:
118,46,51910,1,8,0:0:0:0:
393,306,52236,6,0,L|401:267,1,40,8|0,0:0|0:0,0:0:0:0:
479,193,52399,2,0,L|470:130,1,40,8|0,0:0|0:0,0:0:0:0:
394,46,52562,1,8,0:0:0:0:
161,192,52888,6,0,P|195:242|199:276,1,80,6|0,0:0|0:0,0:0:0:0:
236,106,53214,2,0,P|202:56|198:22,1,80,0|8,0:0|0:0,0:0:0:0:
364,170,53541,2,0,B|389:178|405:187|405:187|282:202,1,160,2|8,0:0|0:0,0:0:0:0:
315,111,54030,1,0,0:0:0:0:
281,301,54193,6,0,P|327:331|375:334,1,80,10|0,0:0|0:0,0:0:0:0:
350,254,54519,1,0,0:0:0:0:
206,145,54682,2,0,B|217:208|189:257|189:257|240:215,1,160,8|0,0:0|0:0,0:0:0:0:
315,111,55171,1,8,2:0:0:0:
348,132,55253,1,0,2:0:0:0:
387,139,55334,1,8,2:0:0:0:
427,138,55416,1,0,2:0:0:0:
463,122,55497,6,0,L|453:206,1,80,2|8,0:0|0:0,0:0:0:0:
368,317,55823,1,0,0:0:0:0:
233,266,55986,2,0,L|160:261,1,40,0|0,0:0|0:0,0:0:0:0:
262,192,56149,2,0,P|299:223|315:266,1,80,10|0,0:0|0:0,0:0:0:0:
145,333,56475,1,0,0:0:0:0:
184,191,56638,2,0,B|192:121|256:112|256:112|209:96,1,160,10|8,0:0|0:0,0:0:0:0:
104,183,57128,6,0,P|112:222|135:255,1,80,0|0,0:0|0:0,0:0:0:0:
421,319,57454,2,0,B|418:276|418:276|388:240|386:189,1,120,10|0,0:0|0:0,0:0:0:0:
350,135,57780,2,0,L|336:77,1,40,8|0,0:0|0:0,0:0:0:0:
459,166,57943,2,0,L|469:221,1,40,8|0,0:0|0:0,0:0:0:0:
339,299,58106,6,0,P|329:279|316:237,3,40,8|0|8|0,0:0|0:0|0:0|0:0,0:0:0:0:
243,329,58432,2,0,P|253:349|266:391,3,40,8|0|8|0,0:0|0:0|0:0|0:0,0:0:0:0:
161,282,58758,5,8,0:0:0:0:
194,260,58839,1,0,0:0:0:0:
218,228,58921,1,8,0:0:0:0:
223,188,59003,1,0,0:0:0:0:
207,151,59084,1,8,0:0:0:0:
201,111,59166,1,0,0:0:0:0:
226,80,59247,1,8,0:0:0:0:
265,72,59329,1,0,0:0:0:0:
298,90,59410,6,0,P|220:153|157:54,1,240.000009155274
364,146,60714,6,0,B|343:215|360:268|360:268|330:237,1,160,6|2,0:0|3:0,0:0:0:0:
293,112,61204,1,0,0:0:0:0:
441,175,61367,2,0,P|444:123|426:90,1,80,2|0,0:0|0:0,0:0:0:0:
267,200,61693,2,0,P|255:240|269:286,1,80
270,36,62019,6,0,B|223:59|217:102|217:102|178:95|143:115,1,160,2|2,0:0|3:0,0:0:0:0:
195,180,62508,1,0,0:0:0:0:
168,29,62671,2,0,P|125:39|89:60,1,80,2|0,0:0|0:0,0:0:0:0:
293,112,62997,2,0,P|336:83|350:48,1,80
394,139,63242,1,0,0:0:0:0:
394,139,63323,6,0,B|370:186|285:200|285:200|322:209,1,160,2|2,0:0|3:0,0:0:0:0:
414,311,63812,1,0,0:0:0:0:
283,274,63975,2,0,B|240:262|240:262|217:232,1,80,2|0,0:0|0:0,0:0:0:0:
355,266,64301,1,0,0:0:0:0:
165,288,64464,6,0,B|94:172|94:172|134:197,1,160,2|0,0:0|0:0,0:0:0:0:
225,336,64954,2,0,P|189:362|150:361,1,80,2|0,3:0|0:0,0:0:0:0:
219,233,65280,1,2,0:0:0:0:
341,157,65443,1,0,0:0:0:0:
341,157,65524,1,0,0:0:0:0:
341,157,65606,1,0,0:0:0:0:
115,185,65769,1,0,0:0:0:0:
415,189,65932,6,0,P|418:140|321:80,1,160,6|2,0:0|3:0,0:0:0:0:
280,217,66421,1,0,0:0:0:0:
406,268,66584,2,0,P|455:259|479:236,1,80,2|0,0:0|0:0,0:0:0:0:
341,157,66910,1,0,0:0:0:0:
294,374,67073,1,0,0:0:0:0:
387,347,67236,6,0,B|341:331|329:284|329:284|291:305|241:294,1,160,2|2,0:0|3:0,0:0:0:0:
153,201,67725,1,0,0:0:0:0:
73,264,67888,2,0,L|82:349,1,80,2|0,0:0|0:0,0:0:0:0:
163,286,68214,1,0,0:0:0:0:
70,177,68378,1,0,0:0:0:0:
70,177,68459,1,0,0:0:0:0:
70,177,68541,6,0,P|124:124|217:145,1,160,2|2,0:0|3:0,0:0:0:0:
319,217,69030,1,0,0:0:0:0:
437,135,69193,2,0,B|413:100|413:100|371:81,1,80,2|0,0:0|0:0,0:0:0:0:
406,213,69519,2,0,L|410:301,1,80
346,341,69763,1,0,0:0:0:0:
317,339,69845,6,0,P|268:330|238:313,1,80,2|0,0:0|0:0,0:0:0:0:
75,254,70171,1,2,3:0:0:0:
136,81,70334,1,0,0:0:0:0:
136,81,70416,1,0,0:0:0:0:
136,81,70497,1,2,0:0:0:0:
420,37,70660,5,8,0:3:0:0:
447,67,70742,1,0,0:0:0:0:
439,106,70823,1,0,0:0:0:0:
407,131,70905,1,0,0:0:0:0:
397,169,70986,1,0,0:0:0:0:
405,208,71068,1,0,0:0:0:0:
431,238,71149,6,0,B|404:207|404:207|354:245|268:231,1,160,6|2,0:0|3:0,0:0:0:0:
388,311,71638,1,0,0:0:0:0:
315,155,71801,2,0,P|268:156|213:152,1,80,2|0,0:0|0:0,0:0:0:0:
292,325,72128,1,0,0:0:0:0:
192,213,72291,1,0,0:0:0:0:
192,213,72372,1,0,0:0:0:0:
192,213,72454,6,0,P|161:165|178:113,1,80,2|0,0:0|0:0,0:0:0:0:
275,77,72780,1,2,3:0:0:0:
187,290,72943,2,0,B|128:274|99:208|99:208|86:260,1,160,2|0,0:0|0:0,0:0:0:0:
221,365,73432,2,0,P|256:329|266:291,1,80
326,250,73676,1,0,0:0:0:0:
358,254,73758,2,0,P|407:266|436:283,1,80,2|0,0:0|0:0,0:0:0:0:
370,339,74084,1,2,3:0:0:0:
254,221,74247,6,0,B|290:161|353:179|353:179|297:147,1,160,2|0,0:0|0:0,0:0:0:0:
160,155,74736,1,0,0:0:0:0:
186,312,74899,1,0,0:0:0:0:
100,209,75062,2,0,P|82:164|86:123,1,80,2|0,0:0|0:0,0:0:0:0:
243,108,75388,1,2,3:0:0:0:
460,209,75551,2,0,P|428:249|314:239,1,160,2|0,0:0|0:0,0:0:0:0:
243,108,76041,1,0,0:0:0:0:
375,185,76204,1,0,0:0:0:0:
243,260,76367,6,0,B|283:260|326:249|326:249|363:275|413:259,1,160,6|2,0:0|3:0,0:0:0:0:
232,182,76856,2,0,B|172:199|166:254|166:254|111:235,1,160,2|0,0:0|0:0,0:0:0:0:
234,354,77345,2,0,L|159:329,1,80
161,106,77671,6,0,P|202:81|325:135,1,160,2|2,0:0|3:0,0:0:0:0:
445,174,78160,1,0,0:0:0:0:
342,316,78323,2,0,P|319:268|318:233,1,80,2|0,0:0|0:0,0:0:0:0:
405,255,78649,1,0,0:0:0:0:
250,336,78812,1,0,0:0:0:0:
250,336,78894,1,0,0:0:0:0:
250,336,78975,6,0,B|228:296|227:268|227:268|179:266|148:230,1,160,0|2,0:0|3:0,0:0:0:0:
155,333,79464,1,0,0:0:0:0:
219,187,79628,2,0,P|178:153|129:151,1,80,2|0,0:0|0:0,0:0:0:0:
223,271,79954,1,0,0:0:0:0:
280,124,80117,1,0,0:0:0:0:
374,275,80280,6,0,B|330:295|291:278|291:278|285:317|248:336,1,160,2|2,0:0|3:0,0:0:0:0:
340,366,80769,1,0,0:0:0:0:
330,208,80932,2,0,P|365:172|376:140,1,80,2|0,0:0|0:0,0:0:0:0:
186,114,81258,2,0,P|151:150|140:182,1,80,0|0,0:0|0:0,0:0:0:0:
200,336,81584,5,6,0:0:0:0:
255,156,81747,2,0,P|265:105|171:35,1,160,8|0,0:0|0:0,0:0:0:0:
119,165,82236,1,10,0:0:0:0:
230,230,82399,1,0,0:0:0:0:
119,293,82562,2,0,P|72:284|41:266,1,80,8|0,0:0|0:0,0:0:0:0:
250,336,82888,6,0,B|290:312|290:312|346:335|406:312,1,160,10|0,0:0|0:0,0:0:0:0:
337,82,83378,2,0,B|329:119|343:162|343:162|336:194|336:194|341:240,1,160,10|0,0:0|0:0,0:0:0:0:
414,197,83867,1,8,0:0:0:0:
264,158,84030,1,0,0:0:0:0:
456,264,84193,6,0,P|488:224|492:184,1,80,6|0,0:0|0:0,0:0:0:0:
284,45,84519,2,0,B|212:46|172:29|172:29|189:84,1,160,8|2,0:0|0:0,0:0:0:0:
237,314,85008,2,0,P|191:297|174:187,1,160,8|0,0:0|0:0,0:0:0:0:
304,194,85497,6,0,P|274:220|235:237,1,80,10|0,0:0|0:0,0:0:0:0:
82,256,85823,1,10,0:0:0:0:
228,154,85986,1,0,0:0:0:0:
159,320,86149,1,10,0:0:0:0:
123,134,86312,1,8,0:0:0:0:
72,351,86475,1,8,0:0:0:0:
256,192,86801,12,0,88595,0:0:0:0:
