osu file format v12

[General]
AudioFilename: Fear, and Loathing in Las Vegas - Just Awake.mp3
AudioLeadIn: 1500
PreviewTime: 797
Countdown: 0
SampleSet: Normal
StackLeniency: 0.7
Mode: 1
LetterboxInBreaks: 0

[Editor]
DistanceSpacing: 0.1
BeatDivisor: 4
GridSize: 32

[Metadata]
Title:Just Awake (TV Size)
TitleUnicode:Just Awake (TV Size)
Artist:Fear, and Loathing in Las Vegas
ArtistUnicode:Fear, and Loathing in Las Vegas
Creator:taiko_maniac1811
Version:Muzukashii
Source:HUNTER X HUNTER
Tags:ending MMzz MittenMasterzz
BeatmapID:170566
BeatmapSetID:56403

[Difficulty]
HPDrainRate:4
CircleSize:6
OverallDifficulty:4
ApproachRate:7
SliderMultiplier:1.4
SliderTickRate:1

[Events]
//Background and Video events
0,0,"BG.jpg",0,120
//Break Periods
//Storyboard Layer 0 (Background)
//Storyboard Layer 1 (Fail)
//Storyboard Layer 2 (Pass)
//Storyboard Layer 3 (Foreground)
//Storyboard Sound Samples
//Background Colour Transformations
3,100,163,162,255

[TimingPoints]
954,314.13612565445,4,1,0,80,1,0
11006,-100,4,1,0,80,0,1
21058,-100,4,1,0,80,0,0
68807,-100,4,1,0,80,0,1
78859,-100,4,1,0,80,0,0

[Colours]
Combo1 : 48,176,192
Combo2 : 248,72,40

[HitObjects]
256,192,954,1,4,0:0:0:0:
256,192,1268,1,0,0:0:0:0:
256,192,1582,1,0,0:0:0:0:
256,192,2210,1,0,0:0:0:0:
256,192,2524,1,0,0:0:0:0:
256,192,2838,5,8,0:0:0:0:
256,192,3467,5,0,0:0:0:0:
256,192,3781,1,0,0:0:0:0:
256,192,4095,1,0,0:0:0:0:
256,192,4723,1,0,0:0:0:0:
256,192,5037,1,0,0:0:0:0:
256,192,5351,5,8,0:0:0:0:
256,192,5980,5,4,0:0:0:0:
256,192,6294,1,0,0:0:0:0:
256,192,6608,1,0,0:0:0:0:
256,192,6922,1,0,0:0:0:0:
256,192,7079,1,0,0:0:0:0:
256,192,7236,1,0,0:0:0:0:
256,192,7550,1,0,0:0:0:0:
256,192,7864,1,0,0:0:0:0:
256,192,8179,1,0,0:0:0:0:
256,192,8493,12,0,10063,0:0:0:0:
256,192,11006,5,4,0:0:0:0:
256,192,11320,1,8,0:0:0:0:
256,192,11634,5,0,0:0:0:0:
256,192,11948,5,8,0:0:0:0:
256,192,12105,1,8,0:0:0:0:
256,192,12184,1,8,0:0:0:0:
256,192,12262,1,8,0:0:0:0:
256,192,12419,1,8,0:0:0:0:
256,192,12577,1,8,0:0:0:0:
256,192,12734,1,8,0:0:0:0:
256,192,12891,5,0,0:0:0:0:
256,192,13205,5,8,0:0:0:0:
256,192,13519,5,0,0:0:0:0:
256,192,13833,5,8,0:0:0:0:
256,192,14147,5,0,0:0:0:0:
256,192,14461,5,8,0:0:0:0:
256,192,14618,1,8,0:0:0:0:
256,192,14697,1,8,0:0:0:0:
256,192,14775,1,8,0:0:0:0:
256,192,14933,1,8,0:0:0:0:
256,192,15247,1,8,0:0:0:0:
256,192,15404,1,8,0:0:0:0:
256,192,15718,1,8,0:0:0:0:
256,192,16032,5,4,0:0:0:0:
256,192,16346,5,8,0:0:0:0:
256,192,16660,5,0,0:0:0:0:
256,192,16974,5,8,0:0:0:0:
256,192,17132,1,8,0:0:0:0:
256,192,17210,1,8,0:0:0:0:
256,192,17289,1,8,0:0:0:0:
256,192,17446,1,8,0:0:0:0:
256,192,17603,1,8,0:0:0:0:
256,192,17760,1,8,0:0:0:0:
256,192,17917,5,0,0:0:0:0:
256,192,18231,5,8,0:0:0:0:
256,192,18545,1,8,0:0:0:0:
256,192,18859,1,8,0:0:0:0:
256,192,19173,1,8,0:0:0:0:
256,192,19330,1,8,0:0:0:0:
256,192,19645,1,8,0:0:0:0:
256,192,19959,1,8,0:0:0:0:
256,192,20273,1,8,0:0:0:0:
256,192,20430,1,8,0:0:0:0:
256,192,20587,1,8,0:0:0:0:
256,192,20744,5,0,0:0:0:0:
256,192,21058,1,0,0:0:0:0:
256,192,21215,1,0,0:0:0:0:
256,192,21529,1,0,0:0:0:0:
256,192,21844,1,0,0:0:0:0:
256,192,22001,1,0,0:0:0:0:
256,192,22315,5,8,0:0:0:0:
256,192,22472,5,0,0:0:0:0:
256,192,22629,1,0,0:0:0:0:
256,192,22786,1,0,0:0:0:0:
256,192,22943,5,8,0:0:0:0:
256,192,23257,1,8,0:0:0:0:
256,192,23571,1,8,0:0:0:0:
256,192,23728,5,0,0:0:0:0:
256,192,23885,1,0,0:0:0:0:
256,192,24043,5,8,0:0:0:0:
256,192,24357,5,0,0:0:0:0:
256,192,24514,5,8,0:0:0:0:
256,192,24828,1,8,0:0:0:0:
256,192,24985,1,8,0:0:0:0:
256,192,25142,1,8,0:0:0:0:
256,192,25299,1,8,0:0:0:0:
256,192,25456,5,0,0:0:0:0:
256,192,25613,5,8,0:0:0:0:
256,192,25770,1,8,0:0:0:0:
256,192,25927,5,4,0:0:0:0:
256,192,26241,1,0,0:0:0:0:
256,192,26399,5,8,0:0:0:0:
256,192,26713,1,8,0:0:0:0:
256,192,27027,1,8,0:0:0:0:
256,192,27184,5,0,0:0:0:0:
256,192,27498,1,0,0:0:0:0:
256,192,27655,5,8,0:0:0:0:
256,192,27969,5,0,0:0:0:0:
256,192,28283,5,8,0:0:0:0:
256,192,28440,5,0,0:0:0:0:
256,192,28597,1,0,0:0:0:0:
256,192,28755,1,0,0:0:0:0:
256,192,28912,5,8,0:0:0:0:
256,192,29226,5,0,0:0:0:0:
256,192,29383,1,0,0:0:0:0:
256,192,29540,5,8,0:0:0:0:
256,192,29854,5,4,0:0:0:0:
256,192,30168,1,4,0:0:0:0:
256,192,30482,1,0,0:0:0:0:
256,192,30639,1,0,0:0:0:0:
256,192,30796,5,8,0:0:0:0:
256,192,31111,5,4,0:0:0:0:
256,192,31425,1,8,0:0:0:0:
256,192,31582,1,0,0:0:0:0:
256,192,31739,5,8,0:0:0:0:
256,192,32053,1,8,0:0:0:0:
256,192,32367,5,0,0:0:0:0:
256,192,32681,5,8,0:0:0:0:
256,192,32838,5,0,0:0:0:0:
256,192,32995,5,8,0:0:0:0:
256,192,33152,5,0,0:0:0:0:
256,192,33310,5,8,0:0:0:0:
256,192,33624,5,0,0:0:0:0:
256,192,33938,5,8,0:0:0:0:
256,192,34095,5,0,0:0:0:0:
256,192,34252,5,8,0:0:0:0:
256,192,34409,5,0,0:0:0:0:
256,192,34566,5,8,0:0:0:0:
256,192,34880,5,0,0:0:0:0:
256,192,35194,5,8,0:0:0:0:
256,192,35351,1,8,0:0:0:0:
256,192,35508,5,0,0:0:0:0:
256,192,35980,1,4,0:0:0:0:
256,192,36294,5,8,0:0:0:0:
256,192,36451,5,0,0:0:0:0:
256,192,36608,1,0,0:0:0:0:
256,192,36765,5,8,0:0:0:0:
256,192,36922,1,8,0:0:0:0:
256,192,37079,5,0,0:0:0:0:
256,192,37236,1,0,0:0:0:0:
256,192,37393,5,8,0:0:0:0:
256,192,37707,5,0,0:0:0:0:
256,192,37864,1,0,0:0:0:0:
256,192,38022,5,8,0:0:0:0:
256,192,38179,1,8,0:0:0:0:
256,192,38336,5,0,0:0:0:0:
256,192,38493,1,4,0:0:0:0:
256,192,38807,5,8,0:0:0:0:
256,192,38964,5,0,0:0:0:0:
256,192,39121,1,0,0:0:0:0:
256,192,39278,5,8,0:0:0:0:
256,192,39435,1,8,0:0:0:0:
256,192,39592,5,0,0:0:0:0:
256,192,39749,1,0,0:0:0:0:
256,192,39906,5,8,0:0:0:0:
256,192,40221,1,8,0:0:0:0:
256,192,40535,5,0,0:0:0:0:
256,192,40613,1,0,0:0:0:0:
256,192,40692,1,0,0:0:0:0:
256,192,40849,1,0,0:0:0:0:
256,192,40927,1,0,0:0:0:0:
256,192,41006,1,0,0:0:0:0:
256,192,41163,1,4,0:0:0:0:
256,192,41477,5,8,0:0:0:0:
256,192,41791,5,0,0:0:0:0:
256,192,42105,5,8,0:0:0:0:
256,192,42262,1,8,0:0:0:0:
256,192,42419,5,0,0:0:0:0:
256,192,42734,5,8,0:0:0:0:
256,192,42891,1,8,0:0:0:0:
256,192,43048,5,0,0:0:0:0:
256,192,43205,5,8,0:0:0:0:
256,192,43362,1,8,0:0:0:0:
256,192,43676,5,0,0:0:0:0:
256,192,43990,5,8,0:0:0:0:
256,192,44147,1,8,0:0:0:0:
256,192,44304,5,0,0:0:0:0:
256,192,44618,5,8,0:0:0:0:
256,192,44933,5,0,0:0:0:0:
256,192,45247,5,8,0:0:0:0:
256,192,45404,1,8,0:0:0:0:
256,192,45561,5,0,0:0:0:0:
256,192,45875,5,8,0:0:0:0:
256,192,46032,5,4,0:0:0:0:
256,192,46346,1,0,0:0:0:0:
256,192,46503,5,8,0:0:0:0:
256,192,46660,5,0,0:0:0:0:
256,192,46974,1,0,0:0:0:0:
256,192,47132,5,8,0:0:0:0:
256,192,47289,5,0,0:0:0:0:
256,192,47603,1,0,0:0:0:0:
256,192,47760,5,8,0:0:0:0:
256,192,47917,5,0,0:0:0:0:
256,192,48074,1,0,0:0:0:0:
256,192,48231,1,0,0:0:0:0:
256,192,48388,5,8,0:0:0:0:
256,192,48545,5,0,0:0:0:0:
256,192,48859,1,0,0:0:0:0:
256,192,49016,5,8,0:0:0:0:
256,192,49173,5,0,0:0:0:0:
256,192,49330,1,0,0:0:0:0:
256,192,49488,1,0,0:0:0:0:
256,192,49645,5,8,0:0:0:0:
256,192,49802,5,0,0:0:0:0:
256,192,50116,1,0,0:0:0:0:
256,192,50273,5,8,0:0:0:0:
256,192,50430,1,8,0:0:0:0:
256,192,50587,5,0,0:0:0:0:
256,192,50744,5,8,0:0:0:0:
256,192,50901,1,8,0:0:0:0:
256,192,51215,5,4,0:0:0:0:
256,192,51372,1,0,0:0:0:0:
256,192,51529,5,8,0:0:0:0:
256,192,51686,5,0,0:0:0:0:
256,192,51765,1,0,0:0:0:0:
256,192,51844,1,0,0:0:0:0:
256,192,52001,1,0,0:0:0:0:
256,192,52158,5,8,0:0:0:0:
256,192,52315,5,0,0:0:0:0:
256,192,52629,1,0,0:0:0:0:
256,192,52786,5,8,0:0:0:0:
256,192,52943,1,8,0:0:0:0:
256,192,53100,5,0,0:0:0:0:
256,192,53414,5,8,0:0:0:0:
256,192,53728,5,0,0:0:0:0:
256,192,54043,5,8,0:0:0:0:
256,192,54200,1,8,0:0:0:0:
256,192,54357,5,0,0:0:0:0:
256,192,54671,5,8,0:0:0:0:
256,192,54828,5,0,0:0:0:0:
256,192,55142,5,8,0:0:0:0:
256,192,55456,1,8,0:0:0:0:
256,192,55535,1,8,0:0:0:0:
256,192,55613,1,8,0:0:0:0:
256,192,55770,1,8,0:0:0:0:
256,192,56084,5,4,0:0:0:0:
256,192,56399,1,0,0:0:0:0:
256,192,56556,5,8,0:0:0:0:
256,192,56713,5,0,0:0:0:0:
256,192,57027,1,0,0:0:0:0:
256,192,57184,5,8,0:0:0:0:
256,192,57341,5,0,0:0:0:0:
256,192,57655,1,0,0:0:0:0:
256,192,57812,5,8,0:0:0:0:
256,192,57969,5,0,0:0:0:0:
256,192,58126,1,0,0:0:0:0:
256,192,58283,1,0,0:0:0:0:
256,192,58440,5,8,0:0:0:0:
256,192,58597,5,0,0:0:0:0:
256,192,58912,1,0,0:0:0:0:
256,192,59069,5,8,0:0:0:0:
256,192,59226,5,0,0:0:0:0:
256,192,59383,1,0,0:0:0:0:
256,192,59540,1,0,0:0:0:0:
256,192,59697,5,8,0:0:0:0:
256,192,59854,5,0,0:0:0:0:
256,192,60168,1,0,0:0:0:0:
256,192,60325,5,8,0:0:0:0:
256,192,60482,1,8,0:0:0:0:
256,192,60639,5,0,0:0:0:0:
256,192,60796,5,8,0:0:0:0:
256,192,60953,1,8,0:0:0:0:
256,192,61268,5,0,0:0:0:0:
256,192,61425,1,0,0:0:0:0:
256,192,61582,5,8,0:0:0:0:
256,192,61739,5,0,0:0:0:0:
256,192,61817,1,0,0:0:0:0:
256,192,61896,1,0,0:0:0:0:
256,192,62053,1,0,0:0:0:0:
256,192,62210,5,8,0:0:0:0:
256,192,62367,5,0,0:0:0:0:
256,192,62681,5,8,0:0:0:0:
256,192,62838,5,0,0:0:0:0:
256,192,62995,1,0,0:0:0:0:
256,192,63152,5,8,0:0:0:0:
256,192,63467,5,0,0:0:0:0:
256,192,63781,1,0,0:0:0:0:
256,192,63859,1,0,0:0:0:0:
256,192,63938,1,0,0:0:0:0:
256,192,64252,1,0,0:0:0:0:
256,192,64330,1,0,0:0:0:0:
256,192,64409,1,0,0:0:0:0:
256,192,64723,1,0,0:0:0:0:
256,192,64802,1,0,0:0:0:0:
256,192,64880,1,0,0:0:0:0:
256,192,65194,1,0,0:0:0:0:
256,192,65273,1,0,0:0:0:0:
256,192,65351,1,0,0:0:0:0:
256,192,65666,1,0,0:0:0:0:
256,192,65744,1,0,0:0:0:0:
256,192,65823,1,0,0:0:0:0:
256,192,65980,12,0,66765,0:0:0:0:
256,192,67079,5,4,0:0:0:0:
256,192,67236,5,4,0:0:0:0:
256,192,68807,1,4,0:0:0:0:
256,192,69121,5,8,0:0:0:0:
256,192,69278,1,8,0:0:0:0:
256,192,69435,5,0,0:0:0:0:
256,192,69749,5,8,0:0:0:0:
256,192,70063,5,0,0:0:0:0:
256,192,70221,5,8,0:0:0:0:
256,192,70378,1,8,0:0:0:0:
256,192,70535,5,0,0:0:0:0:
256,192,70849,1,0,0:0:0:0:
256,192,71006,5,8,0:0:0:0:
256,192,71320,5,0,0:0:0:0:
256,192,71634,5,8,0:0:0:0:
256,192,71791,1,8,0:0:0:0:
256,192,71948,5,0,0:0:0:0:
256,192,72262,5,8,0:0:0:0:
256,192,72577,5,0,0:0:0:0:
256,192,72734,5,8,0:0:0:0:
256,192,72891,1,8,0:0:0:0:
256,192,73048,5,0,0:0:0:0:
256,192,73205,1,0,0:0:0:0:
256,192,73362,5,8,0:0:0:0:
256,192,73519,1,8,0:0:0:0:
256,192,73676,1,8,0:0:0:0:
256,192,73833,5,4,0:0:0:0:
256,192,74147,5,8,0:0:0:0:
256,192,74304,1,8,0:0:0:0:
256,192,74461,5,0,0:0:0:0:
256,192,74775,5,8,0:0:0:0:
256,192,75090,5,0,0:0:0:0:
256,192,75247,5,8,0:0:0:0:
256,192,75404,1,8,0:0:0:0:
256,192,75561,5,0,0:0:0:0:
256,192,75875,1,0,0:0:0:0:
256,192,76032,5,8,0:0:0:0:
256,192,76346,5,0,0:0:0:0:
256,192,76503,5,8,0:0:0:0:
256,192,76660,5,0,0:0:0:0:
256,192,76817,5,8,0:0:0:0:
256,192,76974,1,8,0:0:0:0:
256,192,77132,5,0,0:0:0:0:
256,192,77289,5,8,0:0:0:0:
256,192,77446,5,0,0:0:0:0:
256,192,77603,1,0,0:0:0:0:
256,192,77760,5,8,0:0:0:0:
256,192,77917,1,8,0:0:0:0:
256,192,78074,5,0,0:0:0:0:
256,192,78388,1,0,0:0:0:0:
256,192,78545,5,8,0:0:0:0:
256,192,78702,1,8,0:0:0:0:
256,192,78859,5,4,0:0:0:0:
