osu file format v12

[General]
AudioFilename: Fear, and Loathing in Las Vegas - Just Awake.mp3
AudioLeadIn: 1500
PreviewTime: 797
Countdown: 0
SampleSet: Normal
StackLeniency: 0.7
Mode: 1
LetterboxInBreaks: 0

[Editor]
DistanceSpacing: 0.1
BeatDivisor: 4
GridSize: 32

[Metadata]
Title:Just Awake (TV Size)
TitleUnicode:Just Awake (TV Size)
Artist:Fear, and Loathing in Las Vegas
ArtistUnicode:Fear, and Loathing in Las Vegas
Creator:taiko_maniac1811
Version:Kantan
Source:HUNTER X HUNTER
Tags:ending MMzz MittenMasterzz
BeatmapID:170565
BeatmapSetID:56403

[Difficulty]
HPDrainRate:2
CircleSize:3
OverallDifficulty:2
ApproachRate:3
SliderMultiplier:1.2
SliderTickRate:1

[Events]
//Background and Video events
0,0,"BG.jpg",0,120
//Break Periods
//Storyboard Layer 0 (Background)
//Storyboard Layer 1 (Fail)
//Storyboard Layer 2 (Pass)
//Storyboard Layer 3 (Foreground)
//Storyboard Sound Samples
//Background Colour Transformations
3,100,163,162,255

[TimingPoints]
954,314.13612565445,4,1,0,80,1,0
11006,-100,4,1,0,80,0,1
21058,-100,4,1,0,80,0,0
68807,-100,4,1,0,80,0,1
78859,-100,4,1,0,80,0,0

[Colours]
Combo1 : 48,176,192
Combo2 : 248,72,40

[HitObjects]
256,192,954,1,4,0:0:0:0:
256,192,2210,5,8,0:0:0:0:
256,192,3467,5,0,0:0:0:0:
256,192,4723,5,8,0:0:0:0:
256,192,5980,5,4,0:0:0:0:
256,192,6608,1,0,0:0:0:0:
256,192,7236,1,0,0:0:0:0:
256,192,7864,5,8,0:0:0:0:
256,192,8493,12,0,10063,0:0:0:0:
256,192,11006,5,4,0:0:0:0:
256,192,11634,5,8,0:0:0:0:
256,192,12262,1,0,0:0:0:0:
256,192,12891,5,8,0:0:0:0:
256,192,13833,5,8,0:0:0:0:
256,192,14461,1,8,0:0:0:0:
256,192,15090,1,8,0:0:0:0:
256,192,15404,1,8,0:0:0:0:
256,192,16032,5,4,0:0:0:0:
256,192,16660,5,8,0:0:0:0:
256,192,17289,1,8,0:0:0:0:
256,192,17917,5,0,0:0:0:0:
256,192,18859,5,8,0:0:0:0:
256,192,19488,1,8,0:0:0:0:
256,192,20116,1,8,0:0:0:0:
256,192,20430,1,8,0:0:0:0:
256,192,21058,5,0,0:0:0:0:
256,192,21529,1,0,0:0:0:0:
256,192,22001,1,0,0:0:0:0:
256,192,22943,5,8,0:0:0:0:
256,192,23571,5,0,0:0:0:0:
256,192,24043,1,0,0:0:0:0:
256,192,24514,1,0,0:0:0:0:
256,192,25456,5,8,0:0:0:0:
256,192,25927,5,4,0:0:0:0:
256,192,26713,5,8,0:0:0:0:
256,192,27341,1,8,0:0:0:0:
256,192,27969,5,0,0:0:0:0:
256,192,28597,1,0,0:0:0:0:
256,192,29226,5,8,0:0:0:0:
256,192,29854,1,8,0:0:0:0:
256,192,31111,5,0,0:0:0:0:
256,192,31739,1,0,0:0:0:0:
256,192,32367,5,8,0:0:0:0:
256,192,32995,1,8,0:0:0:0:
256,192,33624,5,0,0:0:0:0:
256,192,34252,1,0,0:0:0:0:
256,192,34566,1,0,0:0:0:0:
256,192,34880,1,0,0:0:0:0:
256,192,35508,1,0,0:0:0:0:
256,192,35980,1,4,0:0:0:0:
256,192,36765,5,8,0:0:0:0:
256,192,37393,1,8,0:0:0:0:
256,192,38022,5,0,0:0:0:0:
256,192,38493,1,4,0:0:0:0:
256,192,39278,5,8,0:0:0:0:
256,192,39906,1,8,0:0:0:0:
256,192,40535,1,8,0:0:0:0:
256,192,41163,5,4,0:0:0:0:
256,192,41791,1,0,0:0:0:0:
256,192,42419,1,0,0:0:0:0:
256,192,42734,1,0,0:0:0:0:
256,192,43048,1,0,0:0:0:0:
256,192,43676,5,8,0:0:0:0:
256,192,44304,1,8,0:0:0:0:
256,192,44933,1,8,0:0:0:0:
256,192,45561,5,0,0:0:0:0:
256,192,46032,1,4,0:0:0:0:
256,192,46817,5,8,0:0:0:0:
256,192,47446,1,8,0:0:0:0:
256,192,48074,1,8,0:0:0:0:
256,192,48545,5,4,0:0:0:0:
256,192,49330,1,0,0:0:0:0:
256,192,49959,1,0,0:0:0:0:
256,192,50587,5,0,0:0:0:0:
256,192,51215,1,8,0:0:0:0:
256,192,51844,1,8,0:0:0:0:
256,192,52472,5,0,0:0:0:0:
256,192,52786,1,0,0:0:0:0:
256,192,53100,1,0,0:0:0:0:
256,192,53728,5,8,0:0:0:0:
256,192,54357,1,8,0:0:0:0:
256,192,54828,5,0,0:0:0:0:
256,192,55456,1,0,0:0:0:0:
256,192,56084,1,4,0:0:0:0:
256,192,56870,5,8,0:0:0:0:
256,192,57498,1,8,0:0:0:0:
256,192,58126,1,8,0:0:0:0:
256,192,58597,5,4,0:0:0:0:
256,192,59383,1,0,0:0:0:0:
256,192,60011,1,0,0:0:0:0:
256,192,60639,5,0,0:0:0:0:
256,192,61268,1,8,0:0:0:0:
256,192,61896,1,8,0:0:0:0:
256,192,62524,5,0,0:0:0:0:
256,192,62838,1,0,0:0:0:0:
256,192,63152,1,0,0:0:0:0:
256,192,63781,1,4,0:0:0:0:
256,192,64723,1,4,0:0:0:0:
256,192,65666,1,4,0:0:0:0:
256,192,65980,12,0,67236,0:0:0:0:
256,192,68807,5,4,0:0:0:0:
256,192,69435,1,0,0:0:0:0:
256,192,70063,1,8,0:0:0:0:
256,192,70692,1,8,0:0:0:0:
256,192,71320,5,0,0:0:0:0:
256,192,71948,5,0,0:0:0:0:
256,192,72577,1,8,0:0:0:0:
256,192,73205,5,0,0:0:0:0:
256,192,73519,1,0,0:0:0:0:
256,192,73833,1,4,0:0:0:0:
256,192,74461,5,0,0:0:0:0:
256,192,75090,1,8,0:0:0:0:
256,192,75718,1,8,0:0:0:0:
256,192,76346,5,0,0:0:0:0:
256,192,76974,5,0,0:0:0:0:
256,192,77603,1,8,0:0:0:0:
256,192,78231,5,0,0:0:0:0:
256,192,78545,1,0,0:0:0:0:
256,192,78859,1,4,0:0:0:0:
