osu file format v12

[General]
AudioFilename: Fear, and Loathing in Las Vegas - Just Awake.mp3
AudioLeadIn: 1500
PreviewTime: 797
Countdown: 0
SampleSet: Normal
StackLeniency: 0.7
Mode: 1
LetterboxInBreaks: 0

[Editor]
DistanceSpacing: 0.1
BeatDivisor: 4
GridSize: 32

[Metadata]
Title:Just Awake (TV Size)
TitleUnicode:Just Awake (TV Size)
Artist:Fear, and Loathing in Las Vegas
ArtistUnicode:Fear, and Loathing in Las Vegas
Creator:taiko_maniac1811
Version:Inner Oni
Source:HUNTER X HUNTER
Tags:ending MMzz MittenMasterzz
BeatmapID:174738
BeatmapSetID:56403

[Difficulty]
HPDrainRate:6
CircleSize:7
OverallDifficulty:6
ApproachRate:10
SliderMultiplier:1.4
SliderTickRate:1

[Events]
//Background and Video events
0,0,"BG.jpg",0,120
//Break Periods
//Storyboard Layer 0 (Background)
//Storyboard Layer 1 (Fail)
//Storyboard Layer 2 (Pass)
//Storyboard Layer 3 (Foreground)
//Storyboard Sound Samples
//Background Colour Transformations
3,100,163,162,255

[TimingPoints]
954,314.13612565445,4,1,0,80,1,0
11006,-100,4,1,0,80,0,1
21058,-100,4,1,0,80,0,0
68807,-100,4,1,0,80,0,1
78859,-100,4,1,0,80,0,0

[Colours]
Combo1 : 48,176,192
Combo2 : 248,72,40

[HitObjects]
256,192,954,1,4,0:0:0:0:
256,192,1268,1,0,0:0:0:0:
256,192,1582,1,0,0:0:0:0:
256,192,1896,1,0,0:0:0:0:
256,192,2210,5,8,0:0:0:0:
256,192,2524,5,0,0:0:0:0:
256,192,2838,5,8,0:0:0:0:
256,192,2995,5,0,0:0:0:0:
256,192,3467,1,0,0:0:0:0:
256,192,3781,1,0,0:0:0:0:
256,192,4095,1,0,0:0:0:0:
256,192,4409,1,0,0:0:0:0:
256,192,4723,5,8,0:0:0:0:
256,192,5037,5,0,0:0:0:0:
256,192,5351,5,8,0:0:0:0:
256,192,5508,5,0,0:0:0:0:
256,192,5823,1,0,0:0:0:0:
256,192,5980,1,4,0:0:0:0:
256,192,6137,1,0,0:0:0:0:
256,192,6215,1,0,0:0:0:0:
256,192,6294,5,8,0:0:0:0:
256,192,6451,5,0,0:0:0:0:
256,192,6529,1,0,0:0:0:0:
256,192,6608,5,8,0:0:0:0:
256,192,6765,5,0,0:0:0:0:
256,192,6844,1,0,0:0:0:0:
256,192,6922,5,8,0:0:0:0:
256,192,7079,5,0,0:0:0:0:
256,192,7158,1,0,0:0:0:0:
256,192,7236,5,8,0:0:0:0:
256,192,7393,5,0,0:0:0:0:
256,192,7472,1,0,0:0:0:0:
256,192,7550,5,8,0:0:0:0:
256,192,7707,5,0,0:0:0:0:
256,192,7786,1,0,0:0:0:0:
256,192,7864,5,8,0:0:0:0:
256,192,7943,1,8,0:0:0:0:
256,192,8022,5,0,0:0:0:0:
256,192,8100,1,0,0:0:0:0:
256,192,8179,5,8,0:0:0:0:
256,192,8257,1,8,0:0:0:0:
256,192,8336,5,0,0:0:0:0:
256,192,8493,1,0,0:0:0:0:
256,192,8571,1,0,0:0:0:0:
256,192,8650,1,0,0:0:0:0:
256,192,8728,1,0,0:0:0:0:
256,192,8807,5,8,0:0:0:0:
256,192,8964,5,0,0:0:0:0:
256,192,9043,1,0,0:0:0:0:
256,192,9121,1,0,0:0:0:0:
256,192,9200,1,0,0:0:0:0:
256,192,9278,1,0,0:0:0:0:
256,192,9357,1,0,0:0:0:0:
256,192,9435,1,0,0:0:0:0:
256,192,9514,1,0,0:0:0:0:
256,192,9592,1,0,0:0:0:0:
256,192,9671,1,0,0:0:0:0:
256,192,9749,1,0,0:0:0:0:
256,192,9828,1,0,0:0:0:0:
256,192,9906,1,0,0:0:0:0:
256,192,9985,1,0,0:0:0:0:
256,192,10063,5,8,0:0:0:0:
256,192,11006,5,4,0:0:0:0:
256,192,11163,1,0,0:0:0:0:
256,192,11241,1,0,0:0:0:0:
256,192,11320,5,8,0:0:0:0:
256,192,11477,1,8,0:0:0:0:
256,192,11556,5,0,0:0:0:0:
256,192,11634,1,0,0:0:0:0:
256,192,11791,1,0,0:0:0:0:
256,192,11948,5,8,0:0:0:0:
256,192,12105,1,8,0:0:0:0:
256,192,12184,1,8,0:0:0:0:
256,192,12262,5,0,0:0:0:0:
256,192,12419,5,8,0:0:0:0:
256,192,12577,1,8,0:0:0:0:
256,192,12734,1,8,0:0:0:0:
256,192,12812,1,8,0:0:0:0:
256,192,12891,5,0,0:0:0:0:
256,192,13048,1,0,0:0:0:0:
256,192,13205,5,8,0:0:0:0:
256,192,13362,5,0,0:0:0:0:
256,192,13440,1,0,0:0:0:0:
256,192,13519,1,0,0:0:0:0:
256,192,13676,1,0,0:0:0:0:
256,192,13755,1,0,0:0:0:0:
256,192,13833,5,8,0:0:0:0:
256,192,13990,1,8,0:0:0:0:
256,192,14069,1,8,0:0:0:0:
256,192,14147,5,0,0:0:0:0:
256,192,14304,1,0,0:0:0:0:
256,192,14461,5,8,0:0:0:0:
256,192,14618,1,8,0:0:0:0:
256,192,14697,1,8,0:0:0:0:
256,192,14775,1,8,0:0:0:0:
256,192,14933,1,8,0:0:0:0:
256,192,15090,5,0,0:0:0:0:
256,192,15247,5,8,0:0:0:0:
256,192,15325,1,8,0:0:0:0:
256,192,15404,1,8,0:0:0:0:
256,192,15482,1,8,0:0:0:0:
256,192,15561,5,0,0:0:0:0:
256,192,15718,5,8,0:0:0:0:
256,192,16032,5,4,0:0:0:0:
256,192,16189,1,0,0:0:0:0:
256,192,16268,1,0,0:0:0:0:
256,192,16346,5,8,0:0:0:0:
256,192,16503,1,8,0:0:0:0:
256,192,16582,5,0,0:0:0:0:
256,192,16660,1,0,0:0:0:0:
256,192,16817,1,0,0:0:0:0:
256,192,16974,5,8,0:0:0:0:
256,192,17132,1,8,0:0:0:0:
256,192,17210,1,8,0:0:0:0:
256,192,17289,5,0,0:0:0:0:
256,192,17446,5,8,0:0:0:0:
256,192,17603,1,8,0:0:0:0:
256,192,17760,1,8,0:0:0:0:
256,192,17838,1,8,0:0:0:0:
256,192,17917,5,0,0:0:0:0:
256,192,18074,1,0,0:0:0:0:
256,192,18231,5,8,0:0:0:0:
256,192,18388,1,8,0:0:0:0:
256,192,18467,1,8,0:0:0:0:
256,192,18545,1,8,0:0:0:0:
256,192,18702,1,8,0:0:0:0:
256,192,18859,5,0,0:0:0:0:
256,192,19016,1,0,0:0:0:0:
256,192,19095,5,8,0:0:0:0:
256,192,19173,1,8,0:0:0:0:
256,192,19330,1,8,0:0:0:0:
256,192,19488,1,8,0:0:0:0:
256,192,19566,1,8,0:0:0:0:
256,192,19645,1,8,0:0:0:0:
256,192,19723,1,8,0:0:0:0:
256,192,19802,1,8,0:0:0:0:
256,192,19959,1,8,0:0:0:0:
256,192,20116,1,8,0:0:0:0:
256,192,20194,1,8,0:0:0:0:
256,192,20273,5,0,0:0:0:0:
256,192,20430,5,8,0:0:0:0:
256,192,20587,1,0,0:0:0:0:
256,192,20744,5,8,0:0:0:0:
256,192,20901,1,0,0:0:0:0:
256,192,21058,1,0,0:0:0:0:
256,192,21137,1,0,0:0:0:0:
256,192,21215,1,0,0:0:0:0:
256,192,21529,1,0,0:0:0:0:
256,192,21844,1,0,0:0:0:0:
256,192,21922,1,0,0:0:0:0:
256,192,22001,1,0,0:0:0:0:
256,192,22315,5,8,0:0:0:0:
256,192,22472,5,0,0:0:0:0:
256,192,22550,1,0,0:0:0:0:
256,192,22629,1,0,0:0:0:0:
256,192,22786,1,0,0:0:0:0:
256,192,22943,5,8,0:0:0:0:
256,192,23100,5,0,0:0:0:0:
256,192,23179,1,0,0:0:0:0:
256,192,23257,1,0,0:0:0:0:
256,192,23336,1,0,0:0:0:0:
256,192,23414,5,8,0:0:0:0:
256,192,23571,1,8,0:0:0:0:
256,192,23650,5,0,0:0:0:0:
256,192,23728,1,0,0:0:0:0:
256,192,23807,1,0,0:0:0:0:
256,192,23885,1,0,0:0:0:0:
256,192,24043,1,0,0:0:0:0:
256,192,24121,1,0,0:0:0:0:
256,192,24200,1,0,0:0:0:0:
256,192,24278,1,0,0:0:0:0:
256,192,24357,5,8,0:0:0:0:
256,192,24514,1,8,0:0:0:0:
256,192,24592,1,8,0:0:0:0:
256,192,24671,5,0,0:0:0:0:
256,192,24749,1,0,0:0:0:0:
256,192,24828,1,0,0:0:0:0:
256,192,24985,1,0,0:0:0:0:
256,192,25142,5,8,0:0:0:0:
256,192,25299,1,8,0:0:0:0:
256,192,25456,5,0,0:0:0:0:
256,192,25613,5,8,0:0:0:0:
256,192,25770,1,8,0:0:0:0:
256,192,25927,5,4,0:0:0:0:
256,192,26241,1,0,0:0:0:0:
256,192,26399,5,8,0:0:0:0:
256,192,26556,5,0,0:0:0:0:
256,192,26634,1,0,0:0:0:0:
256,192,26713,5,8,0:0:0:0:
256,192,26870,5,0,0:0:0:0:
256,192,27027,5,8,0:0:0:0:
256,192,27184,1,8,0:0:0:0:
256,192,27262,1,8,0:0:0:0:
256,192,27341,5,0,0:0:0:0:
256,192,27498,1,0,0:0:0:0:
256,192,27655,5,8,0:0:0:0:
256,192,27812,1,8,0:0:0:0:
256,192,27891,1,8,0:0:0:0:
256,192,27969,5,0,0:0:0:0:
256,192,28126,1,0,0:0:0:0:
256,192,28283,5,8,0:0:0:0:
256,192,28440,5,0,0:0:0:0:
256,192,28519,1,0,0:0:0:0:
256,192,28597,1,0,0:0:0:0:
256,192,28755,1,0,0:0:0:0:
256,192,28912,5,8,0:0:0:0:
256,192,29069,5,0,0:0:0:0:
256,192,29147,1,0,0:0:0:0:
256,192,29226,1,0,0:0:0:0:
256,192,29383,1,0,0:0:0:0:
256,192,29540,5,8,0:0:0:0:
256,192,29697,5,0,0:0:0:0:
256,192,29775,1,0,0:0:0:0:
256,192,29854,1,0,0:0:0:0:
256,192,29933,1,0,0:0:0:0:
256,192,30011,1,0,0:0:0:0:
256,192,30168,5,8,0:0:0:0:
256,192,30325,5,0,0:0:0:0:
256,192,30404,1,0,0:0:0:0:
256,192,30482,1,0,0:0:0:0:
256,192,30561,1,0,0:0:0:0:
256,192,30639,1,0,0:0:0:0:
256,192,30718,1,0,0:0:0:0:
256,192,30796,5,8,0:0:0:0:
256,192,30953,5,0,0:0:0:0:
256,192,31032,1,0,0:0:0:0:
256,192,31111,1,0,0:0:0:0:
256,192,31268,1,0,0:0:0:0:
256,192,31425,5,8,0:0:0:0:
256,192,31582,5,0,0:0:0:0:
256,192,31660,1,0,0:0:0:0:
256,192,31739,5,8,0:0:0:0:
256,192,31896,5,0,0:0:0:0:
256,192,31974,1,0,0:0:0:0:
256,192,32053,5,8,0:0:0:0:
256,192,32210,1,8,0:0:0:0:
256,192,32289,1,8,0:0:0:0:
256,192,32367,5,0,0:0:0:0:
256,192,32524,1,0,0:0:0:0:
256,192,32681,5,8,0:0:0:0:
256,192,32838,5,0,0:0:0:0:
256,192,32917,1,0,0:0:0:0:
256,192,32995,5,8,0:0:0:0:
256,192,33152,5,0,0:0:0:0:
256,192,33231,1,0,0:0:0:0:
256,192,33310,5,8,0:0:0:0:
256,192,33467,1,8,0:0:0:0:
256,192,33545,1,8,0:0:0:0:
256,192,33624,5,0,0:0:0:0:
256,192,33781,1,0,0:0:0:0:
256,192,33938,5,8,0:0:0:0:
256,192,34095,5,0,0:0:0:0:
256,192,34173,1,0,0:0:0:0:
256,192,34252,5,8,0:0:0:0:
256,192,34330,5,0,0:0:0:0:
256,192,34409,1,0,0:0:0:0:
256,192,34488,1,0,0:0:0:0:
256,192,34566,5,8,0:0:0:0:
256,192,34723,1,8,0:0:0:0:
256,192,34802,1,8,0:0:0:0:
256,192,34880,5,0,0:0:0:0:
256,192,35037,1,0,0:0:0:0:
256,192,35194,5,8,0:0:0:0:
256,192,35351,5,0,0:0:0:0:
256,192,35430,1,0,0:0:0:0:
256,192,35508,5,8,0:0:0:0:
256,192,35666,1,8,0:0:0:0:
256,192,35823,1,8,0:0:0:0:
256,192,35980,5,4,0:0:0:0:
256,192,36294,5,8,0:0:0:0:
256,192,36372,1,0,0:0:0:0:
256,192,36451,5,0,0:0:0:0:
256,192,36608,1,0,0:0:0:0:
256,192,36686,1,0,0:0:0:0:
256,192,36765,5,8,0:0:0:0:
256,192,36922,1,8,0:0:0:0:
256,192,37001,1,8,0:0:0:0:
256,192,37079,5,0,0:0:0:0:
256,192,37236,1,0,0:0:0:0:
256,192,37315,1,0,0:0:0:0:
256,192,37393,5,8,0:0:0:0:
256,192,37550,1,8,0:0:0:0:
256,192,37629,1,8,0:0:0:0:
256,192,37707,5,0,0:0:0:0:
256,192,37864,1,0,0:0:0:0:
256,192,37943,5,8,0:0:0:0:
256,192,38022,1,8,0:0:0:0:
256,192,38179,1,8,0:0:0:0:
256,192,38257,5,0,0:0:0:0:
256,192,38336,1,0,0:0:0:0:
256,192,38493,1,4,0:0:0:0:
256,192,38807,5,8,0:0:0:0:
256,192,38885,1,8,0:0:0:0:
256,192,38964,5,0,0:0:0:0:
256,192,39121,1,0,0:0:0:0:
256,192,39200,1,0,0:0:0:0:
256,192,39278,5,8,0:0:0:0:
256,192,39435,1,8,0:0:0:0:
256,192,39514,1,8,0:0:0:0:
256,192,39592,5,0,0:0:0:0:
256,192,39749,1,0,0:0:0:0:
256,192,39828,1,0,0:0:0:0:
256,192,39906,5,8,0:0:0:0:
256,192,39985,1,8,0:0:0:0:
256,192,40063,5,0,0:0:0:0:
256,192,40221,5,8,0:0:0:0:
256,192,40299,1,8,0:0:0:0:
256,192,40378,5,0,0:0:0:0:
256,192,40535,1,0,0:0:0:0:
256,192,40692,5,8,0:0:0:0:
256,192,40770,5,0,0:0:0:0:
256,192,40849,1,0,0:0:0:0:
256,192,40927,1,0,0:0:0:0:
256,192,41006,1,0,0:0:0:0:
256,192,41163,1,4,0:0:0:0:
256,192,41320,1,0,0:0:0:0:
256,192,41399,1,0,0:0:0:0:
256,192,41477,5,8,0:0:0:0:
256,192,41634,1,8,0:0:0:0:
256,192,41713,5,0,0:0:0:0:
256,192,41791,1,0,0:0:0:0:
256,192,41948,1,0,0:0:0:0:
256,192,42105,5,8,0:0:0:0:
256,192,42262,1,8,0:0:0:0:
256,192,42341,1,8,0:0:0:0:
256,192,42419,5,0,0:0:0:0:
256,192,42577,1,0,0:0:0:0:
256,192,42734,5,8,0:0:0:0:
256,192,42891,5,0,0:0:0:0:
256,192,42969,1,0,0:0:0:0:
256,192,43048,1,0,0:0:0:0:
256,192,43205,1,0,0:0:0:0:
256,192,43362,5,8,0:0:0:0:
256,192,43519,1,8,0:0:0:0:
256,192,43597,1,8,0:0:0:0:
256,192,43676,5,0,0:0:0:0:
256,192,43833,1,0,0:0:0:0:
256,192,43912,1,0,0:0:0:0:
256,192,43990,5,8,0:0:0:0:
256,192,44147,1,8,0:0:0:0:
256,192,44226,5,0,0:0:0:0:
256,192,44304,1,0,0:0:0:0:
256,192,44461,1,0,0:0:0:0:
256,192,44618,5,8,0:0:0:0:
256,192,44775,1,8,0:0:0:0:
256,192,44854,5,0,0:0:0:0:
256,192,44933,1,0,0:0:0:0:
256,192,45090,1,0,0:0:0:0:
256,192,45168,1,0,0:0:0:0:
256,192,45247,5,8,0:0:0:0:
256,192,45404,1,8,0:0:0:0:
256,192,45482,1,8,0:0:0:0:
256,192,45561,5,0,0:0:0:0:
256,192,45718,1,0,0:0:0:0:
256,192,45796,5,8,0:0:0:0:
256,192,45875,1,8,0:0:0:0:
256,192,46032,5,4,0:0:0:0:
256,192,46346,1,0,0:0:0:0:
256,192,46425,1,0,0:0:0:0:
256,192,46503,5,8,0:0:0:0:
256,192,46660,5,0,0:0:0:0:
256,192,46817,1,0,0:0:0:0:
256,192,46974,1,0,0:0:0:0:
256,192,47053,1,0,0:0:0:0:
256,192,47132,5,8,0:0:0:0:
256,192,47289,5,0,0:0:0:0:
256,192,47446,1,8,0:0:0:0:
256,192,47603,1,0,0:0:0:0:
256,192,47681,1,0,0:0:0:0:
256,192,47760,5,8,0:0:0:0:
256,192,47917,5,0,0:0:0:0:
256,192,48074,5,8,0:0:0:0:
256,192,48152,1,8,0:0:0:0:
256,192,48231,5,0,0:0:0:0:
256,192,48388,5,8,0:0:0:0:
256,192,48545,1,8,0:0:0:0:
256,192,48624,1,8,0:0:0:0:
256,192,48702,5,0,0:0:0:0:
256,192,48859,1,0,0:0:0:0:
256,192,49016,5,8,0:0:0:0:
256,192,49173,1,0,0:0:0:0:
256,192,49330,1,8,0:0:0:0:
256,192,49409,1,8,0:0:0:0:
256,192,49488,5,0,0:0:0:0:
256,192,49645,5,8,0:0:0:0:
256,192,49802,5,0,0:0:0:0:
256,192,49959,5,8,0:0:0:0:
256,192,50037,1,8,0:0:0:0:
256,192,50116,5,0,0:0:0:0:
256,192,50194,1,0,0:0:0:0:
256,192,50273,5,8,0:0:0:0:
256,192,50351,1,8,0:0:0:0:
256,192,50430,5,0,0:0:0:0:
256,192,50508,1,0,0:0:0:0:
256,192,50587,1,0,0:0:0:0:
256,192,50744,1,0,0:0:0:0:
256,192,50901,5,8,0:0:0:0:
256,192,51058,5,0,0:0:0:0:
256,192,51137,1,0,0:0:0:0:
256,192,51215,1,0,0:0:0:0:
256,192,51372,1,0,0:0:0:0:
256,192,51529,5,8,0:0:0:0:
256,192,51686,1,8,0:0:0:0:
256,192,51765,1,8,0:0:0:0:
256,192,51844,5,0,0:0:0:0:
256,192,52001,1,0,0:0:0:0:
256,192,52158,5,8,0:0:0:0:
256,192,52315,5,0,0:0:0:0:
256,192,52393,1,0,0:0:0:0:
256,192,52472,1,0,0:0:0:0:
256,192,52629,1,0,0:0:0:0:
256,192,52786,5,8,0:0:0:0:
256,192,52943,1,8,0:0:0:0:
256,192,53022,1,8,0:0:0:0:
256,192,53100,5,0,0:0:0:0:
256,192,53257,5,8,0:0:0:0:
256,192,53336,5,0,0:0:0:0:
256,192,53414,1,0,0:0:0:0:
256,192,53728,1,0,0:0:0:0:
256,192,53885,1,0,0:0:0:0:
256,192,54043,5,8,0:0:0:0:
256,192,54200,1,8,0:0:0:0:
256,192,54278,1,8,0:0:0:0:
256,192,54357,5,0,0:0:0:0:
256,192,54514,1,0,0:0:0:0:
256,192,54671,5,8,0:0:0:0:
256,192,54828,5,0,0:0:0:0:
256,192,54906,1,0,0:0:0:0:
256,192,54985,1,0,0:0:0:0:
256,192,55142,5,8,0:0:0:0:
256,192,55221,5,0,0:0:0:0:
256,192,55299,1,0,0:0:0:0:
256,192,55456,5,8,0:0:0:0:
256,192,55535,1,8,0:0:0:0:
256,192,55613,5,0,0:0:0:0:
256,192,55770,5,8,0:0:0:0:
256,192,56084,5,4,0:0:0:0:
256,192,56399,1,0,0:0:0:0:
256,192,56477,1,0,0:0:0:0:
256,192,56556,5,8,0:0:0:0:
256,192,56713,5,0,0:0:0:0:
256,192,56870,1,0,0:0:0:0:
256,192,57027,1,0,0:0:0:0:
256,192,57105,1,0,0:0:0:0:
256,192,57184,5,8,0:0:0:0:
256,192,57341,5,0,0:0:0:0:
256,192,57498,1,8,0:0:0:0:
256,192,57655,1,0,0:0:0:0:
256,192,57734,1,0,0:0:0:0:
256,192,57812,5,8,0:0:0:0:
256,192,57969,5,0,0:0:0:0:
256,192,58126,5,8,0:0:0:0:
256,192,58205,1,8,0:0:0:0:
256,192,58283,5,0,0:0:0:0:
256,192,58440,5,8,0:0:0:0:
256,192,58598,1,8,0:0:0:0:
256,192,58676,1,8,0:0:0:0:
256,192,58755,5,0,0:0:0:0:
256,192,58912,1,0,0:0:0:0:
256,192,59069,5,8,0:0:0:0:
256,192,59226,1,0,0:0:0:0:
256,192,59383,1,8,0:0:0:0:
256,192,59461,1,8,0:0:0:0:
256,192,59540,5,0,0:0:0:0:
256,192,59697,5,8,0:0:0:0:
256,192,59854,5,0,0:0:0:0:
256,192,60011,5,8,0:0:0:0:
256,192,60090,1,8,0:0:0:0:
256,192,60168,5,0,0:0:0:0:
256,192,60247,1,0,0:0:0:0:
256,192,60325,5,8,0:0:0:0:
256,192,60404,1,8,0:0:0:0:
256,192,60482,5,0,0:0:0:0:
256,192,60561,1,0,0:0:0:0:
256,192,60639,1,0,0:0:0:0:
256,192,60796,1,0,0:0:0:0:
256,192,60953,5,8,0:0:0:0:
256,192,61268,5,0,0:0:0:0:
256,192,61425,1,0,0:0:0:0:
256,192,61582,5,8,0:0:0:0:
256,192,61739,1,8,0:0:0:0:
256,192,61817,1,8,0:0:0:0:
256,192,61896,5,0,0:0:0:0:
256,192,62053,1,0,0:0:0:0:
256,192,62210,5,8,0:0:0:0:
256,192,62367,1,8,0:0:0:0:
256,192,62446,1,8,0:0:0:0:
256,192,62524,5,0,0:0:0:0:
256,192,62681,5,8,0:0:0:0:
256,192,62838,5,0,0:0:0:0:
256,192,62995,1,0,0:0:0:0:
256,192,63074,1,0,0:0:0:0:
256,192,63152,5,8,0:0:0:0:
256,192,63310,1,8,0:0:0:0:
256,192,63388,1,8,0:0:0:0:
256,192,63467,5,0,0:0:0:0:
256,192,63781,1,0,0:0:0:0:
256,192,63859,1,0,0:0:0:0:
256,192,63938,1,0,0:0:0:0:
256,192,64095,5,8,0:0:0:0:
256,192,64252,5,0,0:0:0:0:
256,192,64330,1,0,0:0:0:0:
256,192,64409,1,0,0:0:0:0:
256,192,64566,5,8,0:0:0:0:
256,192,64723,5,0,0:0:0:0:
256,192,64802,1,0,0:0:0:0:
256,192,64880,1,0,0:0:0:0:
256,192,64959,1,0,0:0:0:0:
256,192,65037,5,8,0:0:0:0:
256,192,65194,5,0,0:0:0:0:
256,192,65273,1,0,0:0:0:0:
256,192,65351,1,0,0:0:0:0:
256,192,65430,1,0,0:0:0:0:
256,192,65508,5,8,0:0:0:0:
256,192,65666,5,0,0:0:0:0:
256,192,65744,1,0,0:0:0:0:
256,192,65823,5,0,0:0:0:0:
256,192,65901,5,0,0:0:0:0:
256,192,65980,1,8,0:0:0:0:
256,192,66294,1,4,0:0:0:0:
256,192,66451,1,0,0:0:0:0:
256,192,66529,1,0,0:0:0:0:
256,192,66608,1,0,0:0:0:0:
256,192,66765,1,12,0:0:0:0:
256,192,66922,1,8,0:0:0:0:
256,192,67001,1,8,0:0:0:0:
256,192,67079,5,8,0:0:0:0:
256,192,67236,5,4,0:0:0:0:
256,192,68807,1,4,0:0:0:0:
256,192,68964,5,8,0:0:0:0:
256,192,69043,1,8,0:0:0:0:
256,192,69121,5,0,0:0:0:0:
256,192,69278,1,0,0:0:0:0:
256,192,69435,5,8,0:0:0:0:
256,192,69514,1,8,0:0:0:0:
256,192,69592,5,0,0:0:0:0:
256,192,69749,5,8,0:0:0:0:
256,192,69906,5,0,0:0:0:0:
256,192,70063,1,0,0:0:0:0:
256,192,70142,1,0,0:0:0:0:
256,192,70221,5,8,0:0:0:0:
256,192,70378,5,0,0:0:0:0:
256,192,70535,5,8,0:0:0:0:
256,192,70613,1,8,0:0:0:0:
256,192,70692,5,0,0:0:0:0:
256,192,70849,5,8,0:0:0:0:
256,192,71006,5,0,0:0:0:0:
256,192,71084,1,0,0:0:0:0:
256,192,71163,5,8,0:0:0:0:
256,192,71241,1,8,0:0:0:0:
256,192,71320,5,0,0:0:0:0:
256,192,71477,5,8,0:0:0:0:
256,192,71556,1,8,0:0:0:0:
256,192,71634,5,0,0:0:0:0:
256,192,71791,1,0,0:0:0:0:
256,192,71948,5,8,0:0:0:0:
256,192,72027,1,8,0:0:0:0:
256,192,72105,5,0,0:0:0:0:
256,192,72262,5,8,0:0:0:0:
256,192,72419,5,0,0:0:0:0:
256,192,72577,1,0,0:0:0:0:
256,192,72655,1,0,0:0:0:0:
256,192,72734,5,8,0:0:0:0:
256,192,72891,1,8,0:0:0:0:
256,192,72969,1,8,0:0:0:0:
256,192,73048,5,0,0:0:0:0:
256,192,73205,1,0,0:0:0:0:
256,192,73283,1,0,0:0:0:0:
256,192,73362,5,8,0:0:0:0:
256,192,73519,1,8,0:0:0:0:
256,192,73676,1,8,0:0:0:0:
256,192,73833,5,4,0:0:0:0:
256,192,73990,5,8,0:0:0:0:
256,192,74069,1,8,0:0:0:0:
256,192,74147,5,0,0:0:0:0:
256,192,74304,1,0,0:0:0:0:
256,192,74461,5,8,0:0:0:0:
256,192,74540,1,8,0:0:0:0:
256,192,74618,5,0,0:0:0:0:
256,192,74775,5,8,0:0:0:0:
256,192,74933,5,0,0:0:0:0:
256,192,75090,1,0,0:0:0:0:
256,192,75168,5,8,0:0:0:0:
256,192,75247,1,8,0:0:0:0:
256,192,75404,5,0,0:0:0:0:
256,192,75561,5,8,0:0:0:0:
256,192,75639,1,8,0:0:0:0:
256,192,75718,5,0,0:0:0:0:
256,192,75875,5,8,0:0:0:0:
256,192,76032,5,0,0:0:0:0:
256,192,76111,5,8,0:0:0:0:
256,192,76189,1,8,0:0:0:0:
256,192,76268,1,8,0:0:0:0:
256,192,76346,5,0,0:0:0:0:
256,192,76503,5,8,0:0:0:0:
256,192,76582,1,8,0:0:0:0:
256,192,76660,5,0,0:0:0:0:
256,192,76817,1,0,0:0:0:0:
256,192,76974,5,8,0:0:0:0:
256,192,77053,1,8,0:0:0:0:
256,192,77132,5,0,0:0:0:0:
256,192,77289,5,8,0:0:0:0:
256,192,77367,1,8,0:0:0:0:
256,192,77446,1,8,0:0:0:0:
256,192,77603,5,0,0:0:0:0:
256,192,77681,5,8,0:0:0:0:
256,192,77760,1,8,0:0:0:0:
256,192,77917,1,8,0:0:0:0:
256,192,77995,5,8,0:0:0:0:
256,192,78074,1,8,0:0:0:0:
256,192,78231,1,0,0:0:0:0:
256,192,78388,5,8,0:0:0:0:
256,192,78545,1,8,0:0:0:0:
256,192,78702,1,8,0:0:0:0:
256,192,78859,5,4,0:0:0:0:
