osu file format v9

[General]
AudioFilename: chase the light.mp3
AudioLeadIn: 1250
PreviewTime: 49340
Countdown: 0
SampleSet: Normal
StackLeniency: 0.7
Mode: 0
LetterboxInBreaks: 0

[Editor]
DistanceSpacing: 1
BeatDivisor: 4
GridSize: 4

[Metadata]
Title:Chase the Light! (TV Size)
Artist:Fear, and Loathing in Las Vegas
Creator:mochi
Version:Normal!
Source:Gyakkyou Burai Kaiji: Hakairoku Hen
Tags:xcherry

[Difficulty]
HPDrainRate:2
CircleSize:3
OverallDifficulty:2
ApproachRate:4
SliderMultiplier:0.9
SliderTickRate:1

[Events]
//Background and Video events
0,0,"bg1.jpg"
Video,-288,"video.avi"
//Break Periods
//Storyboard Layer 0 (Background)
//Storyboard Layer 1 (Fail)
//Storyboard Layer 2 (Pass)
//Storyboard Layer 3 (Foreground)
//Storyboard Sound Samples
//Background Colour Transformations
3,100,85,111,136

[TimingPoints]
470,322.58064516129,4,1,1,65,1,0
21115,-100,4,1,1,60,0,0
26276,-100,4,1,1,65,0,1
26357,-100,4,1,1,65,0,0
41760,-100,4,1,1,65,0,1
41840,-100,4,1,1,65,0,0
49340,-100,4,1,1,65,0,1
59582,-100,4,1,1,65,0,0
59663,-100,4,1,1,65,0,1
67566,-100,4,1,1,60,0,1
68050,-100,4,1,1,55,0,1
68373,-100,4,1,1,45,0,1
68695,-100,4,2,1,60,0,1
69018,-100,4,2,1,50,0,1
69340,-100,4,1,1,30,0,1
69824,-100,4,2,1,20,0,0

[Colours]
Combo1 : 139,105,241
Combo2 : 45,128,155
Combo3 : 240,185,206
Combo4 : 252,157,63

[HitObjects]
85,144,470,1,4
97,232,792,2,0,B|28:233|8:180,2,90,8|0|8
187,225,1760,1,0
270,192,2082,2,0,B|245:135|188:135,2,90,8|0|8
313,271,3050,5,0
347,354,3373,2,0,B|295:379|245:333,2,90,8|0|8
415,294,4340,1,0
437,207,4663,2,0,B|488:219|507:280,2,90,8|0|8
352,174,5631,5,4
291,107,5953,2,0,B|329:68|388:88,2,90,8|0|8
248,186,6921,1,0
202,263,7244,2,0,B|249:290|301:258,2,90,8|0|8
147,191,8211,6,0,B|110:92,1,90,0|8
194,63,8857,2,0,B|225:147,1,90,0|8
304,105,9502,2,0,B|267:6,2,90,0|8|0
337,188,10469,5,8
337,188,10631,2,0,B|345:266|269:300,1,135,0|8
188,321,11437,1,0
136,247,11760,1,8
136,247,11921,2,0,B|77:301|114:372,2,135,0|8|0
191,175,13211,6,0,B|206:132|206:132|185:63|109:52,2,180,8|0|8
147,254,14824,1,0
147,254,14986,2,0,B|111:291|66:291,1,90,8|0
368,304,16276,6,0,B|398:223|321:169,1,135,8|0
263,130,17082,1,8
173,116,17405,2,0,B|180:58|238:42,2,90,0|8|0
173,206,18373,6,0,B|178:291|271:303,1,135,8|0
343,306,19179,2,0,B|338:221|245:209,1,135,8|0
173,206,19986,2,0,B|112:204|91:150,1,90,8|0
338,41,21115,6,0,B|444:46|450:155,2,180,8|0|8
248,52,22728,2,0,B|248:106|314:129,1,90,0|8
339,133,23211,1,0
336,308,23695,6,0,B|256:379|175:306,3,180,12|0|8|0
64,164,26276,6,0,B|43:112|80:60,2,90,12|0|8
37,200,27082,2,0,B|73:274|163:264,1,135,0|8
235,256,27889,2,0,B|239:314|191:341,2,90,0|8|0
239,165,28857,6,8,B|236:53|352:32,2,180
267,250,30469,2,0,B|221:266|178:232,2,90,0|8|0
351,217,31437,6,0,B|370:270|330:320,2,90,8|0|8
307,203,32244,2,0,B|306:113|397:100,1,135,0|8
454,152,33050,2,0,B|485:112|462:63,2,90,0|8|0
389,215,34018,6,8,B|299:273|204:200,2,180
424,132,35631,2,0,B|475:155|478:214,2,90,0|8|0
340,97,36599,5,8
380,320,37405,2,0,B|351:346|351:346|288:351|262:300,1,135,0|8
132,64,38695,2,0,B|161:38|161:38|224:33|250:84,1,135,0|8
381,188,39824,6,0,B|350:174|350:174|312:206|312:206|277:192|277:192|243:189|213:213,1,180,8|8
151,264,40792,2,8,B|119:222|141:165,2,90
204,336,41760,6,0,B|158:367|100:340,2,90,4|8|0
241,311,42566,2,0,B|290:255|380:280,1,135,0|8
449,305,43373,2,0,B|433:363|372:364,2,90,0|8|0
431,216,44340,6,8,B|425:100|521:55,2,180
367,279,45953,2,0,B|398:319|458:304,2,90,0|8|0
303,215,46921,6,0,B|282:182|282:182|304:143|304:143|284:69,3,135,4|0|0|0
141,333,49340,5,12
228,355,49663,1,0
228,355,49824,2,0,B|261:361|261:361|305:340|326:270,1,135,8|0
358,200,50631,5,8
427,143,50953,1,0
427,143,51115,2,0,B|357:85|291:142,1,135,8|0
231,187,51921,6,0,B|159:222|65:183|55:98,1,225,12|0
101,89,52889,2,0,B|86:40|20:31,2,90,8|0|8
121,176,53857,1,0
89,259,54179,2,0,B|80:286|80:286|100:342|173:321,1,135,8|0
244,127,55308,6,0,B|302:78|388:120,1,135,8|8
453,152,56115,1,0
503,226,56437,2,0,B|431:264|381:202,1,135,8|0
353,170,57082,2,0,B|270:193|268:284,1,135,12|0
276,354,57889,5,8
276,354,58050,2,0,B|330:355|354:295,2,90,0|8|0
186,341,59018,1,8
81,131,59663,5,12
151,75,59986,1,0
151,75,60147,2,0,B|185:51|185:51|248:65|276:109,1,135,8|0
318,168,60953,5,8
249,225,61276,1,0
249,225,61437,2,0,B|319:283|385:226,1,135,8|0
440,176,62244,6,0,B|472:136|458:102|458:102|391:61|306:101,1,225,12|0
283,123,63211,2,0,B|288:173|348:191,2,90,8|0|8
232,48,64179,2,0,B|189:20|138:49,2,90,0|0|4
280,336,66115,6,0,B|322:364|374:335,2,90,8|0|8
218,270,67082,2,0,B|195:218|136:216,1,90,0|4
108,233,67566,2,0,B|90:163|145:67|260:212|294:84|279:17,2,315,8|0|0
