osu file format v13

[General]
AudioFilename: Brynhildr_in_the_Darkness_OP_2_HD.mp3
AudioLeadIn: 0
PreviewTime: 56161
Countdown: 0
SampleSet: Soft
StackLeniency: 0.7
Mode: 1
LetterboxInBreaks: 0
WidescreenStoryboard: 1

[Editor]
DistanceSpacing: 0.7
BeatDivisor: 4
GridSize: 32
TimelineZoom: 2

[Metadata]
Title:Virtue and Vice (TV Size)
TitleUnicode:Virtue and Vice (TV Size)
Artist:Fear and Loathing in Las Vegas
ArtistUnicode:Fear and Loathing in Las Vegas
Creator:senkai
Version:Interlude - The Harness
Source:極黒のブリュンヒルデ Brynhildr of the Darkness
Tags:scumjunk 極黒のブリュンヒルデ Brynhildr of the Darkness
BeatmapID:456455
BeatmapSetID:191829

[Difficulty]
HPDrainRate:8.8
CircleSize:5.9
OverallDifficulty:8.6
ApproachRate:10
SliderMultiplier:1.5
SliderTickRate:1

[Events]
//Background and Video events
0,0,"background.jpg",0,0
//Break Periods
//Storyboard Layer 0 (Background)
//Storyboard Layer 1 (Fail)
//Storyboard Layer 2 (Pass)
//Storyboard Layer 3 (Foreground)
//Storyboard Sound Samples
//Background Colour Transformations
3,100,163,162,255

[TimingPoints]
621,413.789621123565,4,2,0,100,1,0
724,-133.333333333333,4,2,0,85,0,0
13965,-111.111111111111,4,1,0,70,0,0
20586,-100,4,1,0,70,0,0
56482,-83.3333333333333,4,1,0,70,0,0
61965,-100,4,1,0,35,0,0
63620,413.789621123565,4,1,0,90,1,1
63620,-66.6666666666667,4,1,0,90,0,1
66930,-62.5,4,1,0,90,0,1
70240,-57.1428571428571,4,1,0,90,0,1
72723,-50,4,1,0,90,0,1
76861,413.789621123565,4,1,0,100,1,0

[HitObjects]
256,192,724,5,8,0:0:0:0:
256,192,827,1,8,0:0:0:0:
256,192,930,1,0,0:0:0:0:
256,192,1033,1,8,0:0:0:0:
256,192,1137,1,8,0:0:0:0:
256,192,1241,1,0,0:0:0:0:
256,192,1344,1,8,0:0:0:0:
256,192,1447,1,8,0:0:0:0:
256,192,1550,1,0,0:0:0:0:
256,192,1653,1,8,0:0:0:0:
256,192,1757,1,8,0:0:0:0:
256,192,1861,1,0,0:0:0:0:
224,192,1965,1,8,0:0:0:0:
224,192,2068,1,0,0:0:0:0:
224,192,2172,1,8,0:0:0:0:
224,192,2275,1,0,0:0:0:0:
256,192,2379,1,8,0:0:0:0:
256,192,2482,1,8,0:0:0:0:
256,192,2585,1,0,0:0:0:0:
256,192,2688,1,8,0:0:0:0:
256,192,2792,1,8,0:0:0:0:
256,192,2896,1,0,0:0:0:0:
256,192,2999,1,8,0:0:0:0:
256,192,3102,1,8,0:0:0:0:
256,192,3205,1,0,0:0:0:0:
256,192,3308,1,8,0:0:0:0:
256,192,3412,1,8,0:0:0:0:
256,192,3516,1,0,0:0:0:0:
224,192,3620,1,8,0:0:0:0:
224,192,3723,1,0,0:0:0:0:
224,192,3827,1,8,0:0:0:0:
224,192,3930,1,0,0:0:0:0:
256,192,4034,1,8,0:0:0:0:
256,192,4137,1,8,0:0:0:0:
256,192,4240,1,0,0:0:0:0:
256,192,4343,1,8,0:0:0:0:
256,192,4447,1,8,0:0:0:0:
256,192,4551,1,0,0:0:0:0:
256,192,4654,1,8,0:0:0:0:
256,192,4757,1,8,0:0:0:0:
256,192,4860,1,0,0:0:0:0:
256,192,4963,1,8,0:0:0:0:
256,192,5067,1,8,0:0:0:0:
256,192,5171,1,0,0:0:0:0:
224,192,5275,1,8,0:0:0:0:
224,192,5378,1,0,0:0:0:0:
224,192,5482,1,8,0:0:0:0:
224,192,5585,1,0,0:0:0:0:
256,192,5689,1,8,0:0:0:0:
256,192,5792,1,8,0:0:0:0:
256,192,5895,1,0,0:0:0:0:
256,192,5998,1,8,0:0:0:0:
256,192,6102,1,8,0:0:0:0:
256,192,6206,1,0,0:0:0:0:
256,192,6309,1,8,0:0:0:0:
256,192,6412,1,8,0:0:0:0:
256,192,6515,1,0,0:0:0:0:
256,192,6618,1,8,0:0:0:0:
256,192,6722,1,8,0:0:0:0:
256,192,6826,1,0,0:0:0:0:
224,192,6930,1,8,0:0:0:0:
224,192,7033,1,0,0:0:0:0:
224,192,7137,1,8,0:0:0:0:
224,192,7240,1,0,0:0:0:0:
256,192,7344,1,8,0:0:0:0:
256,192,7654,1,0,0:0:0:0:
256,192,7965,1,0,0:0:0:0:
256,192,8275,1,0,0:0:0:0:
256,192,8482,1,0,0:0:0:0:
256,192,8586,1,8,0:0:0:0:
256,192,8792,1,0,0:0:0:0:
256,192,8999,1,0,0:0:0:0:
256,192,9310,1,8,0:0:0:0:
256,192,9620,1,0,0:0:0:0:
256,192,9930,1,0,0:0:0:0:
256,192,10137,1,0,0:0:0:0:
256,192,10241,1,8,0:0:0:0:
256,192,10448,1,0,0:0:0:0:
256,192,10654,1,8,0:0:0:0:
256,192,10965,1,0,0:0:0:0:
256,192,11275,1,0,0:0:0:0:
256,192,11585,1,0,0:0:0:0:
256,192,11792,1,0,0:0:0:0:
256,192,11896,1,8,0:0:0:0:
256,192,12103,1,0,0:0:0:0:
0,64,12310,1,0,0:0:0:0:
256,192,12620,1,0,0:0:0:0:
256,192,12930,1,0,0:0:0:0:
256,192,13241,1,0,0:0:0:0:
256,192,13448,1,0,0:0:0:0:
256,192,13551,1,8,0:0:0:0:
256,192,13758,1,0,0:0:0:0:
256,192,13965,1,4,0:0:0:0:
256,192,14275,1,8,0:0:0:0:
256,192,14379,1,0,0:0:0:0:
256,192,14585,1,8,0:0:0:0:
256,192,14792,1,0,0:0:0:0:
256,192,14896,1,8,0:0:0:0:
256,192,15103,1,8,0:0:0:0:
256,192,15206,1,0,0:0:0:0:
256,192,15413,1,0,0:0:0:0:
256,192,15620,1,0,0:0:0:0:
256,192,15930,1,8,0:0:0:0:
256,192,16034,1,0,0:0:0:0:
256,192,16241,1,8,0:0:0:0:
256,192,16448,1,0,0:0:0:0:
256,192,16551,1,8,0:0:0:0:
256,192,16654,1,0,0:0:0:0:
256,192,16758,1,8,0:0:0:0:
256,192,16861,1,0,0:0:0:0:
256,192,17068,1,0,0:0:0:0:
256,192,17172,1,0,0:0:0:0:
256,192,17275,1,0,0:0:0:0:
256,192,17585,1,8,0:0:0:0:
256,192,17689,1,0,0:0:0:0:
256,192,17896,1,8,0:0:0:0:
256,192,18103,1,0,0:0:0:0:
256,192,18206,1,8,0:0:0:0:
256,192,18413,1,8,0:0:0:0:
256,192,18516,1,0,0:0:0:0:
256,192,18723,1,8,0:0:0:0:
256,192,18930,1,0,0:0:0:0:
256,192,19034,1,0,0:0:0:0:
256,192,19241,1,0,0:0:0:0:
256,192,19447,1,0,0:0:0:0:
256,192,19551,1,0,0:0:0:0:
256,192,19654,1,0,0:0:0:0:
256,192,19758,1,0,0:0:0:0:
192,160,20068,1,0,0:0:0:0:
256,192,20585,1,12,0:0:0:0:
256,192,20896,1,0,0:0:0:0:
256,192,20999,1,8,0:0:0:0:
256,192,21206,1,8,0:0:0:0:
256,192,21413,1,0,0:0:0:0:
256,192,21516,1,8,0:0:0:0:
256,192,21620,1,0,0:0:0:0:
256,192,21723,1,0,0:0:0:0:
256,192,21827,1,8,0:0:0:0:
256,192,22034,1,0,0:0:0:0:
256,192,22241,1,0,0:0:0:0:
256,192,22551,1,0,0:0:0:0:
256,192,22654,1,8,0:0:0:0:
256,192,22861,1,8,0:0:0:0:
256,192,22965,1,0,0:0:0:0:
256,192,23068,1,8,0:0:0:0:
256,192,23172,1,0,0:0:0:0:
256,192,23275,1,0,0:0:0:0:
256,192,23378,1,0,0:0:0:0:
256,192,23482,1,8,0:0:0:0:
256,192,23585,1,0,0:0:0:0:
256,192,23689,1,0,0:0:0:0:
256,192,23792,1,0,0:0:0:0:
256,192,23896,1,0,0:0:0:0:
256,192,24103,1,0,0:0:0:0:
256,192,24310,1,8,0:0:0:0:
256,192,24516,1,0,0:0:0:0:
256,192,24585,1,0,0:0:0:0:
256,192,24654,1,0,0:0:0:0:
256,192,24723,1,8,0:0:0:0:
256,192,24930,1,0,0:0:0:0:
256,192,25137,1,8,0:0:0:0:
256,192,25343,1,0,0:0:0:0:
256,192,25412,1,0,0:0:0:0:
256,192,25481,1,0,0:0:0:0:
256,192,25550,1,8,0:0:0:0:
256,192,25620,1,8,0:0:0:0:
256,192,25689,1,8,0:0:0:0:
256,192,25758,1,8,0:0:0:0:
256,192,25827,1,8,0:0:0:0:
256,192,25896,1,8,0:0:0:0:
256,192,25965,1,8,0:0:0:0:
256,192,26034,1,8,0:0:0:0:
256,192,26103,1,8,0:0:0:0:
256,192,26172,1,8,0:0:0:0:
256,192,26241,1,8,0:0:0:0:
256,192,26310,1,8,0:0:0:0:
256,192,26379,1,8,0:0:0:0:
256,192,26448,1,8,0:0:0:0:
256,192,26516,1,8,0:0:0:0:
256,192,26585,1,8,0:0:0:0:
256,192,26654,1,8,0:0:0:0:
256,192,26723,1,8,0:0:0:0:
256,192,26792,1,8,0:0:0:0:
256,192,27206,1,4,0:0:0:0:
256,192,27516,1,8,0:0:0:0:
256,192,27620,1,0,0:0:0:0:
256,192,27827,1,8,0:0:0:0:
256,192,28034,1,0,0:0:0:0:
256,192,28137,1,8,0:0:0:0:
256,192,28344,1,8,0:0:0:0:
256,192,28447,1,0,0:0:0:0:
256,192,28654,1,8,0:0:0:0:
256,192,28861,1,0,0:0:0:0:
256,192,29172,1,8,0:0:0:0:
256,192,29275,1,0,0:0:0:0:
256,192,29482,1,8,0:0:0:0:
256,128,29689,1,0,0:0:0:0:
256,192,29792,1,8,0:0:0:0:
256,192,29999,1,8,0:0:0:0:
256,192,30103,1,0,0:0:0:0:
256,192,30309,1,8,0:0:0:0:
256,192,30413,1,8,0:0:0:0:
256,192,30516,1,0,0:0:0:0:
256,192,30827,1,8,0:0:0:0:
256,192,30931,1,0,0:0:0:0:
256,192,31138,1,8,0:0:0:0:
256,192,31345,1,0,0:0:0:0:
256,192,31448,1,8,0:0:0:0:
256,192,31655,1,8,0:0:0:0:
256,192,31758,1,0,0:0:0:0:
256,192,31965,1,8,0:0:0:0:
224,192,32068,1,8,0:0:0:0:
256,192,32172,1,0,0:0:0:0:
256,192,32482,1,4,0:0:0:0:
256,192,32792,1,4,0:0:0:0:
256,192,32999,1,4,0:0:0:0:
256,192,33206,1,4,0:0:0:0:
256,192,33413,1,8,0:0:0:0:
256,192,33516,1,8,0:0:0:0:
256,192,33620,1,8,0:0:0:0:
256,192,33723,1,8,0:0:0:0:
256,192,33827,1,0,0:0:0:0:
288,192,33930,1,0,0:0:0:0:
256,192,34137,1,0,0:0:0:0:
288,192,34240,1,0,0:0:0:0:
256,192,34447,1,0,0:0:0:0:
288,192,34550,1,0,0:0:0:0:
256,192,34758,1,0,0:0:0:0:
288,192,34861,1,0,0:0:0:0:
256,192,35068,1,12,0:0:0:0:
256,192,35275,1,8,0:0:0:0:
256,192,35378,1,8,0:0:0:0:
288,192,35482,1,0,0:0:0:0:
288,192,35585,1,0,0:0:0:0:
288,192,35792,1,0,0:0:0:0:
288,192,35895,1,0,0:0:0:0:
288,192,36103,1,0,0:0:0:0:
288,192,36206,1,0,0:0:0:0:
288,192,36413,1,0,0:0:0:0:
288,192,36516,1,0,0:0:0:0:
256,192,36620,12,0,36930,0:0:0:0:
288,192,37137,5,0,0:0:0:0:
288,192,37240,1,0,0:0:0:0:
288,192,37447,5,0,0:0:0:0:
288,192,37550,1,0,0:0:0:0:
288,192,37758,5,0,0:0:0:0:
288,192,37861,1,0,0:0:0:0:
288,192,38103,5,0,0:0:0:0:
288,192,38172,1,0,0:0:0:0:
288,192,38240,1,0,0:0:0:0:
288,160,38309,1,0,0:0:0:0:
288,192,38378,1,8,0:0:0:0:
288,192,38586,1,0,0:0:0:0:
288,192,38792,1,0,0:0:0:0:
256,192,38896,1,0,0:0:0:0:
256,192,39102,1,0,0:0:0:0:
256,192,39206,1,8,0:0:0:0:
288,192,39413,1,0,0:0:0:0:
256,192,39517,1,0,0:0:0:0:
288,192,39723,1,0,0:0:0:0:
256,192,39827,1,0,0:0:0:0:
256,192,40034,1,8,0:0:0:0:
256,192,40102,1,8,0:0:0:0:
256,192,40171,1,8,0:0:0:0:
256,192,40240,1,8,0:0:0:0:
256,192,40309,1,8,0:0:0:0:
256,192,40378,1,8,0:0:0:0:
256,192,40447,1,0,0:0:0:0:
256,192,40758,1,8,0:0:0:0:
256,192,40862,1,0,0:0:0:0:
256,192,41069,1,8,0:0:0:0:
256,192,41276,1,0,0:0:0:0:
256,192,41379,1,8,0:0:0:0:
256,192,41586,1,8,0:0:0:0:
256,192,41689,1,0,0:0:0:0:
256,192,41896,1,8,0:0:0:0:
256,192,41999,1,0,0:0:0:0:
256,192,42103,1,0,0:0:0:0:
256,192,42413,1,8,0:0:0:0:
256,192,42517,1,0,0:0:0:0:
256,192,42724,1,8,0:0:0:0:
256,192,42931,1,0,0:0:0:0:
256,192,43034,1,8,0:0:0:0:
256,192,43241,1,8,0:0:0:0:
256,192,43344,1,0,0:0:0:0:
256,192,43551,1,8,0:0:0:0:
256,192,43654,1,0,0:0:0:0:
256,192,43758,1,0,0:0:0:0:
256,192,44068,1,8,0:0:0:0:
256,192,44172,1,0,0:0:0:0:
256,192,44379,1,8,0:0:0:0:
256,192,44586,1,8,0:0:0:0:
256,192,44689,1,8,0:0:0:0:
256,192,44793,1,0,0:0:0:0:
256,192,44896,1,8,0:0:0:0:
256,192,44999,1,0,0:0:0:0:
256,192,45206,1,8,0:0:0:0:
256,192,45309,1,0,0:0:0:0:
256,192,45413,1,0,0:0:0:0:
256,192,45724,1,4,0:0:0:0:
256,192,46034,1,4,0:0:0:0:
256,192,46241,1,4,0:0:0:0:
256,192,46448,1,0,0:0:0:0:
256,192,46551,1,0,0:0:0:0:
256,192,46655,1,0,0:0:0:0:
256,192,46758,1,0,0:0:0:0:
256,192,46861,1,0,0:0:0:0:
256,192,46965,1,0,0:0:0:0:
256,192,47068,1,8,0:0:0:0:
256,192,47379,1,8,0:0:0:0:
256,192,47483,1,0,0:0:0:0:
256,192,47690,1,8,0:0:0:0:
256,192,47897,1,0,0:0:0:0:
256,192,48000,1,8,0:0:0:0:
256,192,48207,1,8,0:0:0:0:
256,192,48310,1,0,0:0:0:0:
256,192,48517,1,8,0:0:0:0:
256,192,48620,1,8,0:0:0:0:
256,192,48724,1,0,0:0:0:0:
256,192,49034,1,8,0:0:0:0:
256,192,49138,1,0,0:0:0:0:
256,192,49345,1,8,0:0:0:0:
256,192,49552,1,8,0:0:0:0:
256,192,49655,1,8,0:0:0:0:
256,192,49759,1,8,0:0:0:0:
256,192,49862,1,8,0:0:0:0:
256,192,49965,1,8,0:0:0:0:
256,192,50172,1,8,0:0:0:0:
256,192,50379,1,0,0:0:0:0:
256,192,50689,1,8,0:0:0:0:
256,192,50793,1,0,0:0:0:0:
256,192,51000,1,8,0:0:0:0:
256,192,51207,1,0,0:0:0:0:
256,192,51310,1,8,0:0:0:0:
256,192,51517,1,8,0:0:0:0:
256,192,51620,1,0,0:0:0:0:
256,192,51827,1,8,0:0:0:0:
256,192,51930,1,8,0:0:0:0:
256,192,52034,1,0,0:0:0:0:
256,192,52344,1,4,0:0:0:0:
256,192,52654,1,4,0:0:0:0:
256,192,52861,1,4,0:0:0:0:
256,192,53172,1,4,0:0:0:0:
256,192,53482,1,12,0:0:0:0:
256,192,53689,1,0,0:0:0:0:
256,192,53896,1,0,0:0:0:0:
256,192,54103,1,8,0:0:0:0:
256,192,54206,1,0,0:0:0:0:
256,192,54310,1,0,0:0:0:0:
256,192,54413,1,0,0:0:0:0:
256,192,54517,1,8,0:0:0:0:
256,192,54620,1,0,0:0:0:0:
256,192,54723,1,0,0:0:0:0:
256,192,54827,1,8,0:0:0:0:
256,192,54930,1,0,0:0:0:0:
256,192,55034,1,0,0:0:0:0:
256,192,55137,1,0,0:0:0:0:
256,192,55241,1,0,0:0:0:0:
256,192,55344,1,8,0:0:0:0:
256,192,55448,1,0,0:0:0:0:
256,192,55551,1,0,0:0:0:0:
256,192,55655,1,8,0:0:0:0:
256,192,55758,1,0,0:0:0:0:
256,192,55861,1,0,0:0:0:0:
256,192,55965,1,0,0:0:0:0:
256,192,56068,1,0,0:0:0:0:
256,192,56172,1,8,0:0:0:0:
256,192,56482,1,12,0:0:0:0:
256,192,56792,1,12,0:0:0:0:
256,192,56999,1,0,0:0:0:0:
256,192,57103,1,8,0:0:0:0:
256,192,57206,1,8,0:0:0:0:
256,192,57310,1,0,0:0:0:0:
256,192,57413,1,8,0:0:0:0:
256,192,57516,1,8,0:0:0:0:
256,192,57620,1,0,0:0:0:0:
256,192,57723,1,8,0:0:0:0:
256,192,57827,1,8,0:0:0:0:
256,192,57930,1,0,0:0:0:0:
256,192,58034,1,8,0:0:0:0:
256,192,58138,1,8,0:0:0:0:
256,192,58241,1,0,0:0:0:0:
256,192,58344,1,8,0:0:0:0:
256,192,58448,1,0,0:0:0:0:
256,192,58551,1,8,0:0:0:0:
256,192,58654,1,0,0:0:0:0:
256,192,58759,1,8,0:0:0:0:
256,192,58862,1,8,0:0:0:0:
256,192,58966,1,0,0:0:0:0:
256,192,59069,1,8,0:0:0:0:
256,192,59172,1,8,0:0:0:0:
256,192,59276,1,0,0:0:0:0:
256,192,59379,1,8,0:0:0:0:
256,192,59482,1,8,0:0:0:0:
256,192,59586,1,0,0:0:0:0:
256,192,59690,1,8,0:0:0:0:
256,192,59794,1,8,0:0:0:0:
256,192,59897,1,0,0:0:0:0:
256,192,60000,1,8,0:0:0:0:
256,192,60104,1,0,0:0:0:0:
256,192,60207,1,8,0:0:0:0:
256,192,60310,1,0,0:0:0:0:
256,192,60414,1,8,0:0:0:0:
256,192,60517,1,8,0:0:0:0:
256,192,60621,1,0,0:0:0:0:
256,192,60724,1,8,0:0:0:0:
256,192,60827,1,8,0:0:0:0:
256,192,60931,1,0,0:0:0:0:
256,192,61034,1,8,0:0:0:0:
256,192,61137,1,8,0:0:0:0:
256,192,61241,1,0,0:0:0:0:
256,192,61345,1,8,0:0:0:0:
256,192,61448,1,8,0:0:0:0:
256,192,61551,1,8,0:0:0:0:
256,192,61759,1,12,0:0:0:0:
256,192,61965,1,0,0:0:0:0:
256,192,62069,1,0,0:0:0:0:
256,192,62172,1,0,0:0:0:0:
256,192,62276,1,8,0:0:0:0:
224,128,62482,1,8,0:0:0:0:
256,192,62689,1,0,0:0:0:0:
256,192,62793,1,0,0:0:0:0:
256,192,62896,1,0,0:0:0:0:
256,192,63000,1,8,0:0:0:0:
224,128,63103,1,8,0:0:0:0:
256,192,63206,1,8,0:0:0:0:
224,128,63310,1,8,0:0:0:0:
256,192,63620,5,8,0:0:0:0:
256,192,63723,1,0,0:0:0:0:
256,192,63826,1,8,0:0:0:0:
256,192,63930,1,0,0:0:0:0:
256,192,64033,1,0,0:0:0:0:
256,192,64137,1,8,0:0:0:0:
256,192,64240,1,0,0:0:0:0:
256,192,64344,1,0,0:0:0:0:
256,192,64447,1,8,0:0:0:0:
256,192,64551,1,0,0:0:0:0:
256,192,64654,1,0,0:0:0:0:
256,192,64757,1,0,0:0:0:0:
256,192,64861,1,8,0:0:0:0:
256,192,64964,1,0,0:0:0:0:
256,192,65068,1,0,0:0:0:0:
256,192,65171,1,0,0:0:0:0:
256,192,65275,1,8,0:0:0:0:
256,192,65378,1,0,0:0:0:0:
256,192,65482,1,8,0:0:0:0:
256,192,65585,1,0,0:0:0:0:
256,192,65688,1,8,0:0:0:0:
256,192,65792,1,0,0:0:0:0:
256,192,65895,1,0,0:0:0:0:
256,192,65999,1,0,0:0:0:0:
256,192,66102,1,8,0:0:0:0:
256,192,66206,1,0,0:0:0:0:
256,192,66309,1,0,0:0:0:0:
256,192,66413,1,0,0:0:0:0:
256,192,66516,1,8,0:0:0:0:
256,192,66619,1,0,0:0:0:0:
256,192,66723,1,0,0:0:0:0:
256,192,66826,1,0,0:0:0:0:
256,192,66930,1,8,0:0:0:0:
256,192,67033,1,0,0:0:0:0:
256,192,67137,1,0,0:0:0:0:
256,192,67240,1,0,0:0:0:0:
256,192,67344,1,8,0:0:0:0:
256,192,67447,1,0,0:0:0:0:
256,192,67551,1,8,0:0:0:0:
256,192,67654,1,8,0:0:0:0:
256,192,67757,1,0,0:0:0:0:
256,192,67861,1,0,0:0:0:0:
256,192,67964,1,0,0:0:0:0:
256,192,68068,1,8,0:0:0:0:
256,192,68171,1,0,0:0:0:0:
256,192,68275,1,0,0:0:0:0:
256,192,68378,1,0,0:0:0:0:
256,192,68482,1,8,0:0:0:0:
256,192,68585,1,8,0:0:0:0:
256,192,68688,1,0,0:0:0:0:
224,160,68792,1,0,0:0:0:0:
256,192,68895,1,8,0:0:0:0:
224,160,68999,1,0,0:0:0:0:
256,192,69102,1,0,0:0:0:0:
256,192,69206,1,8,0:0:0:0:
256,192,69309,1,0,0:0:0:0:
256,192,69413,1,8,0:0:0:0:
256,192,69516,1,8,0:0:0:0:
256,192,69619,1,8,0:0:0:0:
256,192,69723,1,0,0:0:0:0:
256,192,69826,1,8,0:0:0:0:
256,192,69930,1,8,0:0:0:0:
224,160,70033,1,8,0:0:0:0:
256,192,70137,1,0,0:0:0:0:
256,192,70240,1,8,0:0:0:0:
256,192,70344,1,0,0:0:0:0:
256,192,70447,1,8,0:0:0:0:
256,192,70550,1,0,0:0:0:0:
256,192,70654,1,8,0:0:0:0:
256,192,70757,1,0,0:0:0:0:
256,192,70861,1,8,0:0:0:0:
256,192,70964,1,0,0:0:0:0:
256,192,71068,1,8,0:0:0:0:
256,192,71171,1,0,0:0:0:0:
256,192,71275,1,0,0:0:0:0:
256,192,71378,1,0,0:0:0:0:
256,192,71482,1,8,0:0:0:0:
256,192,71585,1,0,0:0:0:0:
256,192,71688,1,0,0:0:0:0:
256,192,71792,1,0,0:0:0:0:
256,192,71895,1,8,0:0:0:0:
256,192,71999,1,0,0:0:0:0:
256,192,72102,1,8,0:0:0:0:
256,192,72206,1,0,0:0:0:0:
256,192,72309,1,8,0:0:0:0:
256,192,72413,1,0,0:0:0:0:
256,192,72516,1,0,0:0:0:0:
256,192,72619,1,0,0:0:0:0:
256,192,72723,1,8,0:0:0:0:
256,192,72826,1,0,0:0:0:0:
256,192,72930,1,0,0:0:0:0:
256,192,73033,1,8,0:0:0:0:
256,192,73137,1,8,0:0:0:0:
256,192,73240,1,8,0:0:0:0:
256,192,73344,1,0,0:0:0:0:
256,160,73447,1,8,0:0:0:0:
256,192,73550,1,8,0:0:0:0:
256,192,73654,1,0,0:0:0:0:
256,192,73757,1,0,0:0:0:0:
256,192,73861,1,0,0:0:0:0:
256,192,73964,1,8,0:0:0:0:
256,192,74068,1,0,0:0:0:0:
256,192,74171,1,0,0:0:0:0:
256,192,74275,1,0,0:0:0:0:
256,192,74378,1,8,0:0:0:0:
256,192,74481,1,0,0:0:0:0:
256,192,74585,1,8,0:0:0:0:
256,192,74688,1,0,0:0:0:0:
256,192,74792,1,8,0:0:0:0:
256,192,74895,1,8,0:0:0:0:
256,192,74999,1,0,0:0:0:0:
256,192,75102,1,8,0:0:0:0:
256,192,75206,1,0,0:0:0:0:
256,192,75309,1,8,0:0:0:0:
256,192,75413,1,8,0:0:0:0:
256,192,75516,1,0,0:0:0:0:
256,192,75619,1,8,0:0:0:0:
256,192,75723,1,8,0:0:0:0:
256,192,75826,1,0,0:0:0:0:
256,192,75930,1,8,0:0:0:0:
256,192,76033,1,8,0:0:0:0:
256,192,76137,1,0,0:0:0:0:
256,128,76240,1,8,0:0:0:0:
256,192,76344,1,8,0:0:0:0:
224,192,76447,1,8,0:0:0:0:
256,160,76550,1,0,0:0:0:0:
224,192,76654,1,0,0:0:0:0:
256,160,76757,1,8,0:0:0:0:
256,192,76861,1,0,0:0:0:0:
256,192,76964,1,0,0:0:0:0:
256,192,77067,1,0,0:0:0:0:
256,192,77171,1,8,0:0:0:0:
224,128,77481,1,8,0:0:0:0:
256,192,77688,1,0,0:0:0:0:
256,192,77791,1,0,0:0:0:0:
256,192,77894,1,0,0:0:0:0:
256,192,77998,1,8,0:0:0:0:
224,128,78309,1,8,0:0:0:0:
256,192,78516,1,0,0:0:0:0:
256,192,78619,1,0,0:0:0:0:
256,192,78722,1,0,0:0:0:0:
256,192,78826,1,8,0:0:0:0:
224,128,79136,1,8,0:0:0:0:
256,192,79343,1,0,0:0:0:0:
256,192,79549,1,12,0:0:0:0:
256,192,79757,1,4,0:0:0:0:
256,192,80171,1,0,0:0:0:0:
256,192,80274,1,0,0:0:0:0:
256,192,80377,1,0,0:0:0:0:
256,192,80481,1,8,0:0:0:0:
224,128,80792,1,8,0:0:0:0:
256,192,80999,1,0,0:0:0:0:
256,192,81102,1,0,0:0:0:0:
256,192,81205,1,0,0:0:0:0:
256,192,81309,1,8,0:0:0:0:
224,128,81619,1,8,0:0:0:0:
256,192,81826,1,4,0:0:0:0:
256,192,82136,1,4,0:0:0:0:
256,192,82447,1,12,0:0:0:0:
256,192,82654,1,4,0:0:0:0:
256,192,82965,1,12,0:0:0:0:
256,192,83274,1,4,0:0:0:0:
256,192,83481,1,8,0:0:0:0:
256,192,83585,1,8,0:0:0:0:
224,192,83688,1,0,0:0:0:0:
224,192,83791,1,0,0:0:0:0:
224,128,84102,1,8,0:0:0:0:
256,192,84309,1,0,0:0:0:0:
256,192,84412,1,0,0:0:0:0:
256,192,84515,1,0,0:0:0:0:
256,192,84619,1,8,0:0:0:0:
224,128,84930,1,8,0:0:0:0:
256,192,85137,1,0,0:0:0:0:
256,192,85240,1,0,0:0:0:0:
256,192,85343,1,0,0:0:0:0:
256,192,85447,1,8,0:0:0:0:
224,128,85757,1,8,0:0:0:0:
256,192,85964,1,0,0:0:0:0:
256,192,86170,1,12,0:0:0:0:
256,192,86378,1,4,0:0:0:0:
256,192,86791,1,0,0:0:0:0:
256,192,86894,1,0,0:0:0:0:
256,192,86997,1,0,0:0:0:0:
256,192,87102,1,0,0:0:0:0:
224,128,87412,1,8,0:0:0:0:
256,192,87619,1,0,0:0:0:0:
256,192,87722,1,0,0:0:0:0:
256,192,87825,1,0,0:0:0:0:
256,192,87929,1,0,0:0:0:0:
224,128,88239,1,8,0:0:0:0:
256,192,88446,1,4,0:0:0:0:
256,192,88756,1,4,0:0:0:0:
256,192,89067,1,12,0:0:0:0:
256,192,89274,1,4,0:0:0:0:
256,192,89585,1,12,0:0:0:0:
