osu file format v7

[General]
AudioFilename: 24 - mind as Judgement (TV Size).mp3
AudioLeadIn: 0
PreviewTime: 61723
Countdown: 0
SampleSet: Normal
StackLeniency: 0.7
Mode: 0
LetterboxInBreaks: 1

[Editor]
DistanceSpacing: 0.800000011920929
BeatDivisor: 4
GridSize: 16

[Metadata]
Title:mind as Judgment (TV Size)
Artist:Faylan
Creator:yeahyeahyeahhh
Version:Maria
Source:Canaan
Tags:Anime Inozuma ignorethis

[Difficulty]
HPDrainRate:2
CircleSize:3
OverallDifficulty:2
SliderMultiplier:0.8
SliderTickRate:1

[Events]
//Background and Video events
0,0,"Minitokyo.Canaan.Wallpapers_403445.jpg"
Video,0,"CANAAN_OP_HD_video.flv"
//Break Periods
2,25765,29689
2,51817,54952
2,73922,78163
//Storyboard Layer 0 (Background)
//Storyboard Layer 1 (Fail)
//Storyboard Layer 2 (Pass)
//Storyboard Layer 3 (Foreground)
//Storyboard Sound Samples
//Background Colour Transformations
3,100,163,162,255

[TimingPoints]
460,315.789473684211,4,1,0,100,1,0
16091,-100,4,1,0,61,0,0
63144,-100,4,1,0,80,0,0
63617,-100,4,1,0,60,0,0
64091,-100,4,1,0,60,0,1
74196,-100,4,1,0,40,0,0
84302,-100,4,1,0,81,0,0

[Colours]
Combo1 : 104,74,108
Combo2 : 182,120,146
Combo3 : 174,180,180
Combo4 : 3,28,82

[HitObjects]
256,192,16090,1,2
112,288,17354,5,2
112,96,18617,5,2
400,96,19881,5,2
416,272,20670,5,0
304,336,21144,1,2
96,272,21933,5,0
208,336,22407,1,2
256,192,23196,5,0
256,64,23670,1,2
256,192,24460,5,0
256,320,24934,1,2
256,320,25249,1,0
256,320,25565,1,4
128,80,31249,6,0,B|64:192|192:256,1,200,2|8
384,80,32512,6,0,B|448:192|320:256,1,200,2|8
256,64,33775,6,0,B|256:272,1,200,2|8
352,336,34881,2,0,B|304:352,1,40,0|2
208,352,35354,2,0,B|128:304,1,80,0|2
64,192,36144,5,0
64,192,36460,2,0,B|128:160|128:208|192:192,1,120
448,192,37407,5,0
448,192,37723,2,0,B|384:160|384:208|320:192,1,120
256,96,38670,1,0
256,192,38828,12,4,41354
112,240,41828,5,8
112,240,42144,1,2
256,192,42617,5,0
400,144,43091,1,8
400,144,43407,1,2
256,192,43881,5,0
216,64,44354,2,0,B|256:48|304:64,1,80,8|2
256,192,45144,6,0,B|256:288,2,80
112,304,46249,5,0
112,208,46565,2,2,B|112:80,1,120
400,80,47512,5,0
400,176,47828,2,4,B|400:304,1,120,4|4
400,296,48617,1,4
256,192,48933,12,0,51617
96,240,56512,5,0
176,176,56828,1,0
256,112,57144,1,2
416,240,57933,5,0
416,240,58091,1,0
336,176,58407,1,2
216,48,59196,5,0
216,48,59354,1,0
216,48,59670,2,0,B|256:32|296:48,2,80
256,192,60381,12,4,63460
112,288,64091,6,0,B|112:160,1,120,2|8
64,88,64881,2,0,B|96:56|136:56|176:88,1,120,0|2
320,80,65828,2,0,B|416:80,1,80,8|0
400,288,66617,6,0,B|400:160,1,120,2|8
448,88,67407,2,0,B|416:56|376:56|336:88,1,120,0|2
192,80,68354,2,0,B|96:80,1,80,8|0
88,192,69144,6,0,B|88:264|168:264,1,120,2|8
164,263,69933,1,0
424,192,70407,6,0,B|424:264|344:264,1,120,2|8
347,263,71196,1,0
352,104,71828,5,4
296,40,72144,1,4
216,40,72459,1,4
160,104,72775,1,4
256,128,73091,2,4,B|256:224,2,80,4|4|6
64,272,79723,6,0,B|64:176,1,80,0|0
192,192,80354,2,0,B|192:96,1,80,0|0
320,112,80986,2,0,B|320:192,1,80,0|0
448,192,81617,2,0,B|448:272,1,80,0|0
208,240,83196,5,0
304,240,83512,1,0
208,144,83828,1,0
304,144,84144,1,0
208,240,84460,5,0
208,240,84617,1,0
368,96,85723,5,0
368,96,85880,1,0
144,96,86986,5,0
144,96,87143,1,0
256,304,88249,5,2
256,304,88406,1,2
