osu file format v7

[General]
AudioFilename: 24 - mind as Judgement (TV Size).mp3
AudioLeadIn: 0
PreviewTime: 61723
Countdown: 0
SampleSet: Normal
StackLeniency: 0.7
Mode: 0
LetterboxInBreaks: 1

[Editor]
Bookmarks: 17354,26196,31249
DistanceSpacing: 1
BeatDivisor: 4
GridSize: 16

[Metadata]
Title:mind as Judgment (TV Size)
Artist:Faylan
Creator:yeahyeahyeahhh
Version:Alphard
Source:Canaan
Tags:Anime Inozuma ignorethis

[Difficulty]
HPDrainRate:6
CircleSize:5
OverallDifficulty:7
SliderMultiplier:1.4
SliderTickRate:0.5

[Events]
//Background and Video events
Video,0,"CANAAN_OP_HD_video.flv"
0,0,"Minitokyo.Canaan.Wallpapers_403445.jpg"
//Break Periods
2,26396,29875
//Storyboard Layer 0 (Background)
//Storyboard Layer 1 (Fail)
//Storyboard Layer 2 (Pass)
//Storyboard Layer 3 (Foreground)
//Storyboard Sound Samples
//Background Colour Transformations
3,100,0,0,0

[TimingPoints]
460,315.789473684211,4,1,0,100,1,0
14828,-100,4,1,0,30,0,0
15144,-100,4,1,0,30,0,0
15460,-100,4,1,0,40,0,0
15775,-100,4,1,0,50,0,0
16091,-100,4,1,0,60,0,0
30696,-100,4,1,0,30,0,0
30854,-100,4,1,0,40,0,0
31012,-100,4,1,0,50,0,0
31170,-100,4,1,0,60,0,0
61091,-100,4,1,0,40,0,0
61723,-100,4,2,0,70,0,0
62907,-100,4,1,0,40,0,0
63065,-100,4,1,0,50,0,0
63617,-100,4,1,0,60,0,0
64091,-100,4,1,0,60,0,1
74354,-100,4,1,0,60,0,0
79723,-100,4,1,0,40,0,0
81775,-100,4,1,0,45,0,0
83196,-100,4,1,0,40,0,0
84460,-100,4,1,0,55,0,0
84933,-100,4,2,0,80,0,0
85723,-100,4,1,0,80,0,0
86196,-100,4,2,0,80,0,0
86986,-100,4,1,0,80,0,0
87578,-100,4,2,0,40,0,0
88288,-100,4,1,0,80,0,0

[Colours]
Combo1 : 104,74,108
Combo2 : 182,120,146
Combo3 : 174,180,180
Combo4 : 3,28,82

[HitObjects]
256,48,14986,1,0
256,192,15302,1,0
256,320,15617,1,0
256,320,15933,1,0
256,320,16091,5,4
96,192,17354,1,4
256,64,18617,1,4
416,192,19880,1,4
256,320,20670,2,0,B|256:256,4,35
256,320,21144,5,4
64,192,21933,2,0,B|0:192,4,35
64,192,22407,1,4
256,64,23196,2,0,B|256:0,4,35
256,64,23670,1,4
448,192,24460,2,0,B|512:192,4,35
448,192,24933,1,4
384,288,25249,1,0
320,320,25407,2,0,B|256:352|160:320,1,140
128,288,25881,2,0,C|128:192,2,70,0|0|4
256,64,30775,5,0
256,64,30933,1,0
256,64,31091,1,0
256,64,31249,6,0,B|256:224,1,140,4|0
320,240,31723,2,0,B|400:240,2,70,8|0|0
256,272,32196,1,0
256,272,32354,1,8
256,272,32512,2,0,B|187:314|117:271,1,140
64,240,32986,2,0,B|64:144,2,70,8|0|0
64,240,33460,1,8
64,240,33617,1,8
64,304,33775,6,0,B|128:352|224:336,1,140
240,288,34249,2,0,B|336:288,2,70,8|0|0
208,224,34723,1,0
240,160,34881,1,8
208,96,35038,2,0,B|272:48|368:80,2,140
208,96,35828,1,0
144,80,35986,1,0
80,96,36144,6,0,B|80:16,2,70,8|0|4
176,192,36775,1,8
256,256,37012,1,0
256,256,37091,1,0
320,288,37249,1,0
384,256,37407,1,8
448,288,37565,1,0
448,224,37723,6,0,B|480:160|440:78,1,140,0|8
384,64,38196,2,0,B|240:64,1,140
176,80,38670,1,8
112,64,38828,1,0
256,192,38986,12,4,40881
256,336,41354,6,0,B|288:256|224:272|256:192,1,140
320,192,41828,2,0,B|400:192,2,70,8|0|0
304,128,42302,1,0
304,128,42460,1,8
256,80,42617,2,0,B|182:48|111:85,1,140
48,96,43091,2,0,B|48:16,2,70,8|0|0
48,160,43565,1,8
48,160,43723,1,8
112,128,43881,6,0,B|160:192|107:262,1,140
110,257,44354,1,8
128,320,44512,1,0
192,304,44670,1,0
176,240,44828,1,0
192,304,44986,1,8
176,240,45144,2,0,B|240:192|320:224,2,140
112,208,45933,1,0
112,144,46091,1,0
176,112,46249,1,8
176,176,46407,1,0
176,176,46565,6,0,B|320:176,1,140,0|8
384,176,47038,2,0,B|437:246|376:312,1,140
320,304,47512,2,0,B|240:304,1,70,8|0
176,304,47828,1,0
112,304,47986,1,0
240,240,48302,1,0
96,240,48617,1,0
224,176,48933,1,0
240,112,49091,5,0
304,96,49249,1,0
368,80,49407,1,8
432,64,49565,2,0,B|432:32|480:32,2,35
448,128,49881,2,2,B|464:208|400:256,1,140
350,298,50354,1,0
336,224,50512,2,2,B|272:272|288:352,1,140
224,352,50986,2,0,B|144:352,1,70
144,288,51302,2,0,B|224:288,1,70,8|0
214,288,51617,5,4
224,224,51775,2,0,B|304:224,2,70,0|8|0
160,224,52249,1,0
96,224,52407,2,0,B|64:192|96:144,2,70,0|8|0
144,160,52881,1,0
128,96,53038,1,0
64,64,53196,2,0,B|64:144,2,70,8|0|0
128,32,53670,2,0,B|163:13|208:39,1,70,0|8
256,64,53986,5,0
320,32,54144,1,0
384,48,54302,1,0
464,160,54617,1,2
336,112,54933,1,0
416,224,55249,2,2,B|464:384|288:336,1,210
240,336,55881,1,0
176,304,56038,1,0
128,256,56196,2,0,B|96:272|80:320,2,70,0|8|0
112,192,56670,5,0
96,128,56828,2,2,B|256:128,1,140
224,64,57302,2,2,B|384:64,1,140
416,112,57775,1,0
480,96,57933,2,0,B|480:176,1,70
416,192,58249,1,8
352,176,58407,2,2,B|320:256|400:304,2,140
288,192,59196,5,0
224,176,59354,1,0
256,304,59670,1,2
160,208,59986,1,0
192,336,60302,1,2
128,304,60460,5,0
128,304,60538,1,0
128,304,60617,1,0
64,336,60775,1,8
64,272,60933,1,0
128,304,61091,1,0
128,240,61249,1,0
64,272,61407,1,8
64,208,61565,1,0
128,240,61723,5,0
160,176,61881,1,0
192,240,62038,2,0,B|272:240,1,70,2|0
288,304,62354,1,0
304,272,62433,1,0
320,240,62512,1,0
352,304,62670,2,0,B|432:304,1,70
464,240,62986,1,0
464,240,63144,1,0
416,112,63460,1,0
352,96,63617,2,0,B|256:96,2,70
368,32,64091,6,0,B|224:32,1,140,4|0
160,48,64565,1,8
96,32,64723,1,0
32,48,64881,2,0,B|0:80|16:128,2,70,0|0|8
80,96,65354,2,0,B|144:48|224:112,1,140
240,160,65828,2,0,B|336:160,1,70,8|0
368,128,66144,2,0,B|368:48,2,70,0|8|8
432,160,66617,6,0,B|480:240|416:304,1,140
428,290,67091,1,8
368,320,67249,1,0
368,320,67407,1,0
304,288,67565,2,0,B|160:288,2,140
368,256,68354,1,8
304,224,68512,1,0
368,192,68670,2,0,B|448:192,2,70,0|8|8
304,160,69144,6,0,B|237:126|163:161,1,140,4|0
176,224,69617,1,8
112,224,69775,1,0
96,288,69933,1,0
160,288,70091,2,0,B|224:336|320:288,2,140
96,288,70881,2,0,B|16:288,2,70,8|0|0
64,224,71354,1,0
32,160,71512,1,8
64,224,71670,1,0
96,160,71828,6,0,B|116:112|192:112|219:181,1,140,0|8
256,208,72302,1,0
304,256,72460,2,0,B|336:304|400:304|427:250,1,140,0|8
464,208,72933,1,0
256,192,73091,12,0,74038
48,80,74354,6,0,B|112:32|208:64,1,140,4|8
240,80,74828,1,0
304,96,74986,2,0,B|384:112|448:48,1,140,0|8
464,128,75460,1,0
400,160,75617,2,0,B|368:240|448:288,1,140,0|8
464,208,76091,1,0
400,224,76249,2,0,B|320:256|256:192,1,140,0|8
336,160,76723,1,0
288,96,76881,6,0,B|176:192,1,140,0|8
80,288,77512,1,0
144,320,77670,2,0,B|288:320,2,140
144,256,78460,1,8
80,224,78617,1,0
144,192,78775,1,0
80,224,78933,1,0
80,160,79091,1,8
144,192,79249,1,0
144,128,79407,2,0,B|224:128,1,70,4|0
288,128,79723,6,0,B|336:192|280:265,2,140,8|0|8
224,144,80512,1,0
272,192,80670,2,0,B|432:192,1,140,0|8
464,240,81144,1,0
416,288,81302,2,0,B|272:288,1,140,0|8
256,144,81933,5,0
208,96,82091,1,0
256,48,82249,1,8
304,96,82407,1,0
256,144,82565,1,0
208,96,82723,1,0
256,48,82881,1,8
304,96,83038,1,0
304,96,83196,6,0,B|352:176|288:240,1,140,0|8
206,98,83828,2,0,B|160:176|211:226,1,140,0|8
256,272,84302,1,0
208,320,84460,6,0,B|128:320,1,70
304,320,85091,2,0,B|384:320,1,70,8|0
208,320,85723,2,0,B|128:320,1,70
304,320,86354,2,0,B|384:320,1,70,8|0
256,128,86986,1,0
256,192,87144,1,0
256,192,87617,2,0,L|256:160,16,17.5,0|0|0|0|0|0|0|0|0|0|0|0|0|0|0|0|4
256,192,88407,5,4
