osu file format v13

[General]
AudioFilename: Tokyo Zero Hearts.mp3
AudioLeadIn: 0
PreviewTime: 64706
Countdown: 0
SampleSet: Normal
StackLeniency: 0.7
Mode: 0
LetterboxInBreaks: 0
WidescreenStoryboard: 0

[Editor]
DistanceSpacing: 0.5
BeatDivisor: 4
GridSize: 4
TimelineZoom: 2.1

[Metadata]
Title:Tokyo Zero Hearts (TV Size)
TitleUnicode:東京ゼロハーツ (TV Size)
Artist:Faylan
ArtistUnicode:飛蘭
Creator:Dark Accelerator
Version:Insane
Source:東京ESP
Tags:Tokyo ESP opening
BeatmapID:484482
BeatmapSetID:205209

[Difficulty]
HPDrainRate:7
CircleSize:4
OverallDifficulty:8
ApproachRate:9
SliderMultiplier:1.6
SliderTickRate:2

[Events]
//Background and Video events
0,0,"bg.png",0,0
Video,0,"video.avi"
//Break Periods
//Storyboard Layer 0 (Background)
//Storyboard Layer 1 (Fail)
//Storyboard Layer 2 (Pass)
//Storyboard Layer 3 (Foreground)
//Storyboard Sound Samples
//Background Colour Transformations
3,100,163,162,255

[TimingPoints]
1132,297.029702970297,4,1,1,50,1,0
17765,-125,4,3,0,50,0,0
22518,-125,4,2,0,50,0,0
29052,-125,4,3,0,50,0,0
32023,-125,4,2,0,50,0,0
36775,-125,4,3,0,50,0,0
38557,-125,4,1,1,50,0,0
41528,-100,4,1,1,50,0,0
55785,-125,4,1,1,50,0,0
58161,-100,4,3,0,60,0,0
60537,-100,4,1,1,50,0,0
64696,-133.333333333333,4,1,1,50,0,0
65290,-83.3333333333333,4,1,1,60,0,1
83112,-100,4,1,1,50,0,0
87567,-66.6666666666667,4,1,1,50,0,0

[Colours]
Combo1 : 48,144,199
Combo2 : 245,40,135
Combo3 : 229,228,226
Combo4 : 243,229,171

[HitObjects]
140,100,1132,5,4,0:0:0:0:
372,284,2765,5,0,0:0:0:0:
372,284,2839,1,0,0:0:0:0:
372,284,2914,2,0,L|380:200,1,80,0|8,0:0|0:3,0:0:0:0:
280,136,3211,2,0,L|272:220,1,80,8|0,0:3|0:0,0:0:0:0:
480,196,3508,1,4,0:0:0:0:
32,196,4844,5,4,3:0:0:0:
128,68,5141,1,0,0:0:0:0:
128,68,5216,1,0,0:0:0:0:
128,68,5290,1,8,0:3:0:0:
288,84,5438,1,8,0:3:0:0:
192,25,5587,1,8,0:3:0:0:
400,116,5735,1,8,0:3:0:0:
112,216,5884,1,4,0:0:0:0:
400,100,8260,5,4,0:0:0:0:
344,284,8557,1,0,0:0:0:0:
344,284,8631,1,0,0:0:0:0:
344,284,8705,2,0,L|291:287,1,40
233,214,8854,2,0,L|285:210,1,40
204,315,9003,2,0,L|151:318,1,40
77,204,9151,2,0,L|129:200,1,40
45,346,9300,2,0,L|41:293,1,40
41,113,9448,1,0,0:0:0:0:
280,36,9894,5,0,0:0:0:0:
280,36,9969,1,0,0:0:0:0:
280,36,10043,1,8,0:0:0:0:
396,64,10191,1,8,0:3:0:0:
328,208,10339,1,8,0:3:0:0:
184,136,10488,1,8,0:3:0:0:
484,96,10636,6,0,L|476:180,1,80,4|0,0:0|0:0,0:0:0:0:
472,296,10933,1,0,0:0:0:0:
328,208,11082,1,2,0:3:0:0:
336,224,11379,1,2,0:3:0:0:
344,236,11676,6,0,P|256:260|184:228,1,160,4|0,0:0|0:0,0:0:0:0:
100,164,12122,1,8,0:0:0:0:
152,56,12270,1,0,0:0:0:0:
152,56,12344,1,0,0:0:0:0:
152,56,12419,2,0,L|236:52,1,80,8|0,0:0|0:0,0:0:0:0:
316,138,12716,2,0,L|232:142,1,80,8|0,0:0|0:0,0:0:0:0:
100,164,13013,5,0,0:0:0:0:
312,44,13161,1,0,0:0:0:0:
320,212,13310,1,0,0:0:0:0:
152,56,13458,1,2,0:3:0:0:
144,44,13755,1,2,0:3:0:0:
136,28,14052,6,0,L|116:192,1,160,4|0,0:0|0:0,0:0:0:0:
100,306,14498,1,8,0:0:0:0:
324,224,14646,1,0,0:0:0:0:
168,256,14795,1,8,0:0:0:0:
405,234,14943,1,0,0:0:0:0:
244,224,15092,1,8,0:0:0:0:
478,264,15240,6,0,P|492:180|480:104,1,160,4|0,0:0|0:0,0:0:0:0:
376,48,15686,1,8,0:0:0:0:
264,88,15834,2,0,L|216:80,1,40
148,56,15983,1,0,0:0:0:0:
96,208,16132,1,0,0:0:0:0:
248,160,16280,1,8,0:0:0:0:
16,144,16429,6,0,P|12:228|32:308,1,160,4|0,0:0|0:0,0:0:0:0:
124,374,16874,1,8,0:0:0:0:
216,296,17023,1,0,0:0:0:0:
216,296,17097,1,0,0:0:0:0:
216,296,17171,2,0,L|312:296,1,80,0|8,0:0|0:3,0:0:0:0:
392,368,17468,2,0,L|296:368,1,80,8|0,0:3|0:0,0:0:0:0:
124,374,17765,6,0,P|80:296|116:196,1,192,4|0,0:0|0:0,0:0:0:0:
171,130,18359,1,8,0:0:0:0:
356,180,18656,1,8,0:0:0:0:
124,374,20141,5,4,0:0:0:0:
171,130,20735,1,8,0:0:0:0:
356,180,21032,1,8,0:0:0:0:
356,180,21627,5,8,0:0:0:0:
171,130,21924,1,8,0:0:0:0:
268,124,22072,1,8,0:0:0:0:
144,216,22221,1,8,0:0:0:0:
76,36,22518,6,0,P|144:24|200:36,1,128,4|0,0:0|0:0,0:0:0:0:
264,148,23112,2,0,P|196:160|140:148,1,128,2|0,0:0|0:0,0:0:0:0:
60,124,23557,1,0,0:0:0:0:
12,192,23706,2,0,L|20:332,1,128,2|0,0:0|0:0,0:0:0:0:
136,372,24300,2,0,L|128:232,1,128,2|0,0:0|0:0,0:0:0:0:
300,52,24894,6,0,B|328:88|312:136|312:136|276:152|324:208|324:208|308:224|296:248|296:248|288:268|308:292,1,256,2|2,0:0|0:0,0:0:0:0:
200,364,25785,1,0,0:0:0:0:
84,212,26082,2,0,P|144:196|212:216,1,128,2|0,0:0|0:0,0:0:0:0:
292,308,26676,2,0,P|232:324|164:304,1,128,2|0,0:0|0:0,0:0:0:0:
92,132,27270,1,2,0:0:0:0:
272,64,27567,1,0,0:0:0:0:
272,64,27716,2,0,P|396:100|268:304,1,448,2|0,0:0|0:0,0:0:0:0:
88,308,29052,5,4,0:0:0:0:
172,32,29498,1,0,0:0:0:0:
172,32,29646,2,0,L|248:32,1,64,8|0,0:0|0:0,0:0:0:0:
344,192,30092,1,0,0:0:0:0:
344,192,30240,2,0,L|268:192,1,64,8|0,0:0|0:0,0:0:0:0:
220,116,30537,2,0,L|296:116,1,64,0|0,0:0|0:0,0:0:0:0:
412,108,30834,6,0,L|428:176,1,64,8|0,0:0|0:0,0:0:0:0:
300,316,31132,2,0,L|316:248,1,64,0|0,0:0|0:0,0:0:0:0:
512,208,31429,2,0,L|496:276,1,64,8|0,0:0|0:0,0:0:0:0:
232,248,31726,1,4,0:0:0:0:
220,44,32023,6,0,L|364:32,1,128,4|0,0:0|0:0,0:0:0:0:
424,136,32617,2,0,L|280:148,1,128,2|0,0:0|0:0,0:0:0:0:
216,168,33062,1,0,0:0:0:0:
180,244,33211,2,0,P|184:308|252:360,1,128,2|0,0:0|0:0,0:0:0:0:
328,220,33805,2,0,P|324:156|256:104,1,128,2|0,0:0|0:0,0:0:0:0:
56,64,34399,6,0,B|20:124|56:164|56:164|40:192|40:192|64:200|64:200|32:228|72:256|52:288,1,256,2|2,0:0|0:0,0:0:0:0:
232,356,35290,1,0,0:0:0:0:
316,184,35587,2,0,P|416:124|504:228,2,256,2|2|4,0:0|0:0|0:0,0:0:0:0:
140,260,37072,6,0,L|56:264,2,64,0|0|8,0:0|0:0|0:0,0:0:0:0:
320,328,37666,1,0,0:0:0:0:
304,339,37815,2,0,L|316:187,1,128,0|0,0:0|0:0,0:0:0:0:
324,116,38260,1,8,0:0:0:0:
480,228,38557,5,4,0:0:0:0:
192,240,39003,1,0,0:0:0:0:
192,240,39151,2,0,P|156:168|204:76,1,192,4|0,0:0|0:0,0:0:0:0:
292,36,39745,1,12,0:0:0:0:
456,136,40042,1,0,0:0:0:0:
456,136,40117,1,0,0:0:0:0:
456,136,40191,1,0,0:0:0:0:
456,136,40265,1,0,0:0:0:0:
456,136,40339,6,0,L|452:208,1,64,8|0,0:0|0:0,0:0:0:0:
360,228,40636,2,0,L|364:156,1,64,8|0,0:3|0:0,0:0:0:0:
508,256,40933,1,8,0:0:0:0:
508,256,41082,1,8,0:0:0:0:
440,324,41231,2,0,L|372:324,1,64,8|0,0:3|0:0,0:0:0:0:
244,232,41528,6,0,L|160:240,2,80,4|0|8,0:0|0:0|0:0,0:0:0:0:
480,192,41973,2,0,P|492:124|472:32,1,160,0|2,0:0|0:0,0:0:0:0:
356,12,42419,1,8,0:0:0:0:
280,104,42567,2,0,L|116:92,1,160,2|2,0:3|0:0,0:0:0:0:
60,196,43013,2,0,L|48:280,1,80,8|0,0:0|0:0,0:0:0:0:
160,320,43310,2,0,L|148:236,1,80,2|2,0:0|0:0,0:0:0:0:
135,121,43607,1,8,0:0:0:0:
222,39,43755,6,0,P|342:39|362:67,1,160,2|0,0:3|0:0,0:0:0:0:
452,192,44201,2,0,L|460:272,1,80,8|0,0:0|0:0,0:0:0:0:
312,208,44498,2,0,L|304:128,1,80,2|2,0:0|0:0,0:0:0:0:
488,116,44795,1,8,0:0:0:0:
216,208,44943,1,8,0:0:0:0:
376,28,45092,6,0,L|388:128,1,80,0|2,0:0|0:0,0:0:0:0:
384,268,45389,1,2,0:3:0:0:
248,128,45537,1,0,0:0:0:0:
488,116,45686,2,0,L|496:200,1,80,2|2,0:0|0:0,0:0:0:0:
296,316,45983,2,0,L|288:232,1,80,8|0,0:0|0:0,0:0:0:0:
376,28,46280,6,0,P|420:24|460:32,2,80,4|0|8,0:0|0:0|0:0,0:0:0:0:
248,128,46726,1,0,0:0:0:0:
396,144,46874,2,0,P|396:188|404:228,1,80,2|2,0:0|0:0,0:0:0:0:
296,316,47171,1,8,0:0:0:0:
172,168,47320,6,0,P|248:140|320:176,1,160,2|0,0:3|0:0,0:0:0:0:
264,324,47765,2,0,P|256:284|260:240,1,80,8|0,0:0|0:0,0:0:0:0:
396,144,48062,2,0,P|404:184|400:228,1,80,2|2,0:0|0:0,0:0:0:0:
124,360,48359,2,0,P|130:319|148:279,1,80,8|0,0:0|0:0,0:0:0:0:
396,144,48656,6,0,L|474:149,2,80,2|0|8,0:3|0:0|0:0,0:0:0:0:
300,216,49102,1,0,0:0:0:0:
224,124,49250,2,0,P|212:88|224:40,1,80,2|2,0:0|0:0,0:0:0:0:
336,16,49547,1,8,0:0:0:0:
216,252,49696,6,0,P|272:308|372:272,1,160,2|0,0:3|0:0,0:0:0:0:
416,200,50141,1,0,3:0:0:0:
420,192,50216,1,0,3:0:0:0:
424,184,50290,1,0,3:0:0:0:
428,176,50364,1,0,3:0:0:0:
432,168,50438,2,0,L|444:88,1,80,2|2,0:0|0:0,0:0:0:0:
292,36,50735,2,0,L|304:116,1,80,8|0,0:0|0:0,0:0:0:0:
396,288,51032,6,0,P|432:276|472:288,2,80,4|0|8,0:0|0:0|0:0,0:0:0:0:
244,340,51478,2,0,P|224:264|252:172,1,160,0|2,0:0|0:0,0:0:0:0:
300,80,51924,1,2,0:3:0:0:
392,156,52072,1,8,0:0:0:0:
140,260,52221,6,0,L|132:176,1,80,2|2,0:3|0:0,0:0:0:0:
300,80,52518,2,0,L|307:159,1,80,8|0,0:0|0:0,0:0:0:0:
244,340,52815,2,0,B|200:356|156:336,2,80,2|2|8,0:0|0:0|0:0,0:0:0:0:
307,159,53260,6,0,P|384:136|464:192,1,160,2|0,0:3|0:0,0:0:0:0:
224,264,53706,2,0,P|224:216|232:176,1,80,8|0,0:0|0:0,0:0:0:0:
376,256,54003,2,0,P|376:304|368:344,1,80,2|2,0:0|0:0,0:0:0:0:
212,360,54300,1,2,3:0:0:0:
112,236,54448,1,8,0:0:0:0:
308,160,54597,6,0,L|312:248,1,80,2|2,0:0|0:0,0:0:0:0:
128,160,54894,2,0,L|124:72,1,80,2|0,0:3|0:0,0:0:0:0:
352,32,55191,2,0,P|392:24|436:36,2,80,2|2|8,0:0|0:0|0:0,0:0:0:0:
232,136,55636,1,0,0:0:0:0:
416,316,55785,6,0,P|436:256|412:176,1,128,4|8,0:0|0:0,0:0:0:0:
386,105,56231,1,4,0:0:0:0:
386,105,56528,5,2,0:0:0:0:
308,160,56676,1,8,0:0:0:0:
304,64,56825,1,2,0:0:0:0:
386,105,56973,2,0,P|392:160|384:168,1,64,2|8,0:0|0:0,0:0:0:0:
252,336,57419,5,0,0:0:0:0:
236,240,57567,2,0,L|224:160,1,64,12|0,0:0|0:0,0:0:0:0:
88,96,57864,2,0,L|76:176,1,64,8|0,0:0|0:0,0:0:0:0:
44,316,58161,1,0,0:0:0:0:
50,321,58235,1,0,0:0:0:0:
57,325,58309,1,0,0:0:0:0:
64,328,58383,1,0,0:0:0:0:
72,329,58458,6,0,B|112:349|148:329,1,80,0|0,0:0|0:0,0:0:0:0:
236,240,58755,2,0,B|196:220|160:240,1,80,8|0,0:0|0:0,0:0:0:0:
40,236,59052,1,8,0:0:0:0:
148,328,59201,1,0,0:0:0:0:
312,172,59349,6,0,L|320:84,1,80,8|0,0:0|0:0,0:0:0:0:
132,136,59646,2,0,L|140:224,1,80,8|0,0:0|0:0,0:0:0:0:
268,312,59943,2,0,P|328:316|348:304,1,80,8|0,0:0|0:0,0:0:0:0:
424,168,60240,1,0,0:0:0:0:
240,112,60389,1,0,0:0:0:0:
432,280,60537,6,0,P|496:216|488:144,1,160,4|0,0:0|0:0,0:0:0:0:
384,36,60983,1,0,0:0:0:0:
308,176,61131,1,0,0:0:0:0:
404,104,61280,1,0,0:0:0:0:
220,88,61429,1,0,0:0:0:0:
352,232,61577,1,0,0:0:0:0:
300,36,61726,5,0,0:0:0:0:
280,32,61800,1,0,0:0:0:0:
260,28,61874,1,0,0:0:0:0:
240,28,61948,1,0,0:0:0:0:
220,32,62023,2,0,L|176:52,1,40
152,164,62171,2,0,L|196:144,1,40
76,84,62320,2,0,L|68:128,1,40
240,244,62468,2,0,L|232:200,1,40
68,284,62617,2,0,L|76:328,1,40
224,380,62765,2,0,L|236:340,1,40
320,176,62914,5,4,0:3:0:0:
320,176,64547,5,0,0:0:0:0:
320,176,64622,1,0,0:0:0:0:
320,176,64696,2,0,P|300:260|236:224,1,180.000006866455,4|0,0:0|0:0,0:0:0:0:
88,108,65290,6,0,P|80:152|92:216,1,95.9999970703126,4|0,0:0|0:0,0:0:0:0:
176,316,65587,1,8,0:0:0:0:
236,136,65735,2,0,P|324:80|396:120,1,191.999994140625,2|2,0:0|0:0,0:0:0:0:
268,344,66181,2,0,P|256:298|267:252,1,95.9999970703126,8|0,0:0|0:0,0:0:0:0:
396,184,66478,5,2,0:0:0:0:
492,292,66627,1,8,0:0:0:0:
268,344,66775,1,0,0:0:0:0:
484,200,66924,1,2,0:0:0:0:
363,336,67072,2,0,L|268:344,1,95.9999970703126,8|2,0:0|0:0,0:0:0:0:
140,124,67369,2,0,L|236:136,1,95.9999970703126,8|0,0:0|0:0,0:0:0:0:
68,308,67666,6,0,P|56:264|68:212,1,95.9999970703126,4|0,0:0|0:0,0:0:0:0:
80,72,67963,1,8,0:0:0:0:
216,208,68112,2,0,P|252:120|200:40,1,191.999994140625,2|2,0:0|0:0,0:0:0:0:
144,284,68557,6,0,P|192:300|236:288,1,95.9999970703126,8|0,0:0|0:0,0:0:0:0:
376,256,68854,1,2,0:0:0:0:
308,108,69003,1,8,0:0:0:0:
144,208,69151,1,0,0:0:0:0:
312,352,69300,1,2,0:0:0:0:
424,156,69448,2,0,L|428:56,1,95.9999970703126,8|2,0:0|0:0,0:0:0:0:
256,144,69745,2,0,L|260:244,1,95.9999970703126,8|0,0:0|0:0,0:0:0:0:
424,340,70042,5,0,0:0:0:0:
444,327,70116,1,0,0:0:0:0:
460,309,70190,1,0,0:0:0:0:
471,288,70264,1,0,0:0:0:0:
477,265,70339,1,0,0:0:0:0:
478,241,70413,1,0,0:0:0:0:
473,217,70487,1,0,0:0:0:0:
463,195,70561,1,0,0:0:0:0:
449,177,70636,1,0,0:0:0:0:
429,150,70710,1,0,0:0:0:0:
398,137,70784,1,0,0:0:0:0:
365,134,70858,1,0,0:0:0:0:
332,141,70933,1,0,0:0:0:0:
301,155,71007,1,0,0:0:0:0:
276,177,71081,1,0,0:0:0:0:
253,201,71155,1,0,0:0:0:0:
223,216,71231,5,0,0:0:0:0:
176,213,71305,1,0,0:0:0:0:
135,188,71379,1,0,0:0:0:0:
112,147,71453,1,0,0:0:0:0:
110,99,71528,1,0,0:0:0:0:
131,57,71602,1,0,0:0:0:0:
170,29,71676,1,0,0:0:0:0:
217,23,71750,1,0,0:0:0:0:
262,39,71825,1,0,0:0:0:0:
301,81,71899,1,0,0:0:0:0:
327,133,71973,1,0,0:0:0:0:
336,189,72047,1,0,0:0:0:0:
329,246,72122,1,0,0:0:0:0:
305,298,72196,1,0,0:0:0:0:
267,342,72270,1,0,0:0:0:0:
216,364,72344,1,0,0:0:0:0:
160,360,72419,6,0,L|148:300,1,47.9999985351563
240,204,72567,2,0,L|228:264,1,47.9999985351563
68,288,72716,2,0,L|56:228,1,47.9999985351563
164,120,72864,2,0,L|176:180,1,47.9999985351563
32,124,73013,2,0,L|52:72,1,47.9999985351563
208,12,73161,2,0,L|228:64,1,47.9999985351563
284,184,73310,5,0,0:0:0:0:
306,226,73384,1,0,0:0:0:0:
328,269,73458,1,0,0:0:0:0:
350,311,73532,1,0,0:0:0:0:
372,354,73607,6,0,P|464:372|508:276,1,191.999994140625,4|0,0:3|0:0,0:0:0:0:
436,128,74052,1,0,0:0:0:0:
268,36,74201,2,0,P|256:88|276:136,1,95.9999970703126,0|8,0:0|0:3,0:0:0:0:
436,296,74498,2,0,P|448:244|428:196,1,95.9999970703126,0|0,0:0|0:0,0:0:0:0:
164,104,74795,6,0,L|168:204,1,95.9999970703126,4|0,0:0|0:0,0:0:0:0:
312,204,75092,1,8,0:0:0:0:
80,80,75240,2,0,B|80:120|80:120|60:148|60:148|76:188|76:188|60:216|68:272,1,191.999994140625,2|2,0:0|0:0,0:0:0:0:
160,352,75686,2,0,P|208:364|260:344,1,95.9999970703126,8|0,0:0|0:0,0:0:0:0:
364,260,75983,5,2,0:0:0:0:
232,144,76132,1,2,0:0:0:0:
208,284,76280,1,8,0:0:0:0:
400,156,76429,1,0,0:0:0:0:
168,96,76577,2,0,L|160:192,1,95.9999970703126,2|0,0:0|0:0,0:0:0:0:
352,104,76874,2,0,L|344:8,1,95.9999970703126,8|0,0:0|0:0,0:0:0:0:
76,228,77171,6,0,L|84:324,1,95.9999970703126,2|2,0:0|0:0,0:0:0:0:
220,372,77468,1,8,0:0:0:0:
244,176,77617,2,0,P|172:120|60:164,1,191.999994140625,2|2,0:0|0:0,0:0:0:0:
160,316,78062,2,0,P|180:260|180:224,1,95.9999970703126,8|0,0:0|0:0,0:0:0:0:
32,56,78359,6,0,P|12:112|12:148,1,95.9999970703126,2|2,0:0|0:0,0:0:0:0:
80,276,78656,1,8,0:0:0:0:
188,116,78805,1,0,0:0:0:0:
24,220,78953,1,2,0:0:0:0:
208,276,79102,1,0,0:0:0:0:
264,124,79250,1,8,0:0:0:0:
96,152,79399,1,0,0:0:0:0:
148,344,79547,6,0,L|248:352,1,95.9999970703126,6|2,0:0|0:0,0:0:0:0:
376,212,79844,2,0,L|276:220,1,95.9999970703126,8|0,0:0|0:0,0:0:0:0:
280,219,80067,1,0,0:0:0:0:
280,219,80141,1,8,0:0:0:0:
164,228,80290,1,8,0:3:0:0:
116,124,80438,1,8,0:3:0:0:
200,44,80587,1,8,0:3:0:0:
312,68,80735,6,0,P|324:132|300:160,1,95.9999970703126,4|0,0:0|0:0,0:0:0:0:
104,312,81032,2,0,P|92:248|116:220,1,95.9999970703126,8|0,0:0|0:0,0:0:0:0:
156,88,81330,1,8,0:0:0:0:
344,116,81478,1,0,0:0:0:0:
228,204,81627,1,8,0:0:0:0:
312,32,81775,1,0,0:0:0:0:
452,212,81924,6,0,P|452:268|432:312,1,95.9999970703126,4|2,0:0|0:0,0:0:0:0:
260,380,82221,1,2,0:0:0:0:
108,264,82369,1,8,0:0:0:0:
344,116,82518,2,0,P|356:160|352:216,1,95.9999970703126,2|2,0:0|0:0,0:0:0:0:
188,308,82815,1,8,0:0:0:0:
60,168,82963,1,0,0:0:0:0:
344,116,83112,1,8,0:0:0:0:
344,116,83706,6,0,L|380:112,6,20,0|0|0|0|0|0|0,0:0|0:0|0:0|0:0|0:0|0:0|0:0,0:0:0:0:
284,172,84003,2,0,L|248:176,6,20,0|0|0|0|0|0|0,0:0|0:0|0:0|0:0|0:0|0:0|0:0,0:0:0:0:
360,200,84300,6,0,P|364:280|300:332,1,160,6|8,0:0|0:0,0:0:0:0:
196,288,84745,1,4,0:0:0:0:
256,80,84894,2,0,L|352:72,1,80,0|8,0:0|0:3,0:0:0:0:
264,216,85191,2,0,L|168:208,1,80,8|8,0:3|0:3,0:0:0:0:
108,68,85488,5,2,0:0:0:0:
248,148,85636,1,2,0:0:0:0:
56,204,85785,1,8,0:0:0:0:
196,44,85933,2,0,P|272:24|348:52,2,160,2|2|2,3:0|3:0|3:0,0:0:0:0:
56,204,86676,5,6,0:0:0:0:
152,312,86825,1,8,0:0:0:0:
248,148,86973,1,8,0:0:0:0:
56,296,87122,1,2,0:0:0:0:
288,352,87270,1,0,0:0:0:0:
288,352,87344,1,0,0:0:0:0:
288,352,87419,1,8,0:3:0:0:
288,352,87493,1,0,0:0:0:0:
288,352,87567,2,0,L|408:356,1,120.000004577637,4|2,0:0|0:3,0:0:0:0:
