osu file format v13

[General]
AudioFilename: fractal.mp3
AudioLeadIn: 1500
PreviewTime: 80432
Countdown: 0
SampleSet: Soft
StackLeniency: 0.7
Mode: 0
LetterboxInBreaks: 0
WidescreenStoryboard: 0

[Editor]
DistanceSpacing: 1
BeatDivisor: 4
GridSize: 4
TimelineZoom: 1

[Metadata]
Title:Syumatsu no Fractale (Game Size)
TitleUnicode:終末のフラクタル (ゲームSize)
Artist:Faylan
ArtistUnicode:飛蘭
Creator:Tari
Version:Normal
Source:グリザイアの果実 -LE FRUIT DE LA GRISAIA-
Tags:kajitsu meikyuu rakuen visual novel game frontwing eroge -asagi shuumatsu fractal opening
BeatmapID:451417
BeatmapSetID:189483

[Difficulty]
HPDrainRate:3
CircleSize:3.3
OverallDifficulty:4.5
ApproachRate:5
SliderMultiplier:1.25
SliderTickRate:1

[Events]
//Background and Video events
Video,-400,"video.avi"
0,0,"BG.jpg",0,0
//Break Periods
//Storyboard Layer 0 (Background)
//Storyboard Layer 1 (Fail)
//Storyboard Layer 2 (Pass)
//Storyboard Layer 3 (Foreground)
//Storyboard Sound Samples
//Background Colour Transformations
3,100,163,162,255

[TimingPoints]
81,350.877192982456,4,2,1,55,1,0
7098,-100,4,2,0,40,0,0
13238,-100,4,2,0,50,0,0
17800,-100,4,2,0,55,0,0
23063,-100,4,2,1,65,0,0
23765,-100,4,2,1,70,0,0
29379,-100,4,2,1,68,0,0
32361,-100,4,2,1,65,0,0
34291,-100,4,2,0,70,0,0
34993,-100,4,2,1,40,0,0
37449,-100,4,2,0,40,0,0
37537,-100,4,2,1,40,0,0
40256,-100,4,2,0,40,0,0
40344,-100,4,2,1,40,0,0
42888,-100,4,2,0,40,0,0
42975,-100,4,2,1,40,0,0
46221,-100,4,2,3,70,0,0
51835,-100,4,2,3,65,0,0
56045,-100,4,2,3,60,0,0
61835,-100,4,2,1,55,0,0
61835,-100,4,2,1,60,0,0
68852,-100,4,2,0,70,0,0
70080,-100,4,2,1,70,0,0
72888,-100,4,2,0,45,0,0
73414,-100,4,2,0,65,0,0
74203,-100,4,2,0,45,0,0
74729,-100,4,2,0,70,0,0
75695,-100,4,2,1,70,0,0
77098,-100,4,2,3,70,0,0
79905,-100,4,2,1,70,0,0
81309,-100,4,2,3,80,0,1
91484,-100,4,2,0,60,0,0
92537,-100,4,2,3,80,0,1
101133,-100,4,2,1,65,0,0
107098,-100,4,2,1,45,0,0
107186,-100,4,2,1,60,0,0
112186,-100,4,2,0,50,0,0
113589,-100,4,2,0,30,0,0

[Colours]
Combo1 : 64,128,128
Combo2 : 0,132,196
Combo3 : 249,0,124
Combo4 : 242,24,57
Combo5 : 255,192,0

[HitObjects]
152,80,1310,6,0,L|164:232,1,125,4|0,1:0|0:0,0:0:0:0:
168,268,1836,2,0,P|232:248|320:272,1,125,2|2,0:0|0:0,0:0:0:0:
340,296,2362,1,2,0:0:0:0:
452,348,2713,6,0,P|460:280|428:200,1,125,4|0,1:0|0:0,0:0:0:0:
324,192,3415,2,0,P|308:131|316:70,1,125,0|2,0:0|0:0,0:0:0:0:
192,48,4117,1,0,0:0:0:0:
192,48,4292,6,0,L|56:56,1,125,4|2,1:0|0:0,0:0:0:0:
140,156,4994,2,0,L|228:148,2,62.5,0|0|2,0:0|0:0|0:0,0:0:0:0:
76,164,5520,6,0,P|108:232|96:296,1,125,4|0,1:0|0:0,0:0:0:0:
56,320,6046,1,2,0:0:0:0:
180,340,6397,1,2,0:0:0:0:
180,340,6573,2,0,L|308:328,1,125,0|0,1:0|0:0,0:0:0:0:
368,336,7099,22,0,P|336:276|344:204,1,125,4|0,1:0|1:0,0:0:0:0:
428,136,7801,1,2,1:2:0:0:
428,136,7976,1,0,1:0:0:0:
340,44,8327,1,4,1:0:0:0:
256,136,8678,1,2,1:2:0:0:
172,44,9029,1,2,1:2:0:0:
84,136,9380,1,0,0:0:0:0:
172,224,9730,5,0,0:0:0:0:
256,192,9817,12,4,12712,0:0:0:0:
256,200,13941,5,2,0:0:0:0:
256,200,14818,5,2,0:0:0:0:
188,96,15169,1,2,0:0:0:0:
312,92,15520,2,0,P|364:100|416:152,1,125,4|0,0:1|0:0,0:0:0:0:
360,259,16222,2,0,P|253:316|144:264,1,250,2|0,0:0|0:0,0:0:0:0:
256,200,17273,1,0,0:0:0:0:
112,84,17801,22,0,P|172:44|232:40,1,125,4|0,0:0|0:0,0:0:0:0:
288,38,18327,2,0,P|349:47|400:84,1,125,4|0,0:1|0:0,0:0:0:0:
464,192,19029,2,0,L|476:268,2,62.5,2|0|2,0:0|0:0|0:0,0:0:0:0:
400,196,19555,6,0,P|349:232|288:241,1,125,4|0,0:0|0:0,0:0:0:0:
223,241,20081,2,0,P|161:232|111:195,1,125,2|0,0:0|0:0,0:0:0:0:
92,136,20608,1,4,0:1:0:0:
256,44,21134,6,0,P|312:96|388:108,1,125,4|2,0:0|0:0,0:0:0:0:
412,140,21660,1,2,0:0:0:0:
456,184,21835,2,0,P|400:236|324:248,1,125,4|2,0:0|0:0,0:0:0:0:
316,200,22362,5,4,0:0:0:0:
192,204,22713,2,0,L|172:116,2,62.5,0|2|2,0:0|0:0|0:0,0:0:0:0:
256,312,23415,1,2,0:0:0:0:
132,292,23766,22,0,P|52:276|16:224,1,125,4|0,0:0|0:0,0:0:0:0:
48,188,24292,1,8,0:0:0:0:
132,92,24643,2,0,L|204:84,1,62.5,2|2,0:0|0:0,0:0:0:0:
317,85,25169,6,0,L|452:96,1,125,4|2,0:0|0:0,0:0:0:0:
504,108,25695,2,0,P|456:168|452:228,1,125,8|2,0:0|0:0,0:0:0:0:
476,272,26222,1,2,0:0:0:0:
400,372,26573,6,0,P|364:332|356:228,1,125,4|0,0:0|0:0,0:0:0:0:
364,204,27099,1,8,0:0:0:0:
256,144,27450,1,2,0:0:0:0:
256,144,27625,1,2,0:0:0:0:
148,204,27976,6,0,P|96:200|48:268,1,125,4|0,0:0|0:0,0:0:0:0:
68,312,28502,2,0,L|20:352,2,62.5,8|0|2,0:0|0:0|0:0,0:0:0:0:
128,292,29029,1,2,0:0:0:0:
252,252,29380,22,0,P|304:300|376:312,1,125,4|2,0:0|0:0,0:0:0:0:
368,188,30081,2,0,P|416:136|428:64,1,125,4|2,0:0|0:0,0:0:0:0:
304,92,30783,2,0,P|252:44|180:32,1,125,4|0,0:0|0:0,0:0:0:0:
140,32,31309,1,8,0:0:0:0:
200,144,31660,1,2,0:0:0:0:
200,144,31836,2,0,P|152:195|140:268,1,125,4|0,0:1|0:0,0:0:0:0:
148,308,32362,5,4,0:0:0:0:
256,248,32713,1,0,0:0:0:0:
256,248,32888,2,0,L|256:344,2,62.5,2|8|0,0:0|0:0|0:0,0:0:0:0:
344,164,33590,1,2,0:0:0:0:
344,164,33766,2,0,P|352:80|336:28,1,125,0|0,0:0|0:0,0:0:0:0:
280,32,34292,1,4,0:1:0:0:
184,112,34643,1,4,0:1:0:0:
92,196,34994,6,0,P|64:276|112:372,1,187.5,4|0,0:0|0:0,0:0:0:0:
184,276,35871,2,0,L|316:260,1,125,8|8,0:0|0:0,0:0:0:0:
424,308,36573,2,0,L|403:176,1,125,8|8,0:0|0:0,0:0:0:0:
444,68,37274,2,0,L|312:84,1,125,8|8,0:0|0:0,0:0:0:0:
256,88,37801,1,0,0:0:0:0:
192,83,37976,6,0,L|68:68,2,125,4|8|8,1:1|0:0|0:0,0:0:0:0:
256,192,39028,2,0,B|264:228|252:260|240:292|252:328,1,125,8|8,0:0|0:0,0:0:0:0:
376,344,39731,2,0,P|448:356|520:316,1,125,8|0,0:0|1:0,0:0:0:0:
428,232,40431,1,2,1:2:0:0:
504,132,40783,21,8,0:0:0:0:
400,68,41134,2,0,P|337:69|277:54,1,125,8|8,0:0|0:0,0:0:0:0:
152,44,41836,2,0,P|180:120|172:176,1,125,8|8,0:0|0:0,0:0:0:0:
72,228,42537,2,0,P|128:252|168:304,1,125,0|0,1:0|1:0,0:0:0:0:
272,368,43239,1,8,0:0:0:0:
356,280,43590,6,0,P|416:264|456:192,1,125,4|8,1:0|0:0,0:0:0:0:
408,96,44292,2,0,P|348:112|308:184,1,125,8|0,0:0|0:0,0:0:0:0:
256,192,44818,5,4,0:0:0:0:
148,128,45169,2,0,P|116:136|56:160,2,62.5,0|0|0,0:0|0:0|0:0,0:0:0:0:
148,252,45871,1,4,1:0:0:0:
192,368,46222,6,0,P|256:376|320:368,1,125,4|0,0:0|0:0,0:0:0:0:
372,340,46748,1,8,0:0:0:0:
448,240,47099,2,0,L|452:160,1,62.5,2|0,0:0|0:0,0:0:0:0:
432,52,47625,22,0,P|368:80|340:136,1,125,0|2,0:0|0:0,0:0:0:0:
216,120,48327,2,0,P|226:189|273:230,1,125,0|2,0:0|0:0,0:0:0:0:
320,252,48853,1,8,0:0:0:0:
232,332,49204,6,0,P|172:372|100:372,1,125,4|8,0:0|0:0,0:0:0:0:
132,252,49906,1,2,0:0:0:0:
132,252,50081,1,2,0:0:0:0:
52,156,50432,2,0,P|112:120|180:120,1,125,0|2,0:0|0:0,0:0:0:0:
228,128,50959,1,8,0:0:0:0:
348,88,51309,2,0,P|348:56|340:26,2,62.5,2|2|2,0:0|0:0|0:0,0:0:0:0:
320,144,51836,6,0,P|300:204|308:276,1,125,4|2,0:0|0:0,0:0:0:0:
340,316,52362,2,0,L|480:328,1,125,8|4,0:0|0:0,0:0:0:0:
464,200,53064,1,8,0:0:0:0:
464,200,53239,6,0,P|464:120|444:76,1,125,4|2,0:0|0:0,0:0:0:0:
416,24,53766,1,8,0:0:0:0:
308,84,54117,2,0,P|256:112|200:84,1,125,2|8,0:0|0:0,0:0:0:0:
160,36,54643,21,4,0:0:0:0:
84,136,54994,2,0,P|68:192|80:260,1,125,2|0,0:0|0:0,0:0:0:0:
108,312,55520,2,0,P|184:316|240:268,1,125,4|8,0:0|0:0,0:0:0:0:
252,236,56046,6,0,P|316:192|436:212,1,187.5,4|2,0:0|0:0,0:0:0:0:
500,300,56924,1,8,0:0:0:0:
388,352,57274,1,0,0:0:0:0:
388,352,57450,2,0,L|252:332,1,125,2|8,0:0|0:0,0:0:0:0:
196,228,58151,2,0,L|136:260,2,62.5,2|8|0,0:0|0:0|0:0,0:0:0:0:
324,84,59029,6,0,P|380:124|440:128,1,125,4|2,0:0|0:0,0:0:0:0:
434,255,59731,2,0,P|373:262|324:300,1,125,8|0,0:0|0:0,0:0:0:0:
272,336,60257,6,0,P|200:360|56:320,1,187.5,8|0,0:0|0:0,0:0:0:0:
40,228,61134,2,0,L|56:152,1,62.5,8|2,0:0|0:0,0:0:0:0:
212,68,61836,22,0,L|344:116,1,125,4|0,0:0|0:0,0:0:0:0:
244,204,62538,2,0,L|376:252,1,125,8|0,0:0|0:0,0:0:0:0:
416,276,63064,1,2,0:0:0:0:
240,340,63590,5,2,0:0:0:0:
128,284,63941,2,0,L|112:184,1,62.5,8|2,0:0|0:0,0:0:0:0:
228,68,64643,6,0,L|368:32,1,125,4|0,0:0|0:0,0:0:0:0:
312,156,65345,2,0,L|452:120,1,125,8|0,0:0|0:0,0:0:0:0:
492,100,65871,1,2,0:0:0:0:
444,216,66222,1,8,0:0:0:0:
388,328,66573,2,0,L|456:348,2,62.5,0|8|2,0:0|0:0|0:0,0:0:0:0:
236,220,67450,6,0,P|144:228|80:276,1,125,2|0,0:0|0:0,0:0:0:0:
140,364,68152,2,0,P|232:356|296:308,1,125,8|0,0:0|0:0,0:0:0:0:
308,300,68678,2,0,L|344:160,1,125,2|0,0:0|0:0,0:0:0:0:
460,204,69380,2,0,L|424:64,1,125,4|0,0:0|0:0,0:0:0:0:
304,76,70081,22,0,P|220:108|104:88,1,187.5,4|8,0:0|0:0,0:0:0:0:
36,188,70959,2,0,L|0:264,2,62.5,8|0|8,0:0|0:0|0:0,0:0:0:0:
100,184,71485,2,0,B|144:240|144:240|200:260,1,125,0|0,0:0|0:0,0:0:0:0:
317,258,72187,2,0,B|368:240|368:240|412:184,1,125,0|2,0:0|0:0,0:0:0:0:
344,80,72888,6,0,P|212:64|112:104,1,187.5,0|4,0:0|0:0,0:0:0:0:
60,152,73766,2,0,L|60:236,1,62.5,0|0,0:0|0:0,0:0:0:0:
161,306,74291,2,0,P|252:322|344:304,1,187.5,0|4,0:0|0:0,0:0:0:0:
452,214,75169,2,0,L|452:152,2,62.5,0|0|0,0:0|0:0|0:0,0:0:0:0:
432,272,75695,5,8,0:0:0:0:
336,192,76046,1,8,0:0:0:0:
256,96,76397,1,8,0:0:0:0:
176,192,76748,1,8,0:0:0:0:
88,280,77099,6,0,B|60:196|60:196|92:60,2,187.5,4|0|0,0:0|0:0|0:0,0:0:0:0:
196,344,78502,2,0,L|328:344,1,125,4|0,0:0|0:0,0:0:0:0:
408,256,79204,2,0,P|424:188|408:116,1,125,0|8,0:0|0:0,0:0:0:0:
312,64,79906,22,0,L|180:64,1,125,4|0,0:0|0:0,0:0:0:0:
124,64,80432,1,4,0:0:0:0:
12,116,80783,1,4,0:0:0:0:
12,116,80959,1,4,0:0:0:0:
104,200,81309,6,0,P|88:256|116:336,1,125,4|2,0:0|0:0,0:0:0:0:
156,356,81836,1,8,0:0:0:0:
244,268,82187,2,0,L|312:276,2,62.5,2|0|8,0:0|0:0|0:0,0:0:0:0:
232,208,82713,6,0,L|224:76,1,125,4|2,0:0|0:0,0:0:0:0:
328,12,83415,2,0,L|336:144,1,125,4|2,0:0|0:0,0:0:0:0:
340,200,83941,1,8,0:0:0:0:
464,224,84292,6,0,P|436:284|364:324,1,125,4|8,0:0|0:0,0:0:0:0:
332,344,84818,1,0,0:0:0:0:
268,344,84994,2,0,P|224:300|144:296,1,125,2|8,0:0|0:0,0:0:0:0:
104,308,85520,21,4,0:0:0:0:
48,192,85871,1,2,0:0:0:0:
48,192,86046,1,8,0:0:0:0:
92,76,86397,2,0,B|152:88|152:88|200:32,1,125,2|8,0:0|0:0,0:0:0:0:
304,100,87099,6,0,B|270:154|270:154|300:207,1,125,4|8,0:0|0:0,0:0:0:0:
360,220,87625,2,0,P|376:288|340:352,1,125,0|2,0:0|0:0,0:0:0:0:
228,340,88327,6,0,P|164:292|156:244,1,125,4|8,0:0|0:0,0:0:0:0:
176,192,88853,1,0,0:0:0:0:
228,160,89029,2,0,P|292:112|300:64,1,125,4|2,0:0|0:0,0:0:0:0:
256,28,89555,1,8,0:0:0:0:
132,44,89906,6,0,P|100:32|64:28,2,62.5,4|0|0,0:0|0:0|0:0,0:0:0:0:
132,108,90432,2,0,P|92:160|96:224,1,125,4|0,0:0|0:0,0:0:0:0:
128,268,90959,1,0,0:0:0:0:
184,296,91134,22,0,L|332:296,1,125,4|0,0:0|0:0,0:0:0:0:
372,296,91660,1,0,0:0:0:0:
492,260,92011,1,0,1:0:0:0:
492,260,92187,1,0,0:0:0:0:
432,152,92538,6,0,P|416:80|368:32,1,125,4|2,0:0|0:0,0:0:0:0:
320,32,93064,1,8,0:0:0:0:
280,152,93415,2,0,L|216:144,2,62.5,2|0|8,0:0|0:0|0:0,0:0:0:0:
336,180,93941,6,0,L|432:288,1,125,4|2,0:0|0:0,0:0:0:0:
352,380,94643,2,0,L|256:272,1,125,4|2,0:0|0:0,0:0:0:0:
228,236,95169,1,8,0:0:0:0:
106,199,95520,6,0,P|138:147|192:116,1,125,4|8,0:0|0:0,0:0:0:0:
256,108,96046,1,0,0:0:0:0:
320,116,96222,2,0,P|373:147|405:199,1,125,2|8,0:0|0:0,0:0:0:0:
404,264,96748,22,0,B|336:280|308:352|308:352|252:344,1,187.5,4|8,0:0|0:0,0:0:0:0:
140,304,97625,1,0,0:0:0:0:
140,304,97801,2,0,B|256:208,1,125,0|8,0:0|0:0,0:0:0:0:
280,180,98327,6,0,P|232:100|172:92,1,125,4|8,0:0|0:0,0:0:0:0:
84,72,99029,1,4,0:0:0:0:
84,72,99204,1,2,0:0:0:0:
36,188,99555,6,0,L|100:296,1,125,4|2,0:0|0:0,0:0:0:0:
140,344,100081,2,0,P|192:320|228:248,1,125,8|4,0:0|1:1,0:0:0:0:
256,208,100608,1,2,0:0:0:0:
344,44,101134,6,0,L|492:32,2,125,4|0|2,0:0|0:0|0:0,0:0:0:0:
220,48,102187,1,2,0:0:0:0:
104,96,102538,1,8,0:0:0:0:
24,192,102888,2,0,L|60:328,1,125,2|8,0:0|0:0,0:0:0:0:
80,372,103415,1,2,0:0:0:0:
224,252,103941,22,0,P|288:204|368:208,1,125,4|2,0:0|0:0,0:0:0:0:
440,256,104643,2,0,P|452:192|420:112,1,125,8|2,0:0|0:0,0:0:0:0:
392,92,105169,1,8,0:0:0:0:
272,60,105520,2,0,L|192:84,1,62.5,8|0,0:0|0:0,0:0:0:0:
120,164,106046,2,0,L|88:224,1,62.5,0|8,0:0|0:0,0:0:0:0:
252,316,106748,6,0,L|384:340,1,125,4|8,0:0|0:0,0:0:0:0:
424,300,107274,1,0,0:0:0:0:
400,244,107450,2,0,L|277:221,1,125,4|0,0:0|0:0,0:0:0:0:
232,264,107976,5,4,0:0:0:0:
56,196,108502,1,0,0:0:0:0:
176,156,108853,1,8,0:0:0:0:
176,156,109029,1,0,0:0:0:0:
320,156,109379,5,4,0:0:0:0:
256,192,109466,12,0,113765,0:0:0:0:
