osu file format v9

[General]
AudioFilename: Shuumatsu no fractal.mp3
AudioLeadIn: 0
PreviewTime: 80359
Countdown: 1
SampleSet: Normal
StackLeniency: 0.7
Mode: 0
LetterboxInBreaks: 1

[Editor]
DistanceSpacing: 1
BeatDivisor: 4
GridSize: 8

[Metadata]
Title:Shuumatsu no fractal
Artist:Faylan
Creator:taka1235
Version:Normal
Source:
Tags:wring

[Difficulty]
HPDrainRate:2
CircleSize:3
OverallDifficulty:2
ApproachRate:2
SliderMultiplier:1.2
SliderTickRate:1

[Events]
//Background and Video events
Video,0,"Faylan-Shuumatsu no fractal.avi"
0,0,"uho.jpg"
//Break Periods
2,12940,22233
2,62063,71356
//Storyboard Layer 0 (Background)
//Storyboard Layer 1 (Fail)
//Storyboard Layer 2 (Pass)
//Storyboard Layer 3 (Foreground)
//Storyboard Sound Samples
//Background Colour Transformations
3,100,163,162,255

[TimingPoints]
460,350.877192982456,4,1,0,80,1,0
9570,-200,4,1,0,80,0,0
10974,-100,4,1,0,80,0,0
13264,-100,4,2,0,80,0,0
14668,-200,4,1,0,80,0,0
23605,-90.9090909090909,4,1,0,80,0,0
23703,-90.9090909090909,4,1,0,80,0,1
23791,-90.9090909090909,4,1,0,80,0,0
35184,-100,4,1,0,80,0,0
61675,-200,4,1,0,80,0,0
62026,-200,4,2,0,80,0,0
69921,-100,4,1,0,80,0,0
81237,-83.3333333333333,4,1,0,100,0,1
86938,-100,4,1,0,100,0,0
92465,-83.3333333333333,4,1,0,100,0,1
97465,-100,4,1,0,100,0,1
100974,-200,4,1,0,100,0,0
102728,-200,4,1,0,100,0,0
108342,-100,4,1,0,100,0,0
113956,-133.333333333333,4,1,0,15,0,0

[Colours]
Combo1 : 255,157,157
Combo2 : 119,187,255
Combo3 : 255,255,255
Combo4 : 201,147,255
Combo5 : 255,255,181

[HitObjects]
136,144,1337,2,0,B|120:48|256:-24|392:48|368:168,1,360,4|0
368,232,2740,6,0,B|384:328|248:400|112:328|136:208,1,360,4|0
136,144,4144,5,0
136,144,4319,2,0,B|120:48|256:-24|392:48|368:168,1,360,4|0
368,176,5547,2,0,B|384:272|248:344|112:272|136:152,1,360,4|0
32,64,7126,6,0,B|72:-16|160:-16|184:360|328:360|344:-16|440:-16|496:64,1,600,4|0
488,56,9056,1,0
488,176,9407,1,0
488,304,9758,1,4
256,192,9933,12,0,12740
424,56,23793,6,0,B|72:56,1,329.999990165234,4|0
96,192,25021,1,0
96,192,25196,6,0,B|432:192,1,329.999990165234,4|0
424,328,26424,1,0
424,328,26600,6,0,B|96:328,1,329.999990165234,4|0
88,192,27828,1,0
88,192,28003,6,0,B|416:192,1,329.999990165234,4|0
464,64,29231,1,0
400,64,29407,1,4
200,64,29758,6,0,B|104:64,2,65.9999980330468
128,176,30459,2,0,B|56:176,2,65.9999980330468
256,208,31161,1,0
256,208,31337,2,0,B|256:280|256:280|336:280,1,131.999996066094
368,240,31863,2,0,B|424:240|424:240|424:320,1,131.999996066094
360,344,32389,6,0,B|320:344|320:344|288:320|288:320|248:344|248:344|208:296|208:296|176:344|176:344|112:264|112:264|56:352,2,428.999987214804
464,256,35021,1,4
424,64,35547,6,0,B|392:40|392:40|352:40|352:40|312:72,1,120
200,160,36249,2,0,B|232:184|232:184|272:184|272:184|312:152,1,120
192,64,36951,2,0,B|160:40|160:40|120:40|120:40|80:72,2,120
144,176,38003,6,0,B|192:256|256:56|320:264|368:168,2,240
184,288,39758,1,0
256,336,40109,1,0
328,288,40459,1,0
392,232,40810,6,0,B|376:176|368:128|368:128|352:112,2,120
256,264,41863,1,0
128,232,42214,2,0,B|144:168|144:128|144:128|160:120,2,120
256,264,43267,1,0
256,136,43617,6,0,B|256:-32|344:224|280:-88|488:56|256:-200|16:72|232:-88|144:184|256:-32|224:88,1,420,4|0
152,256,45196,1,0
152,256,45372,2,0,B|160:272|160:272|168:264|168:264|176:272|176:272|184:264|184:264|192:272|192:272|200:264|200:264|208:272|208:272|216:264|216:264|224:272|224:272|232:264|232:264|240:272|240:272|248:264|248:264|256:272|256:272|264:264|264:264|272:272|272:272|280:264|280:264|288:272|288:272|296:264|296:264|304:272|304:272|312:264|312:264|320:272|320:272|328:264|328:264|336:272|336:272|344:264|344:264|352:272|352:272|360:256,1,300,0|4
432,72,46775,6,0,B|408:128|408:128|376:120|360:80,1,120
296,104,47477,2,0,B|320:48|320:48|352:56|368:96,1,120
296,104,48179,2,0,B|272:160|272:160|240:152|224:112,2,120
208,24,49231,2,0,B|96:24|96:24|32:56|88:136|88:136|24:176|40:320,1,420
160,336,50810,1,0
160,336,50986,2,0,B|272:336|272:336|336:304|280:264|280:264|344:248|344:184,1,300
464,200,52214,6,0,B|456:120|456:120|416:80|344:96,1,180,4|0
272,176,53091,1,0
272,176,53267,2,0,B|272:120|272:120|224:128|232:80|232:80|160:96|152:16|152:16|24:56|16:112,1,420
16,110,54670,1,4
96,200,55021,6,0,B|96:248|96:248|80:296|40:304,2,120
136,144,55898,2,0,B|192:152|248:184|248:184|168:256|304:240|256:312|256:312|360:328,1,360
432,248,57302,2,0,B|424:216|440:184,1,60
472,136,57652,2,0,B|400:72|256:80|336:192|336:192|192:128|288:0,1,480,0|4
256,192,59231,12,4,61863
448,248,72916,6,0,B|392:208|392:208|368:240|352:288|384:328|384:328|216:344|288:192,1,420,4|0
312,152,74319,6,0,B|312:208|240:248|160:208,1,180,0|4
64,64,75196,6,0,B|96:48|96:48|112:64|112:104|80:128|152:80,1,120
184,72,75723,6,0,B|184:56|184:56|200:64|200:64|200:40|200:40|216:56|216:56|216:32|216:32|232:48|232:48|232:40,4,120
336,160,77652,1,0
384,272,78003,1,0
384,272,78178,1,0
264,248,78530,6,0,B|232:280|224:328|96:320|96:320|144:264|136:144|136:144|152:112|176:256|200:160,1,480,0|4
344,120,80459,5,0
344,120,80810,1,0
344,120,80985,1,0
432,40,81337,6,0,B|480:128|448:248|320:272|224:168,1,360.000008583069,4|0
160,264,82565,1,0
160,264,82741,2,0,B|112:176|160:96|264:72|312:112,1,288.000006866455,4|0
464,320,83968,5,0
464,320,84144,2,0,B|440:360|440:360|400:320|400:320|360:360|360:360|320:320,1,216.000005149841,4|0
192,320,85021,1,0
192,320,85196,1,0
192,320,85372,1,0
192,320,85547,2,0,B|152:360|152:360|112:320|112:320|80:360|80:360|40:312,1,216.000005149841,4|0
152,216,86424,5,0
152,216,86600,2,0,B|384:216,1,216.000005149841,0|4
416,104,87477,6,0,B|416:24,1,60,0|0
312,104,88003,2,0,B|312:32,2,60
192,104,88705,2,0,B|192:32,2,60
88,48,89407,1,0
88,48,89582,2,0,B|88:184,1,120
152,264,90284,5,0
152,264,90459,2,0,B|176:256|176:256|200:264|200:264|216:256|216:256|240:264|240:264|264:256|264:256|280:264|280:264|304:256|304:256|320:264|320:264|336:256|336:256|360:264|360:264|384:256,1,240
448,128,91688,5,0
448,128,92039,1,0
448,128,92214,1,0
320,96,92565,6,0,B|304:192|376:248|464:248,1,216.000005149841,4|0
448,128,93442,1,0
400,16,93793,1,0
400,16,93968,2,0,B|288:24|224:104|280:224,1,288.000006866455,4|0
88,328,95196,5,0
88,328,95372,2,0,B|24:288|0:208|64:120,1,216.000005149841,4|0
176,64,96249,1,0
176,64,96600,1,0
176,64,96775,2,0,B|136:104|136:104|240:104|264:168|232:216,1,216.000005149841,4|0
160,272,97652,5,0
160,272,97828,2,0,B|232:256|224:328|224:328|264:248|264:328,1,180,0|4
432,240,98881,2,0,B|464:312,2,60
464,120,99582,2,0,B|440:80|440:80|384:64|368:136|368:136|336:160|328:144,1,180
336,272,100459,1,0
336,272,100635,1,0
168,304,101161,6,0,B|96:344|56:256|56:224|64:280|96:96|104:200|192:144|160:208|128:352|96:216,1,360,4|0
184,128,103968,6,0,B|144:56|232:16|264:16|208:24|392:56|288:64|344:152|280:120|136:88|272:56,1,360,4|0
432,224,106775,6,0,B|472:296|384:336|352:336|408:328|224:296|328:288|272:200|336:232|480:264|344:296,1,360,4|0
256,72,109407,5,4
256,192,109582,12,0,113968
