osu file format v9

[General]
AudioFilename: Shuumatsu no fractal.mp3
AudioLeadIn: 0
PreviewTime: 80359
Countdown: 1
SampleSet: Normal
StackLeniency: 0.7
Mode: 0
LetterboxInBreaks: 1

[Editor]
DistanceSpacing: 0.9
BeatDivisor: 4
GridSize: 8

[Metadata]
Title:Shuumatsu no fractal
Artist:Faylan
Creator:taka1235
Version:Insane
Source:
Tags:wring

[Difficulty]
HPDrainRate:8
CircleSize:5
OverallDifficulty:8
ApproachRate:8
SliderMultiplier:1.8
SliderTickRate:1

[Events]
//Background and Video events
Video,0,"Faylan-Shuumatsu no fractal.avi"
0,0,"uho.jpg"
//Break Periods
//Storyboard Layer 0 (Background)
//Storyboard Layer 1 (Fail)
//Storyboard Layer 2 (Pass)
//Storyboard Layer 3 (Foreground)
//Storyboard Sound Samples
//Background Colour Transformations
3,100,163,162,255

[TimingPoints]
460,350.877192982456,4,1,0,64,1,0
9570,-200,4,1,0,80,0,0
10974,-100,4,1,0,66,0,0
13264,-100,4,2,0,80,0,0
14668,-133.333333333333,4,2,0,80,0,0
15459,-133.333333333333,4,1,0,58,0,0
15986,-133.333333333333,4,2,0,68,0,0
16161,-133.333333333333,4,2,0,68,0,0
21074,-133.333333333333,4,2,0,56,0,0
21424,-133.333333333333,4,2,0,64,0,0
21775,-133.333333333333,4,2,0,68,0,0
23003,-100,4,2,0,68,0,0
23605,-90.9090909090909,4,1,0,80,0,0
23703,-90.9090909090909,4,1,0,80,0,1
23791,-90.9090909090909,4,1,0,80,0,0
35184,-100,4,1,0,80,0,0
61675,-200,4,1,0,80,0,0
62026,-200,4,2,0,80,0,0
69921,-100,4,1,0,80,0,0
81237,-83.3333333333333,4,1,0,100,0,1
86938,-100,4,1,0,100,0,0
92465,-83.3333333333333,4,1,0,100,0,1
97465,-100,4,1,0,100,0,1
100974,-200,4,1,0,100,0,0
102728,-200,4,1,0,100,0,0
108342,-100,4,1,0,100,0,0
113956,-133.333333333333,4,1,0,15,0,0

[Colours]
Combo1 : 255,157,157
Combo2 : 119,187,255
Combo3 : 255,255,255
Combo4 : 201,147,255
Combo5 : 255,255,181

[HitObjects]
376,112,1337,1,4
160,80,2740,5,4
216,312,4144,5,4
216,312,4319,1,0
208,128,5547,5,4
304,152,5723,1,4
400,48,6600,6,0,B|464:120|424:224,1,180
426,216,7038,1,0
426,216,7126,1,0
376,288,7302,5,0
288,312,7477,1,0
208,272,7652,1,0
288,312,7828,1,0
208,360,8003,1,0
120,336,8179,1,0
96,248,8354,6,0,B|40:160|80:64,1,180,4|0
144,16,8881,1,0
144,16,9056,1,0
232,40,9231,1,0
232,40,9407,1,0
320,72,9582,1,0
400,8,9758,6,0,B|480:40|488:160|416:232|296:176,1,315,4|0
280,168,11074,1,0
256,136,11161,1,0
224,112,11249,1,0
184,104,11337,1,0
144,120,11424,1,0
120,152,11512,1,0
120,192,11600,1,0
104,224,11688,1,0
72,248,11775,1,0
32,248,11863,1,0
0,224,11951,1,0
0,184,12038,1,0
0,184,12126,1,0
0,184,12214,2,0,B|8:144,11,22.5,0|0|0|0|0|0|0|0|0|0|0|4
216,56,13442,5,0
288,72,13793,1,2
288,72,13968,1,2
360,96,14319,1,2
360,96,14495,1,2
360,96,14845,6,0,B|328:184,1,67.4999979883433,2|0
416,144,15196,2,0,B|448:56,1,67.4999979883433
384,24,15547,2,0,B|280:88|192:-8,1,202.49999396503
200,64,16249,2,0,B|104:128|176:264,1,202.49999396503
224,272,16951,1,0
24,272,17477,5,0
56,344,17652,1,0
112,280,17827,2,0,B|128:208|16:208|16:112|64:80,1,202.49999396503,0|4
320,40,19055,5,0
264,80,19231,1,0
200,88,19406,1,0
144,56,19582,1,0
40,232,20109,1,0
136,320,20459,1,0
136,320,20635,2,0,B|208:296|272:368,1,134.999995976687
258,354,21161,5,4
456,192,21512,1,4
256,48,21863,1,4
56,192,22214,1,4
120,192,22389,1,4
88,256,22740,5,4
88,128,22916,1,4
16,192,23091,6,0,B|80:256|128:168|216:128|280:200,1,270,4|0
352,112,23793,5,4
352,112,24144,1,0
352,112,24319,1,2
376,200,24495,1,0
464,184,24670,1,2
440,96,24845,1,0
352,112,25021,1,2
376,200,25196,2,0,B|328:248|240:240|200:176,1,197.99999409914,4|0
128,104,25723,2,0,B|88:144|120:208,1,98.9999970495702,2|0
24,112,26074,2,0,B|56:72|32:16,2,98.9999970495702,2|0|2
80,208,26600,5,4
80,208,26951,1,0
80,208,27126,1,2
152,264,27302,1,0
168,176,27477,1,2
104,120,27652,1,0
24,144,27828,1,2
0,232,28003,2,0,B|16:320|72:336|160:280,1,197.99999409914,4|0
232,256,28530,1,2
288,320,28705,1,0
320,232,28881,2,0,B|360:192,2,49.4999985247851,2|0|0
120,328,29407,5,4
168,104,29758,5,0
168,104,29933,1,0
80,128,30109,1,6
360,56,30460,5,0
360,56,30635,1,0
408,136,30810,1,6
304,280,31161,5,4
304,280,31337,2,2,B|192:224|112:328,1,197.99999409914
64,376,31863,2,2,B|128:288|64:176,1,197.99999409914
24,112,32389,5,2
136,16,32740,1,2
216,48,32916,1,0
392,16,33267,5,0
352,96,33442,1,2
480,216,33793,5,2
400,248,33968,2,0,B|376:304|400:360,1,98.9999970495702,0|2
480,312,34319,5,6
256,344,34670,1,6
64,360,35021,1,6
176,160,35372,6,0,B|192:208|176:264,1,90
112,296,35723,1,0
80,184,35898,2,0,B|56:144|72:80,1,90
120,40,36249,1,0
120,40,36424,2,0,B|208:24,1,90
288,32,36775,2,0,B|264:128,1,90
320,176,37126,2,0,B|416:112,1,90
440,56,37477,1,0
480,128,37652,5,0
440,208,37828,2,0,B|376:288|376:288|296:272,1,180
232,216,38354,2,0,B|200:248|208:304,1,90
112,352,38705,2,0,B|136:304|120:256,1,90
40,288,39056,1,0
24,200,39231,2,0,B|56:112,1,90
56,24,39582,1,0
136,72,39758,2,0,B|216:120|232:-24|320:64,1,180,2|2
368,104,40284,1,2
368,104,40372,1,0
368,104,40459,1,0
448,72,40635,2,0,B|480:112|472:176,1,90,2|0
408,256,40986,6,0,B|392:304|408:360,2,90
480,200,41512,1,0
392,176,41688,2,0,B|288:168,1,90
224,216,42038,1,0
224,216,42214,2,0,B|208:256|208:256|224:304,1,90
136,232,42565,2,0,B|104:248|104:248|80:296,1,90
96,168,42916,2,0,B|64:144|64:144|8:160,1,90
160,112,43267,2,0,B|128:80|128:80|128:32,1,90
240,40,43617,5,0
240,40,43793,1,0
320,72,43968,1,0
320,72,44144,1,0
400,104,44319,1,0
400,104,44495,1,0
480,72,44670,1,0
336,200,44845,6,0,B|440:208|480:336,1,180,6|0
400,360,45372,1,0
328,304,45547,5,6
64,344,45898,1,4
136,56,46249,1,6
384,88,46600,6,0,B|400:128|392:176,1,90
336,248,46951,1,0
248,168,47126,1,0
312,104,47302,2,0,B|288:64|312:8,1,90
384,88,47652,1,0
456,40,47828,2,0,B|504:120,1,90
488,208,48179,2,0,B|384:176,1,90
320,224,48530,2,0,B|368:320,1,90
448,336,48881,5,0
448,336,49056,2,0,B|520:256|464:144,1,180,4|0
400,64,49582,2,0,B|320:144|392:256,2,180
464,128,50459,2,0,B|496:96|496:96|488:48,1,90
416,0,50810,1,0
328,32,50986,2,0,B|208:64,1,90,2|0
152,24,51337,1,2
72,64,51512,2,0,B|40:104|40:104|56:160,1,90,2|0
112,208,51863,1,6
320,320,52214,6,0,B|216:336,2,90
408,344,52740,1,0
408,344,52916,2,0,B|512:328,1,90
464,248,53267,2,0,B|408:176|448:72,1,180
328,24,53793,2,2,B|376:120|328:224,2,180
240,8,54670,1,4
24,232,55021,6,0,B|40:328,2,90
88,168,55547,1,0
88,168,55723,2,0,B|72:64,1,90
176,24,56074,2,0,B|256:80|224:208,1,180
168,256,56600,2,0,B|136:288|80:296,1,90
224,328,56951,2,0,B|264:288|320:280,1,90
376,328,57302,1,0
376,328,57477,1,0
432,256,57652,1,0
256,128,58003,2,0,B|160:152,1,90
80,128,58354,1,0
80,128,58530,1,0
48,304,58881,1,0
48,304,59056,1,0
256,192,59231,12,0,60459
80,112,60810,5,0
40,288,61161,1,0
96,360,61337,2,0,B|168:288|272:320,1,180
320,352,61863,5,4
456,272,62214,5,10
480,216,62389,1,0
440,168,62565,2,0,B|416:64,1,90,10|8
456,32,63091,1,2
320,104,63442,1,2
320,104,63617,2,0,B|288:72|304:16,2,90,2|2|2
392,224,64670,6,0,B|296:248,1,90,10|10
272,296,65196,1,0
272,296,65372,2,0,B|168:328,1,90,8|8
136,296,65898,1,2
40,232,66249,1,2
40,232,66424,2,10,B|8:280|24:336,2,90,2|2|2
112,136,67477,6,0,B|40:72,1,90,2|8
72,24,68003,1,0
112,64,68179,2,0,B|208:56,1,90,2|8
256,32,68705,1,0
256,32,68881,2,0,B|280:72|264:128,1,90,2|0
224,160,69407,1,2
224,160,69758,1,8
400,328,70109,6,0,B|344:248|416:152,1,180,4|0
488,112,70635,2,0,B|464:64|424:48,1,90
344,16,70986,2,0,B|288:0|224:16,1,90
176,48,71337,1,0
64,112,71512,5,0
64,112,71688,2,0,B|8:176|24:288,2,180
128,48,72565,2,0,B|96:8|32:16,2,90
176,152,73091,6,0,B|272:184|352:88,1,180
400,40,73617,1,0
472,96,73793,2,0,B|496:136|488:192,1,90
456,264,74144,1,0
344,328,74319,6,0,B|304:344|248:344|200:232|128:232|104:272,1,270,0|4
48,80,75196,5,0
48,80,75372,1,0
136,96,75547,1,0
208,48,75723,5,0
408,152,76074,1,0
160,304,76424,1,0
432,336,76775,1,0
64,160,77126,6,0,B|160:112|256:216,1,180
208,280,77652,1,0
208,280,77828,1,0
288,320,78003,1,0
288,320,78179,1,0
344,248,78354,1,0
416,304,78530,2,0,B|488:240|480:104|384:48|264:104,1,360
200,56,79407,5,6
88,120,79582,1,6
8,48,79758,5,6
224,144,79933,1,6
96,288,80459,6,0,B|184:336,1,90,6|0
240,272,80810,5,0
240,272,80898,1,0
240,272,80986,1,0
240,272,81074,1,0
240,272,81161,1,0
240,272,81249,1,0
240,272,81337,6,0,B|352:224|448:336,1,216.000005149841,6|0
488,224,81863,1,8
352,32,82214,1,0
352,32,82389,1,0
256,64,82565,1,8
312,184,82740,6,0,B|232:296|112:216,1,216.000005149841,6|0
56,152,83267,1,8
56,152,83442,1,6
312,24,83793,5,6
312,24,83968,1,8
400,64,84144,2,0,B|488:152|424:272,1,216.000005149841
352,320,84670,1,8
144,96,85021,1,0
56,136,85196,1,0
72,40,85372,1,8
56,136,85547,2,0,B|8:248|112:344,1,216.000005149841,6|0
184,288,86074,1,8
496,184,86424,5,0
496,184,86600,2,2,B|416:80|296:144,1,216.000005149841,2|0
264,72,87126,5,2
304,144,87302,1,0
384,160,87477,1,10
440,104,87652,1,0
216,232,88003,1,2
152,184,88179,1,8
72,200,88354,1,2
304,312,88705,1,2
368,264,88881,1,8
440,296,89056,1,2
424,64,89407,1,2
424,64,89582,2,0,B|328:16|240:104,1,180,8|0
176,128,90109,5,2
104,208,90284,1,8
72,104,90460,1,2
144,32,90635,5,0
24,152,90810,1,2
200,192,90986,1,8
144,32,91161,1,2
400,128,91688,6,6,B|416:240,1,90,6|0
376,320,92038,5,0
376,320,92126,1,0
376,320,92214,1,0
376,320,92302,1,0
376,320,92389,1,0
376,320,92477,1,0
376,320,92565,6,0,B|288:232|168:280,1,216.000005149841,6|0
80,328,93091,1,8
56,48,93442,1,0
56,48,93617,1,2
144,112,93793,1,8
320,64,93968,6,0,B|352:176|256:264,1,216.000005149841,6|0
160,296,94495,1,8
160,296,94670,1,2
400,336,95021,5,0
400,336,95196,1,8
344,240,95372,2,0,B|272:144|336:24,1,216.000005149841,6|0
440,16,95898,1,8
224,304,96249,1,0
120,336,96424,1,2
152,232,96600,1,8
120,336,96775,2,0,B|24:280|56:144,1,216.000005149841,2|0
112,56,97302,1,8
328,32,97652,5,2
328,32,97828,1,2
456,160,98179,1,2
352,136,98354,2,0,B|304:224|400:328,1,180,6|8
464,344,98881,1,2
456,256,99056,1,0
456,256,99231,1,2
208,280,99582,2,0,B|112:240|24:320,1,180,6|0
112,360,100109,1,10
48,104,100460,1,2
48,104,100635,1,0
48,104,100810,1,8
320,48,101161,6,0,B|280:192,1,135
248,160,101863,2,0,B|264:304,1,135
304,288,102565,2,0,B|296:344,1,45
240,360,102916,2,0,B|216:320|144:320,1,90
104,352,103442,1,0
104,352,103617,1,0
48,88,103968,6,0,B|192:112,1,135
160,152,104670,2,0,B|296:112,1,135
320,80,105372,1,0
320,80,105547,1,0
320,80,105723,1,0
456,184,106074,5,0
456,184,106249,2,0,B|472:232|432:272,1,90
392,320,106775,1,4
272,176,107126,2,0,B|240:144,1,45
192,88,107477,2,0,B|136:104|136:168,1,90
168,264,108003,5,6
416,80,108530,5,0
384,304,108881,1,0
368,280,108968,1,0
352,256,109056,1,0
336,232,109144,1,0
320,208,109231,1,4
320,208,109407,1,4
256,192,109495,12,0,114144
