osu file format v13

[General]
AudioFilename: 22.mp3
AudioLeadIn: 1500
PreviewTime: 80382
Countdown: 0
SampleSet: Soft
StackLeniency: 0.7
Mode: 0
LetterboxInBreaks: 0
WidescreenStoryboard: 0

[Editor]
DistanceSpacing: 1
BeatDivisor: 4
GridSize: 4
TimelineZoom: 1.2

[Metadata]
Title:Syumatsu no Fractale (Game Size)
TitleUnicode:終末のフラクタル (ゲームSize)
Artist:Faylan
ArtistUnicode:飛蘭
Creator:kajiyatta
Version:Normal
Source:グリザイアの果実 -LE FRUIT DE LA GRISAIA-
Tags:frontwing eroge opening visual novel kajitsu
BeatmapID:555466
BeatmapSetID:240352

[Difficulty]
HPDrainRate:4
CircleSize:3
OverallDifficulty:4
ApproachRate:5
SliderMultiplier:1
SliderTickRate:1

[Events]
//Background and Video events
Video,0,"22.avi"
0,0,"BG22-1.jpg",0,0
//Break Periods
2,12863,17077
//Storyboard Layer 0 (Background)
//Storyboard Layer 1 (Fail)
//Storyboard Layer 2 (Pass)
//Storyboard Layer 3 (Foreground)
//Storyboard Sound Samples

[TimingPoints]
32,350.877192982456,4,2,1,40,1,0
32,-100,4,2,1,40,0,0
1260,-100,4,2,1,50,0,0
9681,-100,4,2,1,40,0,0
11260,-100,4,2,1,50,0,0
11961,-100,4,2,1,60,0,0
12663,-100,4,2,1,50,0,0
21084,-100,4,2,1,60,0,0
22663,-100,4,2,2,50,0,0
22839,-100,4,2,1,60,0,0
23716,-100,4,2,1,70,0,1
23891,-100,4,2,1,70,0,0
25119,-100,4,2,1,60,0,0
25295,-100,4,2,1,70,0,0
25470,-100,4,2,2,60,0,0
25646,-100,4,2,1,70,0,0
26523,-100,4,2,1,60,0,0
26698,-100,4,2,1,70,0,0
27926,-100,4,2,1,60,0,0
28102,-100,4,2,1,70,0,0
28277,-100,4,2,2,60,0,0
28453,-100,4,2,1,70,0,0
29330,-100,4,2,1,60,0,0
31260,-100,4,2,1,70,0,0
31786,-100,4,2,1,60,0,0
31961,-100,4,2,1,70,0,0
32312,-100,4,2,1,60,0,0
35295,-100,4,2,1,50,0,0
43891,-100,4,2,3,40,0,0
44242,-100,4,2,1,50,0,0
46172,-100,4,2,1,60,0,0
46347,-100,4,1,1,60,0,0
56347,-100,4,2,1,60,0,0
57751,-100,4,2,3,50,0,0
57926,-100,4,2,1,60,0,0
60207,-100,4,2,1,50,0,0
66172,-100,4,2,3,40,0,0
66347,-100,4,2,1,50,0,0
69330,-100,4,2,1,60,0,0
72839,-100,4,2,1,60,0,0
73365,-100,4,2,1,60,0,0
74242,-100,4,2,1,60,0,0
74768,-100,4,2,1,60,0,0
81260,-100,4,2,1,70,0,1
82663,-100,4,2,1,60,0,1
82839,-100,4,2,1,70,0,1
83014,-100,4,2,2,60,0,1
83189,-100,4,2,1,70,0,1
83365,-100,4,2,1,60,0,1
83540,-100,4,2,1,70,0,1
84242,-100,4,2,1,60,0,1
84417,-100,4,2,1,70,0,1
85470,-100,4,2,1,60,0,1
85646,-100,4,2,1,70,0,1
86523,-100,4,2,1,60,0,1
86698,-100,4,2,1,70,0,1
87049,-100,4,2,1,60,0,1
87224,-100,4,2,1,70,0,1
88277,-100,4,2,1,60,0,1
88453,-100,4,2,1,70,0,1
88979,-100,4,2,1,60,0,1
89154,-100,4,2,1,70,0,1
89856,-100,4,2,1,60,0,1
90031,-100,4,2,1,70,0,1
90382,-100,4,2,1,60,0,1
90558,-100,4,2,1,70,0,1
91084,-100,4,2,1,60,0,0
91610,-100,4,2,1,40,0,0
92488,-100,4,2,1,70,0,1
93891,-100,4,2,1,60,0,1
94067,-100,4,2,1,70,0,1
95470,-100,4,2,1,60,0,1
95646,-100,4,2,1,70,0,1
96698,-100,4,2,1,60,0,1
96874,-100,4,2,1,70,0,1
98277,-100,4,2,1,60,0,1
98453,-100,4,2,1,70,0,1
98979,-100,4,2,1,60,0,1
99154,-100,4,2,1,70,0,1
99505,-100,4,2,1,60,0,1
99681,-100,4,2,1,70,0,1
100909,-100,4,2,1,70,0,0
101084,-100,4,2,1,60,0,1
104242,-100,4,2,2,50,0,1
104593,-100,4,2,1,60,0,1
105646,-100,4,2,3,50,0,1
105996,-100,4,2,1,60,0,1
106698,-100,4,2,1,50,0,1
109330,-100,4,2,1,50,0,0
110909,-100,4,2,1,40,0,0
111610,-100,4,2,1,30,0,0
112312,-100,4,2,1,20,0,0
113014,-100,4,2,1,10,0,0
113716,-100,4,2,1,5,0,0

[Colours]
Combo1 : 231,108,18
Combo2 : 7,160,235
Combo3 : 255,255,0
Combo4 : 255,91,255

[HitObjects]
48,112,382,6,0,B|84:72|136:72,1,100
180,100,909,1,0,0:0:0:0:
256,164,1260,6,0,B|328:204|400:164,1,150,4|0,1:0|0:0,0:0:0:0:
472,96,2137,2,0,L|436:60,2,50
500,140,2663,2,0,B|540:212|500:284,1,150,4|0,1:0|0:0,0:0:0:0:
476,328,3365,1,0,0:0:0:0:
352,244,3891,2,0,L|300:212,1,50
260,228,4242,6,0,B|208:252|160:228,1,100,4|0,1:0|0:0,0:0:0:0:
84,292,4944,2,0,B|64:280|32:228|64:172|84:160,2,150,0|4|0,0:0|1:0|0:0,0:0:0:0:
168,340,6347,1,0,0:0:0:0:
168,340,6523,2,0,B|240:376|312:340,1,150,4|8,1:0|0:0,0:0:0:0:
400,288,7400,5,8,0:0:0:0:
452,204,7751,1,8,0:0:0:0:
400,120,8102,2,0,L|356:88,1,50,8|6,0:0|0:0,0:0:0:0:
272,44,8628,2,0,B|224:20|176:44,2,100,2|2|2,0:0|0:0|0:0,0:0:0:0:
224,132,9681,1,4,0:0:0:0:
256,192,9768,12,4,12663,1:0:0:0:
76,108,18277,6,0,B|28:140|28:192,1,100,6|0,0:0|0:0,0:0:0:0:
72,280,18979,2,0,B|32:316,2,50,2|2|2,0:0|0:0|0:0,0:0:0:0:
112,248,19505,2,0,B|180:212|256:248,1,150,6|2,0:0|0:0,0:0:0:0:
352,280,20382,1,2,0:0:0:0:
352,280,20558,2,0,B|432:264|464:184,1,150,6|6,0:0|0:0,0:0:0:0:
416,100,21435,5,2,0:0:0:0:
340,36,21786,2,0,B|292:16|240:36,1,100,6|2,0:0|0:0,0:0:0:0:
212,72,22312,2,0,B|172:144|88:144,1,150,6|2,0:0|0:0,0:0:0:0:
0,192,23189,2,0,L|32:232,1,50,4|2,0:0|0:0,0:0:0:0:
100,304,23716,6,0,B|172:340|244:304,1,150,6|10,0:0|0:0,0:0:0:0:
304,224,24593,2,0,B|352:200|400:224,1,100,2|8,0:0|0:0,0:0:0:0:
448,244,25119,2,0,B|512:192|488:108,1,150,6|10,0:0|0:0,0:0:0:0:
416,40,25996,2,0,B|364:40|324:76,1,100,8|8,0:0|0:0,0:0:0:0:
280,96,26523,6,0,B|208:140|136:96,1,150,6|10,0:0|0:0,0:0:0:0:
44,64,27400,2,0,L|8:100,1,50,2|2,0:0|0:0,0:0:0:0:
8,200,27926,2,0,B|8:288|80:320,1,150,6|10,0:0|0:0,0:0:0:0:
168,268,28803,2,0,L|220:268,1,50,2|2,0:0|0:0,0:0:0:0:
304,320,29330,6,0,B|352:344|400:320,1,100,6|2,0:0|0:0,0:0:0:0:
500,324,30031,2,0,B|500:272|452:240,1,100,6|2,0:0|0:0,0:0:0:0:
448,140,30733,2,0,B|392:140|348:184|352:236,1,150,6|10,0:0|0:0,0:0:0:0:
256,256,31610,1,2,0:0:0:0:
256,256,31786,2,0,B|184:296|112:256,1,150,6|6,0:0|0:0,0:0:0:0:
52,180,32663,6,0,B|8:212|16:268,2,100,2|8|2,0:0|0:0|0:0,0:0:0:0:
84,140,33540,2,0,B|100:104|168:72|236:104|256:140,1,200,2|6,0:0|0:0,0:0:0:0:
320,216,34593,1,6,0:0:0:0:
420,216,34944,6,0,B|492:172|492:92,1,150,6|8,0:0|0:0,0:0:0:0:
412,32,35821,2,0,B|364:8|316:32,1,100,8|8,0:0|0:0,0:0:0:0:
256,112,36523,2,0,B|208:136|160:112,1,100,8|8,0:0|0:0,0:0:0:0:
76,60,37224,1,8,0:0:0:0:
4,132,37575,1,8,0:0:0:0:
56,220,37926,6,0,B|92:256|92:312,1,100,10|8,0:0|0:0,0:0:0:0:
180,360,38628,2,0,B|228:384|276:360,1,100,8|8,0:0|0:0,0:0:0:0:
364,312,39330,2,0,B|412:288|460:312,2,100,8|8|8,0:0|0:0|0:0,0:0:0:0:
280,264,40382,1,8,0:0:0:0:
228,180,40733,6,0,B|200:132|228:84,1,100,10|8,0:0|0:0,0:0:0:0:
332,84,41435,2,0,B|360:128|332:180,1,100,8|8,0:0|0:0,0:0:0:0:
280,264,42137,2,0,L|208:332,2,100,8|8|10,0:0|0:0|0:0,0:0:0:0:
372,228,43189,1,8,0:0:0:0:
464,264,43540,6,0,B|524:172|464:76,1,200,4|8,0:0|0:0,0:0:0:0:
324,128,44768,2,0,B|280:192|192:192,1,150,6|2,0:0|0:0,0:0:0:0:
156,164,45470,2,0,B|124:120|68:120,1,100,10|10,0:0|0:0,0:0:0:0:
0,192,46172,6,0,B|0:276|64:320,1,150,4|0,0:0|0:0,0:0:0:0:
156,276,47049,2,0,B|204:252|252:276,1,100,2|0,2:0|0:0,0:0:0:0:
344,320,47751,2,0,B|392:344|440:320,1,100,2|0,2:0|0:0,0:0:0:0:
496,236,48453,1,2,2:0:0:0:
440,152,48803,1,0,0:0:0:0:
336,152,49154,6,0,L|268:80,2,100,4|0|0,2:0|0:0|0:0,0:0:0:0:
392,236,50207,1,0,0:0:0:0:
344,320,50558,2,0,B|308:360|256:360,1,100,2|2,2:0|2:0,0:0:0:0:
196,280,51260,2,0,B|160:240|108:240,1,100,2|0,2:0|0:0,0:0:0:0:
60,260,51786,6,0,B|0:212|0:128,1,150,4|0,2:0|0:0,0:0:0:0:
48,40,52663,2,0,B|140:84,1,100,4|0,2:0|0:0,0:0:0:0:
188,84,53189,2,0,B|256:44|332:84,1,150,4|2,2:0|2:0,0:0:0:0:
424,120,54067,2,0,B|472:144|488:192,1,100,2|0,2:0|0:0,0:0:0:0:
456,232,54593,6,0,B|380:256|352:332,1,150,6|0,2:0|0:0,0:0:0:0:
256,304,55470,2,0,B|224:256|172:256,1,100,4|0,2:0|0:0,0:0:0:0:
128,272,55996,6,0,B|48:272|8:192,1,150,4|0,2:0|0:0,0:0:0:0:
8,96,56874,2,0,B|40:56|96:56,1,100,10|0,0:0|0:0,0:0:0:0:
128,92,57400,2,0,B|196:132|272:92,1,150,2|0,0:0|0:0,0:0:0:0:
352,36,58277,1,8,0:0:0:0:
436,92,58628,1,0,0:0:0:0:
404,188,58979,6,0,L|468:264,2,100,6|2|10,0:0|0:0|0:0,0:0:0:0:
304,188,60031,2,0,L|252:188,1,50,2|6,0:0|0:0,0:0:0:0:
152,188,60558,2,0,L|112:220,1,50,8|8,0:0|0:0,0:0:0:0:
44,292,61084,2,0,B|68:344|124:344,1,100,8|0,0:0|0:0,0:0:0:0:
204,284,61786,6,0,B|296:240|296:240|348:260|392:240,1,200,6|10,0:0|0:0,0:0:0:0:
488,124,63014,2,0,B|440:56|360:56,1,150,2|10,0:0|0:0,0:0:0:0:
304,136,63891,2,0,B|256:160|208:136,1,100,10|2,0:0|0:0,0:0:0:0:
150,56,64593,6,0,B|36:56|0:168,1,200,10|10,0:0|0:0,0:0:0:0:
56,248,65646,1,0,0:0:0:0:
56,248,65821,2,0,B|140:248|184:320,1,150,2|2,0:0|0:0,0:0:0:0:
272,364,66698,2,0,B|324:364|364:328,1,100,8|2,0:0|0:0,0:0:0:0:
284,268,67400,6,0,B|216:176|284:84,1,200,8|10,0:0|0:0,0:0:0:0:
436,84,68628,2,0,B|484:116|484:168,2,100,2|2|10,0:0|0:0|0:0,0:0:0:0:
360,20,69681,1,10,0:0:0:0:
284,84,70031,6,0,B|236:152|156:152,1,150,6|10,0:0|0:0,0:0:0:0:
68,108,70909,2,0,B|40:152|68:204,1,100,10|8,0:0|0:0,0:0:0:0:
156,248,71610,2,0,B|224:320,1,100,8|8,0:0|0:0,0:0:0:0:
316,360,72312,2,0,B|364:384|412:360,1,100,10|8,0:0|0:0,0:0:0:0:
444,324,72839,6,0,B|500:272|500:188,1,150,2|4,0:0|0:0,0:0:0:0:
456,100,73716,2,0,B|424:56|368:56,1,100,0|8,0:0|0:0,0:0:0:0:
324,76,74242,2,0,B|280:144|196:144,1,150,2|4,0:0|0:0,0:0:0:0:
104,104,75119,1,8,0:0:0:0:
28,168,75470,1,8,0:0:0:0:
28,168,75646,6,0,B|0:212|28:264,1,100,10|10,0:0|0:0,0:0:0:0:
116,212,76347,2,0,B|168:212|204:256,1,100,10|10,0:0|0:0,0:0:0:0:
256,340,77049,2,0,B|328:380|400:340,1,150,6|10,0:0|0:0,0:0:0:0:
472,272,77926,2,0,B|472:220|428:184,1,100,10|8,0:0|0:0,0:0:0:0:
380,172,78453,6,0,B|296:172|256:100,1,150,6|10,0:0|0:0,0:0:0:0:
176,44,79330,2,0,B|132:20|80:44,1,100,2|2,0:0|0:0,0:0:0:0:
36,68,79856,2,0,B|-12:132|36:208,1,150,6|10,0:0|0:0,0:0:0:0:
128,248,80733,2,0,L|128:300,1,50,10|10,0:0|0:0,0:0:0:0:
208,356,81260,6,0,B|264:296|344:296,1,150,6|8,0:0|0:0,0:0:0:0:
440,312,82137,2,0,B|480:276|480:224,1,100,2|8,0:0|0:0,0:0:0:0:
440,196,82663,2,0,B|364:160|364:76,1,150,6|8,0:0|0:0,0:0:0:0:
324,44,83365,2,0,B|252:0|180:44,1,150,6|8,0:0|0:0,0:0:0:0:
88,80,84242,6,0,B|12:16,2,100,6|10|10,0:0|0:0|0:0,0:0:0:0:
168,140,85295,1,0,0:0:0:0:
168,140,85470,2,0,B|236:192|236:268,1,150,6|8,0:0|0:0,0:0:0:0:
168,340,86347,1,8,0:0:0:0:
168,340,86523,2,0,B|180:360|236:392|288:360|300:340,1,150,6|6,0:0|0:0,0:0:0:0:
368,268,87400,6,0,B|444:332,2,100,10|0|8,0:0|0:0|0:0,0:0:0:0:
332,232,88277,2,8,B|332:148|404:108,1,150,6|0,0:0|0:0,0:0:0:0:
436,72,88979,2,0,B|380:12|300:36,1,150,6|8,0:0|0:0,0:0:0:0:
220,100,89856,6,0,B|172:124|124:100,1,100,6|10,0:0|0:0,0:0:0:0:
80,72,90382,2,0,B|4:112|4:192,1,150,6|10,0:0|0:0,0:0:0:0:
20,240,91084,1,6,0:0:0:0:
140,332,91610,2,0,B|192:332|232:296,1,100,10|10,0:0|0:0,0:0:0:0:
256,252,92137,1,10,0:0:0:0:
320,176,92488,6,0,B|312:156|256:124|196:156|188:176,1,150,6|8,0:0|0:0,0:0:0:0:
88,192,93365,2,0,B|36:192|8:140,1,100,2|8,0:0|0:0,0:0:0:0:
28,96,93891,2,0,B|68:28|156:28,1,150,6|8,0:0|0:0,0:0:0:0:
196,56,94593,2,0,B|268:96|340:56,1,150,6|8,0:0|0:0,0:0:0:0:
432,24,95470,6,0,B|480:44|496:96,1,100,6|8,0:0|0:0,0:0:0:0:
412,148,96172,2,0,B|384:192|412:244,1,100,10|8,0:0|0:0,0:0:0:0:
444,284,96698,2,0,B|404:356|320:356,1,150,6|8,0:0|0:0,0:0:0:0:
256,280,97575,1,2,0:0:0:0:
256,280,97751,2,0,B|208:216|124:216,1,150,10|6,0:0|0:0,0:0:0:0:
36,256,98628,5,8,0:0:0:0:
0,160,98979,2,0,B|0:108|48:76,1,100,6|8,0:0|0:0,0:0:0:0:
96,84,99505,2,0,B|148:148|228:148,1,150,6|8,0:0|0:0,0:0:0:0:
312,96,100382,2,0,L|364:96,1,50,2|8,0:0|0:0,0:0:0:0:
476,192,101084,6,0,B|444:304|328:304,1,200,6|10,0:0|0:0,0:0:0:0:
256,236,102137,1,2,0:0:0:0:
168,188,102488,2,0,B|120:164|72:188,1,100,0|8,0:0|0:0,0:0:0:0:
72,288,103189,2,0,B|120:312|168:288,1,100,10|0,0:0|0:0,0:0:0:0:
256,236,103891,6,0,B|292:224|332:152|292:84|256:72,1,200,6|10,0:0|0:0,0:0:0:0:
160,36,104944,1,2,0:0:0:0:
64,72,105295,2,0,B|28:84|-12:152|28:224|64:236,1,200,2|0,0:0|0:0,0:0:0:0:
160,272,106347,1,0,0:0:0:0:
256,236,106698,6,0,B|352:184|448:236,1,200,6|6,0:0|0:0,0:0:0:0:
352,352,107926,1,6,0:0:0:0:
256,236,108453,2,0,B|208:208|208:152,1,100,6|8,0:0|0:0,0:0:0:0:
212,104,108979,2,0,B|248:64|300:64,1,100,8|4,0:0|0:0,0:0:0:0:
256,192,109417,12,0,113716,0:0:0:0:
