osu file format v13

[General]
AudioFilename: 22.mp3
AudioLeadIn: 1500
PreviewTime: 80382
Countdown: 0
SampleSet: Soft
StackLeniency: 0.7
Mode: 0
LetterboxInBreaks: 0
WidescreenStoryboard: 0

[Editor]
DistanceSpacing: 1.1
BeatDivisor: 4
GridSize: 4
TimelineZoom: 1.4

[Metadata]
Title:Syumatsu no Fractale (Game Size)
TitleUnicode:終末のフラクタル (ゲームSize)
Artist:Faylan
ArtistUnicode:飛蘭
Creator:kajiyatta
Version:Hard
Source:グリザイアの果実 -LE FRUIT DE LA GRISAIA-
Tags:frontwing eroge opening visual novel kajitsu
BeatmapID:555464
BeatmapSetID:240352

[Difficulty]
HPDrainRate:6
CircleSize:4
OverallDifficulty:6
ApproachRate:7
SliderMultiplier:1.5
SliderTickRate:1

[Events]
//Background and Video events
Video,0,"22.avi"
0,0,"BG22-1.jpg",0,0
//Break Periods
2,12863,17377
//Storyboard Layer 0 (Background)
//Storyboard Layer 1 (Fail)
//Storyboard Layer 2 (Pass)
//Storyboard Layer 3 (Foreground)
//Storyboard Sound Samples

[TimingPoints]
32,350.877192982456,4,2,1,40,1,0
32,-133.333333333333,4,2,1,40,0,0
1260,-133.333333333333,4,2,1,50,0,0
9681,-133.333333333333,4,2,1,40,0,0
11260,-133.333333333333,4,2,1,50,0,0
11961,-133.333333333333,4,2,1,60,0,0
12663,-133.333333333333,4,2,1,50,0,0
21084,-133.333333333333,4,2,1,60,0,0
23716,-100,4,2,1,70,0,1
23891,-100,4,2,1,70,0,0
25119,-100,4,2,1,60,0,0
25295,-100,4,2,1,70,0,0
26523,-100,4,2,1,60,0,0
26698,-100,4,2,1,70,0,0
27926,-100,4,2,1,60,0,0
28102,-100,4,2,1,70,0,0
29330,-100,4,2,1,60,0,0
31260,-100,4,2,1,70,0,0
31786,-100,4,2,1,60,0,0
31961,-100,4,2,1,70,0,0
32312,-100,4,2,1,60,0,0
35295,-100,4,2,1,50,0,0
46172,-100,4,2,1,60,0,0
46347,-100,4,1,1,60,0,0
56347,-100,4,2,1,60,0,0
60207,-100,4,2,1,50,0,0
61786,-133.333333333333,4,2,1,50,0,0
69330,-100,4,2,1,60,0,0
72839,-133.333333333333,4,2,1,60,0,0
73365,-100,4,2,1,60,0,0
74242,-133.333333333333,4,2,1,60,0,0
74768,-100,4,2,1,60,0,0
81260,-100,4,2,1,70,0,1
82663,-100,4,2,1,60,0,1
82839,-100,4,2,1,70,0,1
83365,-100,4,2,1,60,0,1
83540,-100,4,2,1,70,0,1
84242,-100,4,2,1,60,0,1
84417,-100,4,2,1,70,0,1
85470,-100,4,2,1,60,0,1
85646,-100,4,2,1,70,0,1
86523,-100,4,2,1,60,0,1
86698,-100,4,2,1,70,0,1
87049,-100,4,2,1,60,0,1
87224,-100,4,2,1,70,0,1
88277,-100,4,2,1,60,0,1
88453,-100,4,2,1,70,0,1
88979,-100,4,2,1,60,0,1
89154,-100,4,2,1,70,0,1
89856,-100,4,2,1,60,0,1
90031,-100,4,2,1,70,0,1
90382,-100,4,2,1,60,0,1
90558,-100,4,2,1,70,0,1
91084,-100,4,2,1,60,0,0
91610,-100,4,2,1,40,0,0
92488,-100,4,2,1,70,0,1
93891,-100,4,2,1,60,0,1
94067,-100,4,2,1,70,0,1
95470,-100,4,2,1,60,0,1
95646,-100,4,2,1,70,0,1
96698,-100,4,2,1,60,0,1
96874,-100,4,2,1,70,0,1
98277,-100,4,2,1,60,0,1
98453,-100,4,2,1,70,0,1
98979,-100,4,2,1,60,0,1
99154,-100,4,2,1,70,0,1
99505,-100,4,2,1,60,0,1
99681,-100,4,2,1,70,0,1
100909,-100,4,2,1,70,0,0
101084,-133.333333333333,4,2,1,60,0,1
106698,-133.333333333333,4,2,1,50,0,1
109330,-133.333333333333,4,2,1,50,0,0
110909,-133.333333333333,4,2,1,40,0,0
111610,-133.333333333333,4,2,1,30,0,0
112312,-133.333333333333,4,2,1,20,0,0
113014,-133.333333333333,4,2,1,10,0,0
113716,-133.333333333333,4,2,1,5,0,0

[Colours]
Combo1 : 231,108,18
Combo2 : 7,160,235
Combo3 : 255,255,0
Combo4 : 255,91,255

[HitObjects]
64,140,382,6,0,B|40:168|40:216|64:244,1,112.500004291535
184,192,909,1,0,0:0:0:0:
184,192,1260,6,0,B|236:168|296:192,1,112.500004291535,4|0,1:0|0:0,0:0:0:0:
356,248,1786,2,0,B|384:256|412:248,1,56.2500021457673,0|0,0:0|0:0,0:0:0:0:
492,168,2137,2,0,B|464:160|436:168,2,56.2500021457673
476,312,2663,2,0,B|436:348|368:340,1,112.500004291535,4|0,1:0|0:0,0:0:0:0:
292,308,3189,1,0,0:0:0:0:
216,268,3365,2,0,B|176:232|112:232,1,112.500004291535,0|0,0:0|0:0,0:0:0:0:
36,272,3891,1,0,0:0:0:0:
76,348,4067,1,0,0:0:0:0:
216,268,4242,6,0,B|256:224|256:164,2,112.500004291535,4|0|0,1:0|0:0|0:0,0:0:0:0:
172,340,5119,2,0,L|224:376,1,56.2500021457673
340,312,5470,2,0,B|372:268|440:268,1,112.500004291535,4|0,1:0|0:0,0:0:0:0:
484,340,5996,1,0,0:0:0:0:
484,340,6347,1,0,0:0:0:0:
340,312,6523,2,0,B|284:284|284:220,1,112.500004291535,4|0,1:0|0:0,0:0:0:0:
352,120,7049,6,0,B|382:68,1,56.2500021457673,8|0,0:0|0:0,0:0:0:0:
256,92,7400,2,0,L|256:36,1,56.2500021457673,8|0,0:0|0:0,0:0:0:0:
160,120,7751,2,0,B|130:68,2,56.2500021457673,10|0|10,0:0|0:0|0:0,0:0:0:0:
256,228,8277,2,0,B|256:256|236:280,1,56.2500021457673,6|8,0:0|0:0,0:0:0:0:
92,328,8628,2,0,B|92:300|112:276,1,56.2500021457673,2|8,0:0|0:0,0:0:0:0:
180,356,8979,2,0,B|236:384|288:356,1,112.500004291535,2|2,0:0|0:0,0:0:0:0:
348,252,9505,1,8,0:0:0:0:
460,344,9681,1,4,0:0:0:0:
256,192,9768,12,4,12663,1:0:0:0:
100,96,18277,6,0,B|44:132|44:192,1,112.500004291535,6|0,0:0|0:0,0:0:0:0:
180,288,18979,1,2,0:0:0:0:
256,328,19154,1,2,0:0:0:0:
340,328,19330,1,2,0:0:0:0:
412,288,19505,2,0,B|464:260|464:196,1,112.500004291535,6|0,0:0|0:0,0:0:0:0:
348,176,20031,2,0,B|324:196|324:228,1,56.2500021457673,2|0,0:0|0:0,0:0:0:0:
412,288,20382,1,2,0:0:0:0:
416,112,20558,2,0,B|384:60|320:60,1,112.500004291535,6|0,0:0|0:0,0:0:0:0:
204,124,21084,6,0,L|152:152,1,56.2500021457673,6|0,0:0|0:0,0:0:0:0:
100,260,21435,2,0,L|152:232,1,56.2500021457673,2|2,0:0|0:0,0:0:0:0:
24,208,21786,2,0,B|8:232|8:264,2,56.2500021457673,6|0|2,0:0|0:0|0:0,0:0:0:0:
52,340,22312,2,0,B|100:376|160:360,1,112.500004291535,6|2,0:0|0:0,0:0:0:0:
156,268,22839,2,0,L|100:260,1,56.2500021457673,2|2,0:0|0:0,0:0:0:0:
240,308,23189,2,0,L|296:316,1,56.2500021457673,4|2,0:0|0:0,0:0:0:0:
296,316,23716,6,0,B|364:356|440:316,1,150,6|0,0:0|0:0,0:0:0:0:
392,192,24242,2,0,B|316:152|248:192,1,150,10|2,0:0|0:0,0:0:0:0:
124,256,24768,2,0,B|160:272|196:256,1,75,2|8,0:0|0:0,0:0:0:0:
60,192,25119,2,0,B|40:200|0:256|40:312|60:320,1,150,6|2,0:0|0:0,0:0:0:0:
156,176,25646,2,0,B|176:168|216:112|176:56|156:48,1,150,10|8,0:0|0:0,0:0:0:0:
72,40,26172,1,0,0:0:0:0:
12,96,26347,1,8,0:0:0:0:
156,176,26523,6,0,B|224:208|256:284,1,150,4|0,0:0|0:0,0:0:0:0:
380,328,27049,2,0,B|460:292|460:212,1,150,10|2,0:0|0:0,0:0:0:0:
436,132,27575,1,2,0:0:0:0:
368,84,27751,1,8,0:0:0:0:
224,124,27926,2,0,B|276:184|364:168,1,150,6|0,0:0|0:0,0:0:0:0:
368,84,28453,2,0,B|352:48|316:32,1,75,10|2,0:0|0:0,0:0:0:0:
188,40,28803,2,0,B|152:56|136:92,2,75,2|2|8,0:0|0:0|0:0,0:0:0:0:
148,184,29330,6,0,P|80:164|44:96,1,150,6|2,0:0|0:0,0:0:0:0:
80,24,29856,1,8,0:0:0:0:
224,124,30031,2,0,B|244:132|284:188|244:244|224:252,1,150,6|2,0:0|0:0,0:0:0:0:
148,184,30558,1,8,0:0:0:0:
260,32,30733,2,0,B|340:48|360:132,1,150,6|0,0:0|0:0,0:0:0:0:
248,284,31260,2,0,B|168:268|148:184,1,150,2|10,0:0|0:0,0:0:0:0:
328,232,31786,2,0,B|400:268|472:232,1,150,6|0,0:0|0:0,0:0:0:0:
328,232,32312,6,0,B|312:264|328:304,1,75,6|2,0:0|0:0,0:0:0:0:
472,232,32663,2,0,B|488:200|472:160,1,75,2|2,0:0|0:0,0:0:0:0:
424,92,33014,2,0,L|484:40,2,75,8|0|2,0:0|0:0|0:0,0:0:0:0:
348,128,33540,2,0,B|280:168|204:128,1,150,2|0,0:0|0:0,0:0:0:0:
128,92,34067,1,8,0:0:0:0:
4,152,34242,2,0,B|4:192|32:220,1,75,6|0,0:0|0:0,0:0:0:0:
168,260,34593,2,0,B|168:220|140:192,1,75,6|0,0:0|0:0,0:0:0:0:
104,316,34944,6,0,B|112:336|168:376|224:336|232:316,1,150,6|0,0:0|0:0,0:0:0:0:
296,264,35470,2,0,B|336:264|364:292,1,75,8|0,0:0|0:0,0:0:0:0:
368,376,35821,2,0,B|408:376|436:344,1,75,8|0,0:0|0:0,0:0:0:0:
488,284,36172,1,8,0:0:0:0:
508,204,36347,1,0,0:0:0:0:
464,136,36523,2,0,B|412:80,1,75,8|0,0:0|0:0,0:0:0:0:
336,44,36874,2,0,B|300:28|264:44,1,75,8|0,0:0|0:0,0:0:0:0:
264,132,37224,2,0,B|300:148|336:132,1,75,8|2,0:0|0:0,0:0:0:0:
184,88,37575,1,8,0:0:0:0:
264,216,37751,1,0,0:0:0:0:
112,216,37926,6,0,B|72:216|48:184,1,75,10|0,0:0|0:0,0:0:0:0:
180,184,38277,2,0,B|196:216|180:256,1,75,8|0,0:0|0:0,0:0:0:0:
108,300,38628,2,0,B|128:332|168:340,1,75,8|0,0:0|0:0,0:0:0:0:
248,308,38979,1,8,0:0:0:0:
368,252,39154,2,0,B|448:252|500:316,1,150,0|0,0:0|0:0,0:0:0:0:
368,252,39681,2,0,B|320:184|368:112,1,150,8|8,0:0|0:0,0:0:0:0:
428,56,40207,1,2,0:0:0:0:
352,24,40382,2,0,B|316:8|280:24,1,75,8|0,0:0|0:0,0:0:0:0:
164,92,40733,6,0,B|200:104|240:92,1,75,10|0,0:0|0:0,0:0:0:0:
204,16,41084,1,8,0:0:0:0:
120,20,41260,1,0,0:0:0:0:
76,88,41435,1,8,0:0:0:0:
116,160,41610,2,0,B|164:220,1,75,0|8,0:0|0:0,0:0:0:0:
256,316,41961,2,0,B|328:352|400:316,1,150,0|0,0:0|0:0,0:0:0:0:
440,244,42488,1,8,0:0:0:0:
400,172,42663,2,0,B|328:136|256:172,1,150,0|2,0:0|0:0,0:0:0:0:
212,244,43189,2,0,L|136:244,1,75,8|0,0:0|0:0,0:0:0:0:
16,168,43540,6,0,B|32:88|116:68,1,150,4|8,0:0|0:0,0:0:0:0:
188,112,44067,1,0,0:0:0:0:
256,156,44242,2,0,B|328:188|404:156,1,150,8|8,0:0|0:0,0:0:0:0:
328,44,44768,2,0,B|292:44|260:72,1,75,4|0,0:0|0:0,0:0:0:0:
188,112,45119,1,0,0:0:0:0:
112,80,45295,1,2,0:0:0:0:
188,196,45470,2,0,L|188:236,3,37.5,8|0|8|0,0:0|0:0|0:0|0:0,0:0:0:0:
188,276,45821,1,4,0:0:0:0:
188,276,46172,6,0,B|232:344|316:344,1,150,4|0,0:0|0:0,0:0:0:0:
396,352,46698,2,0,L|460:312,1,75
472,232,47049,1,2,2:0:0:0:
392,220,47224,2,0,L|328:260,1,75
472,232,47575,2,0,B|480:176|444:136|384:136,1,150,0|0,0:0|0:0,0:0:0:0:
312,172,48102,2,0,B|276:184|236:172,1,75,0|0,0:0|0:0,0:0:0:0:
176,120,48453,1,2,2:0:0:0:
176,120,48803,1,0,0:0:0:0:
96,144,48979,1,0,0:0:0:0:
44,272,49154,6,0,B|16:300|16:340,1,75,4|0,2:0|0:0,0:0:0:0:
128,300,49505,2,0,B|160:280|200:280,1,75,0|0,0:0|0:0,0:0:0:0:
316,312,49856,2,0,B|272:380|184:368,1,150,0|0,0:0|0:0,0:0:0:0:
272,240,50382,2,0,B|316:172|401:183,1,150,0|2,0:0|2:0,0:0:0:0:
476,220,50909,2,0,B|504:292,2,75,2|0|2,2:0|0:0|2:0,0:0:0:0:
468,136,51435,1,4,0:0:0:0:
404,264,51610,1,0,0:0:0:0:
384,100,51786,6,0,B|340:32|256:32,1,150,4|0,2:0|0:0,0:0:0:0:
196,88,52312,1,0,0:0:0:0:
240,156,52488,1,0,0:0:0:0:
116,88,52663,2,0,B|40:116|12:192,1,150,4|0,2:0|0:0,0:0:0:0:
136,256,53189,2,0,B|212:228|240:156,1,150,4|0,2:0|0:0,0:0:0:0:
304,100,53716,1,2,2:0:0:0:
384,84,53891,1,0,0:0:0:0:
460,120,54067,2,0,B|500:192|460:264,1,150,2|0,2:0|0:0,0:0:0:0:
336,248,54593,6,0,B|256:248|208:316,1,150,6|0,2:0|0:0,0:0:0:0:
136,352,55119,1,0,0:0:0:0:
60,316,55295,1,0,0:0:0:0:
4,192,55470,2,0,B|80:164|104:88,1,150,6|0,2:0|0:0,0:0:0:0:
232,88,55996,6,0,B|252:168|328:196,1,150,4|0,2:0|0:0,0:0:0:0:
412,196,56523,2,0,B|444:180|464:140,1,75,0|0,0:0|0:0,0:0:0:0:
368,272,56874,2,0,B|328:344|244:344,1,150,10|0,0:0|0:0,0:0:0:0:
136,252,57400,2,0,B|84:192|4:192,1,150,2|8,0:0|0:0,0:0:0:0:
8,276,57926,2,0,B|8:312|36:344,1,75,0|0,0:0|0:0,0:0:0:0:
136,252,58277,1,8,0:0:0:0:
136,252,58453,2,0,B|188:188|148:112,1,150,0|0,0:0|0:0,0:0:0:0:
0,156,58979,6,0,B|36:172|72:156,1,75,6|0,0:0|0:0,0:0:0:0:
80,72,59330,1,2,0:0:0:0:
152,36,59505,1,2,0:0:0:0:
232,60,59681,2,0,B|276:124|360:124,1,150,10|2,0:0|0:0,0:0:0:0:
508,76,60207,2,0,B|492:40|452:28,2,75,6|0|8,0:0|0:0|0:0,0:0:0:0:
460,144,60733,2,0,B|384:184|384:264,1,150,8|8,0:0|0:0,0:0:0:0:
436,328,61260,1,8,0:0:0:0:
500,276,61435,1,0,0:0:0:0:
324,328,61786,6,0,B|272:356|216:328,1,112.500004291535,6|0,0:0|0:0,0:0:0:0:
160,264,62312,1,2,0:0:0:0:
84,224,62488,2,0,B|28:240|4:296,1,112.500004291535,10|2,0:0|0:0,0:0:0:0:
160,264,63014,2,0,P|168:208|136:160,1,112.500004291535,2|0,0:0|0:0,0:0:0:0:
68,120,63540,2,0,B|68:60|124:28,1,112.500004291535,10|8,0:0|0:0,0:0:0:0:
204,56,64067,2,0,L|204:112,2,56.2500021457673,2|2|2,0:0|0:0|0:0,0:0:0:0:
284,28,64593,6,0,B|340:60|340:120,1,112.500004291535,10|0,0:0|0:0,0:0:0:0:
276,176,65119,1,0,0:0:0:0:
208,284,65295,2,0,B|200:256|208:228,1,56.2500021457673,10|0,0:0|0:0,0:0:0:0:
276,176,65646,1,0,0:0:0:0:
260,344,65821,2,0,B|236:368|180:368|156:344,1,112.500004291535,10|8,0:0|0:0,0:0:0:0:
96,284,66347,1,2,0:0:0:0:
24,236,66523,2,0,B|8:260|8:292,1,56.2500021457673,10|8,0:0|0:0,0:0:0:0:
100,200,66874,2,0,B|116:176|116:144,2,56.2500021457673,10|2|0,0:0|0:0|0:0,0:0:0:0:
64,84,67400,6,0,P|116:64|168:84,1,112.500004291535,8|0,0:0|0:0,0:0:0:0:
232,136,67926,1,8,0:0:0:0:
296,192,68102,2,0,B|352:220|404:192,1,112.500004291535,8|0,0:0|0:0,0:0:0:0:
508,128,68628,2,0,B|484:116|453:127,1,56.2500021457673,2|0,0:0|0:0,0:0:0:0:
452,256,68979,2,0,B|472:240|480:208,1,56.2500021457673,2|0,0:0|0:0,0:0:0:0:
368,292,69330,6,0,B|388:328|424:340,1,75,10|0,0:0|0:0,0:0:0:0:
288,256,69681,2,0,B|252:256|220:284,1,75,10|0,0:0|0:0,0:0:0:0:
108,364,70031,6,0,B|28:364|0:276,1,150,4|0,0:0|0:0,0:0:0:0:
16,196,70558,1,8,0:0:0:0:
88,160,70733,1,0,0:0:0:0:
160,200,70909,2,0,B|176:236|160:272,1,75,10|2,0:0|0:0,0:0:0:0:
88,160,71260,2,0,B|72:124|88:88,1,75,8|10,0:0|0:0,0:0:0:0:
156,40,71610,1,8,0:0:0:0:
236,16,71786,1,0,0:0:0:0:
316,40,71961,2,0,B|356:40|384:68,1,75,8|2,0:0|0:0,0:0:0:0:
460,96,72312,2,0,B|470:57|450:23,2,75,10|10|10,0:0|0:0|0:0,0:0:0:0:
392,148,72839,6,0,B|352:208|392:280,1,140.625005364418,2|0,0:0|0:0,0:0:0:0:
408,320,73365,6,0,B|332:356|264:320,1,150,4|0,0:0|0:0,0:0:0:0:
196,276,73891,1,0,0:0:0:0:
124,320,74067,1,8,0:0:0:0:
196,196,74242,6,0,B|236:124|196:64,1,140.625005364418,2|0,0:0|0:0,0:0:0:0:
164,36,74768,6,0,B|84:36|32:96,1,150,4|8,0:0|0:0,0:0:0:0:
96,152,75295,1,8,0:0:0:0:
124,228,75470,1,8,0:0:0:0:
52,276,75646,2,0,L|0:332,1,75,10|0,0:0|0:0,0:0:0:0:
124,320,75996,2,0,L|180:372,1,75,10|0,0:0|0:0,0:0:0:0:
200,276,76347,2,0,L|252:220,1,75,10|0,0:0|0:0,0:0:0:0:
124,228,76698,2,0,L|68:176,1,75,10|0,0:0|0:0,0:0:0:0:
200,276,77049,6,0,B|268:316|344:276,1,150,4|0,0:0|0:0,0:0:0:0:
440,192,77575,1,8,0:0:0:0:
452,272,77751,1,0,0:0:0:0:
356,192,77926,1,10,0:0:0:0:
400,120,78102,2,0,L|464:76,1,75,8|8,0:0|0:0,0:0:0:0:
312,120,78453,2,0,B|236:159|168:119,1,150,4|0,0:0|0:0,0:0:0:0:
100,72,78979,2,0,L|68:92,3,37.5,10|0|10|0,0:0|0:0|0:0|0:0,0:0:0:0:
40,124,79330,2,0,L|40:164,3,37.5,10|0|10|0,0:0|0:0|0:0|0:0,0:0:0:0:
40,204,79681,1,10,0:0:0:0:
104,336,79856,6,0,B|164:276|240:276,1,150,4|0,0:0|0:0,0:0:0:0:
372,340,80382,2,0,B|396:328|424:276|396:224|372:212,1,150,10|10,0:0|0:0,0:0:0:0:
256,112,80909,1,10,0:0:0:0:
256,112,81260,6,0,B|184:72|112:112,1,150,4|0,0:0|0:0,0:0:0:0:
48,164,81786,2,0,B|24:136|32:92,1,75,8|0,0:0|0:0,0:0:0:0:
128,196,82137,1,2,0:0:0:0:
104,276,82312,1,0,0:0:0:0:
212,176,82488,1,10,0:0:0:0:
164,340,82663,2,0,B|236:376|308:340,1,150,6|2,0:0|0:0,0:0:0:0:
372,288,83189,1,8,0:0:0:0:
460,168,83365,2,0,B|432:96|344:84,1,150,6|8,0:0|0:0,0:0:0:0:
268,112,83891,1,8,0:0:0:0:
212,176,84067,1,0,0:0:0:0:
104,276,84242,6,0,B|72:256|64:216,1,75,6|0,0:0|0:0,0:0:0:0:
88,92,84593,2,0,B|120:112|128:152,1,75,10|0,0:0|0:0,0:0:0:0:
104,276,84944,2,0,L|52:332,2,75,10|2|8,0:0|0:0|0:0,0:0:0:0:
212,176,85470,2,0,B|284:140|356:176,1,150,6|0,0:0|0:0,0:0:0:0:
424,224,85996,2,0,B|432:264|464:288,2,75,8|0|8,0:0|0:0|0:0,0:0:0:0:
404,76,86523,2,0,B|484:92|508:172,1,150,6|0,0:0|0:0,0:0:0:0:
462,286,87049,6,0,B|448:324|408:336,1,75,6|2,0:0|0:0,0:0:0:0:
332,304,87400,1,10,0:0:0:0:
264,256,87575,2,0,B|192:216|120:252,1,150,10|0,0:0|0:0,0:0:0:0:
56,304,88102,1,8,0:0:0:0:
0,172,88277,2,0,B|44:100|124:100,1,150,6|0,0:0|0:0,0:0:0:0:
196,140,88803,1,8,0:0:0:0:
264,256,88979,2,0,B|336:296|408:260,1,150,6|0,0:0|0:0,0:0:0:0:
464,200,89505,1,8,0:0:0:0:
496,124,89681,1,0,0:0:0:0:
384,56,89856,6,0,L|320:96,2,75,6|2|10,0:0|0:0|0:0,0:0:0:0:
239,69,90382,2,0,P|246:141|308:180,1,150,6|0,0:0|0:0,0:0:0:0:
300,16,90909,1,10,0:0:0:0:
152,64,91084,1,6,0:0:0:0:
152,64,91610,2,0,L|104:64,3,37.5,8|0|8|0,0:0|0:0|0:0|0:0,0:0:0:0:
72,64,91961,2,0,L|12:112,1,75,10|10,0:0|0:0,0:0:0:0:
112,296,92488,6,0,B|184:336|256:296,1,150,6|0,0:0|0:0,0:0:0:0:
308,232,93014,2,0,B|344:216|380:232,1,75,10|0,0:0|0:0,0:0:0:0:
432,296,93365,1,2,0:0:0:0:
504,256,93540,1,2,0:0:0:0:
484,176,93716,1,10,0:0:0:0:
384,52,93891,2,0,B|308:52|256:124,1,150,6|0,0:0|0:0,0:0:0:0:
288,200,94417,1,8,0:0:0:0:
200,312,94593,2,0,B|116:312|76:240,1,150,10|0,0:0|0:0,0:0:0:0:
28,172,95119,1,8,0:0:0:0:
76,104,95295,1,0,0:0:0:0:
224,164,95470,6,0,B|260:164|288:200,1,75,6|0,0:0|0:0,0:0:0:0:
264,348,95821,2,0,B|228:348|200:312,1,75,8|0,0:0|0:0,0:0:0:0:
336,280,96172,2,0,L|412:280,2,75,10|0|10,0:0|0:0|0:0,0:0:0:0:
224,164,96698,2,0,B|156:116|156:36,1,150,6|0,0:0|0:0,0:0:0:0:
236,52,97224,2,0,B|272:64|312:52,1,75,10|0,0:0|0:0,0:0:0:0:
392,36,97575,1,2,0:0:0:0:
468,68,97751,2,0,B|504:136|468:212,1,150,10|0,0:0|0:0,0:0:0:0:
336,280,98277,6,0,B|256:280|208:212,1,150,6|8,0:0|0:0,0:0:0:0:
156,148,98803,1,0,0:0:0:0:
72,148,98979,2,0,L|24:88,2,75,6|2|8,0:0|0:0|0:0,0:0:0:0:
116,220,99505,2,0,B|156:288|120:364,1,150,6|0,0:0|0:0,0:0:0:0:
116,220,100031,2,0,B|184:180|260:216,1,150,8|10,0:0|0:0,0:0:0:0:
368,324,100558,1,2,0:0:0:0:
344,172,100733,1,0,0:0:0:0:
344,172,101084,6,0,B|396:200|452:172,1,112.500004291535,4|0,0:0|0:0,0:0:0:0:
500,104,101610,1,2,0:0:0:0:
436,48,101786,2,0,L|392:12,1,56.2500021457673,10|2,0:0|0:0,0:0:0:0:
300,104,102137,2,0,L|300:48,1,56.2500021457673,2|10,0:0|0:0,0:0:0:0:
164,48,102488,2,0,L|208:12,1,56.2500021457673,0|0,0:0|0:0,0:0:0:0:
212,120,102839,2,0,B|188:144|136:144|108:120,1,112.500004291535,8|10,0:0|0:0,0:0:0:0:
80,40,103365,2,0,B|24:68|20:128,1,112.500004291535,2|0,0:0|0:0,0:0:0:0:
72,260,103891,6,0,L|112:300,1,56.2500021457673,6|2,0:0|0:0,0:0:0:0:
208,264,104242,2,0,L|262:278,1,56.2500021457673,2|2,0:0|0:0,0:0:0:0:
352,228,104593,2,0,L|406:213,1,56.2500021457673,10|2,0:0|0:0,0:0:0:0:
476,168,104944,1,2,0:0:0:0:
372,76,105119,2,0,B|340:28|276:28,1,112.500004291535,10|8,0:0|0:0,0:0:0:0:
216,88,105646,2,0,B|192:92|160:88,1,56.2500021457673,8|0,0:0|0:0,0:0:0:0:
84,48,105996,1,8,0:0:0:0:
16,100,106172,2,0,B|16:160|56:204,1,112.500004291535,8|0,0:0|0:0,0:0:0:0:
228,220,106698,6,0,B|192:168|132:168,1,112.500004291535,6|0,0:0|0:0,0:0:0:0:
144,260,107224,1,0,0:0:0:0:
256,304,107400,2,0,B|308:332|364:304,1,112.500004291535,6|0,0:0|0:0,0:0:0:0:
456,192,107926,1,6,0:0:0:0:
456,192,108453,2,0,B|456:132|404:96,1,112.500004291535,6|8,0:0|0:0,0:0:0:0:
260,180,108979,2,0,B|312:208|368:180,1,112.500004291535,8|4,0:0|0:0,0:0:0:0:
256,192,109417,12,0,113716,0:0:0:0:
