osu file format v12

[General]
AudioFilename: Shumatsu no Fractale.mp3
AudioLeadIn: 0
PreviewTime: 81648
Countdown: 0
SampleSet: Soft
StackLeniency: 0.7
Mode: 0
LetterboxInBreaks: 1

[Editor]
DistanceSpacing: 1
BeatDivisor: 4
GridSize: 4

[Metadata]
Title:Shuumatsu no Fractal (Short Ver.)
TitleUnicode:Shuumatsu no Fractal (Short Ver.)
Artist:Faylan
ArtistUnicode:Faylan
Creator:kusano
Version:Insane
Source:Grisaia no Kajitsu
Tags:front wing eroge opening Amule Melophobia LE FRUIT DE LA GRISAIA
BeatmapID:125936
BeatmapSetID:39527

[Difficulty]
HPDrainRate:6
CircleSize:4
OverallDifficulty:7
ApproachRate:8
SliderMultiplier:2
SliderTickRate:1

[Events]
//Background and Video events
0,0,"amane.jpg",0,0
Video,0,"gurikazi.avi"
//Break Periods
2,14131,24231
//Storyboard Layer 0 (Background)
//Storyboard Layer 1 (Fail)
//Storyboard Layer 2 (Pass)
//Storyboard Layer 3 (Foreground)
//Storyboard Sound Samples
//Background Colour Transformations
3,100,163,162,255

[TimingPoints]
2526,350.877192982456,4,2,1,75,1,0
8315,-100,4,2,1,65,0,0
9543,-100,4,2,1,75,0,0
10245,-100,4,2,1,85,0,0
13841,-100,4,1,1,50,0,0
14017,-100,4,2,1,85,0,0
36385,-100,4,2,1,50,0,0
45947,-100,4,2,1,75,0,0
47613,-100,4,2,1,65,0,0
52613,-100,4,2,1,75,0,0
63052,-133.333333333333,4,1,1,50,0,0
63140,-133.333333333333,4,2,1,70,0,0
65771,-133.333333333333,4,1,1,50,0,0
65947,-133.333333333333,4,2,1,70,0,0
68578,-133.333333333333,4,1,1,50,0,0
68754,-133.333333333333,4,2,1,70,0,0
70596,-100,4,2,1,70,0,0
74104,-133.333333333333,4,2,1,70,0,0
74455,-100,4,2,1,85,0,0
75508,-133.333333333333,4,2,1,70,0,0
75859,-100,4,2,1,85,0,0
79631,-100,4,2,1,95,0,0
81648,-100,4,2,1,90,0,0
82525,-100,4,2,1,85,0,1
92350,-133.333333333333,4,2,1,85,0,0
92876,-100,4,2,1,85,0,0
93754,-100,4,2,1,85,0,1
102350,-100,4,2,1,65,0,0
105157,-100,4,2,1,75,0,0
107964,-100,4,2,1,85,0,0
113052,-100,4,2,1,75,0,0
113403,-100,4,2,1,65,0,0
113754,-100,4,2,1,55,0,0
114104,-100,4,2,1,45,0,0
114455,-100,4,2,1,35,0,0
114806,-100,4,2,1,25,0,0
115157,-100,4,2,1,15,0,0
115508,-100,4,2,1,5,0,0

[Colours]
Combo1 : 255,136,17
Combo2 : 239,67,67
Combo3 : 169,83,255
Combo4 : 247,254,156
Combo5 : 254,135,245

[HitObjects]
368,228,2525,2,0,B|420:212|464:244,2,100,4|0|0,0:0|0:0|0:0,0:0:0:0:
316,312,3052,1,0,0:0:0:0:
176,176,3403,2,0,B|124:188|72:152,2,100
236,96,3929,6,0,B|352:48|412:148,1,200,4|0,0:0|0:0,0:0:0:0:
440,240,4455,1,0,0:0:0:0:
440,240,4631,2,0,B|432:340,2,100
448,140,5157,1,0,0:0:0:0:
336,256,5333,1,0,0:0:0:0:
264,188,5508,6,0,B|156:144|84:232,2,200,4|0|0,0:0|0:0|0:0,0:0:0:0:
336,256,6385,1,0,0:0:0:0:
336,256,6561,1,0,0:0:0:0:
432,232,6736,6,0,B|472:140,1,100,4|0,0:0|0:0,0:0:0:0:
376,116,7087,1,0,0:0:0:0:
376,116,7262,2,0,B|364:16,1,100,0|0,0:0|0:0,0:0:0:0:
268,52,7613,1,0,0:0:0:0:
268,52,7789,2,0,B|156:8|88:108,1,200,4|0,0:0|0:0,0:0:0:0:
92,102,8227,1,0,0:0:0:0:
92,102,8315,6,0,B|76:152|108:196,1,100,12|0,0:0|0:0,0:0:0:0:
188,260,8666,2,0,B|221:216|205:166,1,100,8|0,0:0|0:0,0:0:0:0:
108,196,9017,1,8,0:0:0:0:
288,260,9192,2,0,B|340:276|384:240,1,100,0|8,0:0|0:0,0:0:0:0:
456,172,9543,5,4,0:0:0:0:
456,172,9631,1,0,0:0:0:0:
456,172,9718,1,8,0:0:0:0:
400,88,9894,2,0,B|360:52|296:64,1,100,2|8,0:0|0:0,0:0:0:0:
252,240,10245,2,0,B|288:200|276:136,1,100,2|8,0:0|0:0,0:0:0:0:
156,60,10596,2,0,B|120:100|132:164,1,100,2|8,0:0|0:0,0:0:0:0:
256,192,10947,12,4,13929,0:0:0:0:
120,276,24982,6,0,B|189:222|119:152|197:100,1,200,4|0,0:0|0:0,0:0:0:0:
252,184,25508,2,0,B|312:196|344:152,1,100,8|0,0:0|0:0,0:0:0:0:
220,24,25859,1,0,0:0:0:0:
220,24,26034,2,0,B|160:12|128:56,1,100,0|8,0:0|0:0,0:0:0:0:
52,116,26385,6,0,B|8:220|88:304,1,200,4|0,0:0|0:0,0:0:0:0:
172,252,26911,2,0,B|224:236|272:272,1,100,8|0,0:0|0:0,0:0:0:0:
340,336,27262,1,0,0:0:0:0:
432,296,27438,2,0,B|484:296,2,50,2|0|8,0:0|0:0|0:0,0:0:0:0:
360,228,27789,6,0,B|340:176|376:132,1,100,4|0,0:0|0:0,0:0:0:0:
208,48,28140,1,0,0:0:0:0:
208,48,28315,2,0,B|240:92|220:148,1,100,8|0,0:0|0:0,0:0:0:0:
128,108,28666,2,0,B|68:92|28:140,2,100,2|2|8,0:0|0:0|0:0,0:0:0:0:
164,204,29192,6,0,B|168:312,1,100,4|0,0:0|0:0,0:0:0:0:
340,128,29543,1,0,0:0:0:0:
340,128,29718,2,0,B|288:108|244:140,1,100,8|2,0:0|0:0,0:0:0:0:
308,280,30069,2,0,B|360:300|404:268,1,100,0|2,0:0|0:0,0:0:0:0:
440,176,30420,1,8,0:0:0:0:
424,76,30596,5,4,0:0:0:0:
424,76,30683,1,0,0:0:0:0:
424,76,30771,1,0,0:0:0:0:
252,184,30947,1,2,0:0:0:0:
192,104,31122,1,8,0:0:0:0:
92,116,31297,2,0,B|52:156|68:220,1,100,4|0,0:0|0:0,0:0:0:0:
112,296,31648,1,4,0:0:0:0:
112,296,31736,1,0,0:0:0:0:
112,296,31824,1,8,0:0:0:0:
208,268,31999,6,0,B|256:296|308:260,1,100,4|0,0:0|0:0,0:0:0:0:
328,124,32350,1,0,0:0:0:0:
275,36,32526,2,0,B|322:12|372:32,1,100,12|0,0:0|0:0,0:0:0:0:
380,208,32876,2,0,B|332:232|283:212,1,100,2|0,0:0|0:0,0:0:0:0:
196,116,33227,1,8,0:0:0:0:
176,104,33315,1,0,0:0:0:0:
152,100,33403,1,0,0:0:0:0:
128,104,33490,1,0,0:0:0:0:
104,116,33578,6,0,B|56:148|56:200,1,100,4|0,0:0|0:0,0:0:0:0:
96,292,33929,1,2,0:0:0:0:
184,248,34104,1,0,0:0:0:0:
184,248,34192,1,0,0:0:0:0:
184,248,34280,2,0,B|224:212|284:228,1,100,8|0,0:0|0:0,0:0:0:0:
436,316,34631,2,0,B|382:330|342:294,1,100,2|0,0:0|0:0,0:0:0:0:
250,138,34982,6,0,B|304:124|344:160,2,100,2|0|10,0:0|0:0|0:0,0:0:0:0:
168,80,35508,1,4,0:0:0:0:
168,80,35596,1,0,0:0:0:0:
168,80,35683,1,0,0:0:0:0:
92,144,35859,2,0,B|40:160|-4:120,1,100,4|0,0:0|0:0,0:0:0:0:
80,272,36210,6,0,B|188:224|264:300,1,200,4|0,0:0|0:0,0:0:0:0:
344,240,36736,2,0,B|396:256|440:224,1,100,8|0,0:0|0:0,0:0:0:0:
448,96,37087,2,0,B|396:80|352:112,1,100,8|0,0:0|0:0,0:0:0:0:
264,152,37438,2,0,B|212:168|168:136,1,100,8|0,0:0|0:0,0:0:0:0:
112,52,37789,1,8,0:0:0:0:
112,52,37964,2,0,B|4:52,2,100,0|8|0,0:0|0:0|0:0,0:0:0:0:
192,112,38490,2,0,B|304:160|372:68,1,200,8|8,0:0|0:0,0:0:0:0:
472,76,39017,1,0,0:0:0:0:
472,76,39192,6,0,B|460:192,1,100,8|0,0:0|0:0,0:0:0:0:
364,196,39543,2,0,B|352:312,1,100,8|0,0:0|0:0,0:0:0:0:
256,316,39894,2,0,B|148:368|76:272,1,200,8|8,0:0|0:0,0:0:0:0:
52,180,40420,1,0,0:0:0:0:
152,200,40596,2,0,B|208:188|220:128,1,100,8|0,0:0|0:0,0:0:0:0:
64,44,40947,2,0,B|76:100|136:112,1,100,8|0,0:0|0:0,0:0:0:0:
208,48,41297,1,8,0:0:0:0:
304,24,41473,1,0,0:0:0:0:
400,44,41648,1,8,0:0:0:0:
460,124,41824,1,0,0:0:0:0:
460,124,41999,6,0,B|444:240,1,100,8|0,0:0|0:0,0:0:0:0:
304,296,42350,2,0,B|320:180,1,100,8|0,0:0|0:0,0:0:0:0:
348,100,42701,2,0,B|292:84|248:128,2,100,8|0|8,0:0|0:0|0:0,0:0:0:0:
396,274,43227,1,0,0:0:0:0:
396,274,43403,2,0,B|358:311|302:295,1,100,8|0,0:0|0:0,0:0:0:0:
220,240,43754,2,0,B|108:200|44:300,2,200,8|8|8,0:0|0:0|0:0,0:0:0:0:
304,184,44631,5,0,0:0:0:0:
304,184,44718,1,0,0:0:0:0:
304,184,44806,2,0,B|360:196|404:152,1,100,12|0,0:0|0:0,0:0:0:0:
440,68,45157,1,8,0:0:0:0:
304,184,45333,1,0,0:0:0:0:
232,116,45508,2,0,B|184:88|124:112,2,100,8|0|8,0:0|0:0|0:0,0:0:0:0:
304,184,46034,6,0,B|308:300,1,100,4|0,0:0|0:0,0:0:0:0:
232,348,46385,1,0,0:0:0:0:
156,244,46561,1,8,0:0:0:0:
32,284,46736,1,8,0:0:0:0:
32,284,46824,1,0,0:0:0:0:
32,284,46911,1,0,0:0:0:0:
72,192,47087,2,0,B|84:136|48:96,1,100,4|0,0:0|0:0,0:0:0:0:
204,28,47438,6,0,B|192:80|232:124,1,100,4|0,0:0|0:0,0:0:0:0:
324,160,47789,1,0,0:0:0:0:
404,104,47964,2,0,B|456:84|500:120,1,100,8|0,0:0|0:0,0:0:0:0:
472,260,48315,1,0,0:0:0:0:
472,260,48490,2,0,B|420:280|376:244,1,100,0|8,0:0|0:0,0:0:0:0:
324,160,48841,2,0,B|272:140|228:176,1,100,0|0,0:0|0:0,0:0:0:0:
144,228,49192,1,0,0:0:0:0:
144,228,49368,2,0,B|152:332,1,100,8|0,0:0|0:0,0:0:0:0:
52,156,49718,2,0,B|12:192|24:252,2,100,0|0|8,0:0|0:0|0:0,0:0:0:0:
116,80,50245,5,0,0:0:0:0:
208,120,50420,2,0,B|320:160|388:72,1,200,4|8,0:0|0:0,0:0:0:0:
480,112,50947,1,0,0:0:0:0:
480,112,51122,2,0,B|492:216,1,100,0|0,0:0|0:0,0:0:0:0:
436,296,51473,1,8,0:0:0:0:
356,236,51648,2,0,B|304:220|260:256,1,100,0|0,0:0|0:0,0:0:0:0:
180,308,51999,1,0,0:0:0:0:
180,308,52087,1,0,0:0:0:0:
180,308,52175,2,0,B|128:324|84:288,1,100,8|0,0:0|0:0,0:0:0:0:
32,204,52525,1,8,0:0:0:0:
88,120,52701,1,4,0:0:0:0:
88,120,52789,1,0,0:0:0:0:
88,120,52876,1,0,0:0:0:0:
172,176,53052,6,0,B|228:188|268:144,1,100,4|0,0:0|0:0,0:0:0:0:
172,8,53403,1,0,0:0:0:0:
172,8,53578,2,0,B|160:64|204:104,1,100,8|0,0:0|0:0,0:0:0:0:
288,52,53929,2,0,B|400:12|468:100,1,200,4|8,0:0|0:0,0:0:0:0:
512,188,54455,6,0,B|476:228|476:284,1,100,4|0,0:0|0:0,0:0:0:0:
344,336,54806,1,0,0:0:0:0:
344,336,54982,2,0,B|344:284|308:244,1,100,8|0,0:0|0:0,0:0:0:0:
232,184,55333,2,0,B|180:200|132:160,2,100,2|0|8,0:0|0:0|0:0,0:0:0:0:
320,140,55859,6,0,B|372:156|420:116,1,100,4|0,0:0|0:0,0:0:0:0:
220,32,56210,1,0,0:0:0:0:
220,32,56385,2,0,B|168:16|120:56,1,100,8|0,0:0|0:0,0:0:0:0:
32,88,56736,1,4,0:0:0:0:
32,88,56824,1,0,0:0:0:0:
32,88,56911,2,0,B|0:132|12:184,1,100,0|8,0:0|0:0,0:0:0:0:
108,156,57262,6,0,B|152:216|128:300|64:324,2,200,4|0|0,0:0|0:0|0:0,0:0:0:0:
32,88,58140,1,8,0:0:0:0:
184,216,58315,1,0,0:0:0:0:
244,140,58490,1,0,0:0:0:0:
336,176,58666,6,0,B|456:200|504:96,2,200,2|2|0,0:0|0:0|0:0,0:0:0:0:
244,140,59543,1,8,0:0:0:0:
188,60,59718,2,0,B|136:44|96:80,2,100
288,84,60245,5,4,0:0:0:0:
380,40,60420,1,0,0:0:0:0:
476,68,60596,1,0,0:0:0:0:
504,164,60771,1,0,0:0:0:0:
428,232,60947,2,0,B|388:200|332:208,1,100,8|0,0:0|0:0,0:0:0:0:
228,320,61297,1,0,0:0:0:0:
228,320,61473,2,0,B|260:276|244:220,1,100,8|0,0:0|0:0,0:0:0:0:
200,136,61824,1,0,0:0:0:0:
200,136,61999,2,0,B|92:92|20:184,1,200,0|8,0:0|0:0,0:0:0:0:
40,280,62525,1,0,0:0:0:0:
256,64,62876,1,0,0:0:0:0:
340,112,63052,6,0,B|412:96|492:104,2,149.999995529652,4|0|2,0:0|0:0|0:0,0:0:0:0:
156,44,64104,1,0,0:0:0:0:
156,44,64280,2,0,B|72:28|20:92,1,149.999995529652,2|0,0:0|0:0,0:0:0:0:
132,200,64806,2,0,B|136:160|108:124,1,74.9999977648259,2|0,0:0|0:0,0:0:0:0:
40,196,65157,1,0,0:0:0:0:
60,292,65333,1,2,0:0:0:0:
144,344,65508,1,2,0:0:0:0:
240,340,65683,1,0,0:0:0:0:
324,288,65859,6,0,B|408:264|464:324,1,149.999995529652,4|0,0:0|0:0,0:0:0:0:
376,176,66385,1,0,0:0:0:0:
376,176,66561,2,0,B|292:200|236:140,1,149.999995529652,2|0,0:0|0:0,0:0:0:0:
172,72,67087,2,0,B|92:44|28:96,2,149.999995529652,2|0|2,0:0|0:0|0:0,0:0:0:0:
260,116,67964,1,0,0:0:0:0:
260,116,68140,1,0,0:0:0:0:
332,52,68315,2,0,B|368:40|416:40,1,74.9999977648259,0|0,0:0|0:0,0:0:0:0:
492,88,68666,6,0,B|512:164|456:232,1,149.999995529652,4|0,0:0|0:0,0:0:0:0:
396,304,69192,1,0,0:0:0:0:
396,304,69368,2,0,B|332:264|244:284,1,149.999995529652,2|0,0:0|0:0,0:0:0:0:
192,204,69894,2,0,B|108:228|60:152,1,149.999995529652,2|0,0:0|0:0,0:0:0:0:
72,60,70420,1,0,0:0:0:0:
160,108,70596,6,0,B|212:124|256:92,1,100,4|0,0:0|0:0,0:0:0:0:
340,40,70947,2,0,B|392:24|436:56,1,100,4|0,0:0|0:0,0:0:0:0:
508,124,71297,5,4,0:0:0:0:
508,124,71385,1,0,0:0:0:0:
508,124,71473,2,0,B|520:176|496:228,1,100,0|0,0:0|0:0,0:0:0:0:
420,284,71824,2,0,B|312:264,1,100,8|0,0:0|0:0,0:0:0:0:
284,172,72175,2,0,B|176:124|104:212,2,200,0|8|0,0:0|0:0|0:0,0:0:0:0:
380,196,73052,1,0,0:0:0:0:
464,144,73227,2,0,B|476:88|440:48,1,100,8|0,0:0|0:0,0:0:0:0:
216,104,73578,2,0,B|160:112|120:76,2,100,2|0|8,0:0|0:0|0:0,0:0:0:0:
284,172,74104,6,0,B|312:224|256:272|288:328,1,149.999995529652,2|0,0:0|0:0,0:0:0:0:
283,318,74543,1,0,0:0:0:0:
283,318,74631,1,4,0:0:0:0:
172,240,74806,6,0,B|116:244|83:203,1,100,0|0,0:0|0:0,0:0:0:0:
72,104,75157,1,0,0:0:0:0:
172,116,75333,1,8,0:0:0:0:
240,44,75508,6,0,B|304:44|304:44|324:32|324:32|396:32,1,149.999995529652,2|0,0:0|0:0,0:0:0:0:
386,32,75947,1,0,0:0:0:0:
386,32,76034,1,4,0:0:0:0:
460,96,76210,5,0,0:0:0:0:
364,128,76385,2,0,B|328:168|340:228,1,100
376,316,76736,1,8,0:0:0:0:
376,316,76911,6,0,B|264:300,1,100,4|0,0:0|0:0,0:0:0:0:
180,284,77262,1,4,0:0:0:0:
180,284,77350,1,0,0:0:0:0:
180,284,77438,1,0,0:0:0:0:
108,124,77613,2,0,B|206:109,1,100,4|0,0:0|0:0,0:0:0:0:
336,88,77964,1,4,0:0:0:0:
336,88,78052,1,0,0:0:0:0:
336,88,78140,1,0,0:0:0:0:
432,120,78315,6,0,B|444:228,1,100,4|0,0:0|0:0,0:0:0:0:
348,308,78666,1,0,0:0:0:0:
348,308,78841,2,0,B|304:280|244:280,1,100,8|0,0:0|0:0,0:0:0:0:
80,208,79192,1,8,0:0:0:0:
80,208,79368,2,0,B|130:208|174:180,1,100,8|0,0:0|0:0,0:0:0:0:
216,88,79718,6,0,B|260:59|310:59,1,100,4|0,0:0|0:0,0:0:0:0:
412,72,80069,1,8,0:0:0:0:
324,240,80245,2,0,B|295:195|295:145,1,100,4|0,0:0|0:0,0:0:0:0:
308,48,80596,5,8,0:0:0:0:
420,200,80771,1,4,0:0:0:0:
228,220,80947,1,0,0:0:0:0:
316,144,81122,1,4,0:0:0:0:
96,284,81473,5,0,0:0:0:0:
96,284,81648,2,0,B|144:256|148:200,1,100,4|0,0:0|0:0,0:0:0:0:
28,68,81999,1,4,0:0:0:0:
28,68,82175,2,0,B|56:116|112:120,1,100,4|0,0:0|0:0,0:0:0:0:
208,120,82525,6,0,B|300:64|400:100,1,200,4|0,0:0|0:0,0:0:0:0:
476,164,83052,2,0,B|440:200|444:264,1,100,8|0,0:0|0:0,0:0:0:0:
376,328,83403,1,2,0:0:0:0:
320,192,83578,1,0,0:0:0:0:
192,268,83754,1,8,0:0:0:0:
128,192,83929,6,0,B|76:208|32:176,1,100,4|0,0:0|0:0,0:0:0:0:
180,32,84280,1,0,0:0:0:0:
180,32,84455,2,0,B|232:12|276:44,1,100,8|4,0:0|0:0,0:0:0:0:
352,108,84806,1,0,0:0:0:0:
352,108,84894,1,0,0:0:0:0:
352,108,84982,2,0,B|464:108,2,100,0|8|0,0:0|0:0|0:0,0:0:0:0:
256,144,85508,6,0,B|240:196|268:240,1,100,4|0,0:0|0:0,0:0:0:0:
408,296,85859,2,0,B|424:244|396:200,1,100,8|0,0:0|0:0,0:0:0:0:
268,240,86210,2,0,P|231:205|183:192,1,100,4|0,0:0|0:0,0:0:0:0:
88,208,86561,1,8,0:0:0:0:
8,132,86736,5,4,0:0:0:0:
8,132,86824,1,0,0:0:0:0:
8,132,86911,1,0,0:0:0:0:
80,60,87087,1,0,0:0:0:0:
168,104,87262,2,0,B|220:116|260:80,1,100,8|0,0:0|0:0,0:0:0:0:
432,132,87613,1,2,0:0:0:0:
432,132,87789,2,0,B|380:120|340:156,1,100,4|8,0:0|0:0,0:0:0:0:
256,208,88140,5,0,0:0:0:0:
256,208,88227,1,0,0:0:0:0:
256,208,88315,2,0,B|204:220|164:184,2,100,4|0|8,0:0|0:0|0:0,0:0:0:0:
348,252,88841,1,4,0:0:0:0:
348,252,88929,1,0,0:0:0:0:
348,252,89017,2,0,B|400:240|440:276,1,100
368,348,89368,1,8,0:0:0:0:
256,208,89543,6,0,B|148:160|76:248,1,200,4|0,0:0|0:0,0:0:0:0:
76,348,90069,1,8,0:0:0:0:
164,300,90245,1,4,0:0:0:0:
164,300,90333,1,0,0:0:0:0:
164,300,90420,2,0,B|216:284|260:316,1,100,0|8,0:0|0:0,0:0:0:0:
344,260,90771,2,0,B|396:276|440:244,1,100,8|0,0:0|0:0,0:0:0:0:
372,80,91122,5,4,0:0:0:0:
372,80,91297,2,0,B|320:64|276:96,1,100,0|8,0:0|0:0,0:0:0:0:
196,156,91648,1,4,0:0:0:0:
180,156,91736,1,0,0:0:0:0:
164,156,91824,1,0,0:0:0:0:
148,156,91911,1,0,0:0:0:0:
132,156,91999,2,0,B|24:156,1,100,0|8,0:0|0:0,0:0:0:0:
28,244,92350,2,4,B|24:332|112:356,1,150,8|0,0:0|0:0,0:0:0:0:
132,256,92876,5,4,0:0:0:0:
132,256,92964,1,0,0:0:0:0:
132,256,93052,1,0,0:0:0:0:
244,196,93227,1,8,0:0:0:0:
332,288,93403,2,0,B|384:304|428:272,1,100,8|0,0:0|0:0,0:0:0:0:
300,76,93754,6,0,B|192:28|120:116,1,200,4|0,0:0|0:0,0:0:0:0:
48,184,94280,2,0,B|80:224|76:288,1,100,8|0,0:0|0:0,0:0:0:0:
156,336,94631,2,0,B|200:308|252:316,1,100,4|0,0:0|0:0,0:0:0:0:
364,200,94982,1,8,0:0:0:0:
364,200,95157,6,0,B|408:228|460:220,2,100,4|0|0,0:0|0:0|0:0,0:0:0:0:
316,112,95683,1,8,0:0:0:0:
220,136,95859,1,4,0:0:0:0:
220,136,95947,1,0,0:0:0:0:
220,136,96034,2,0,B|168:152|124:116,1,100
36,256,96385,2,0,B|88:240|132:276,1,100,8|0,0:0|0:0,0:0:0:0:
216,224,96736,6,0,B|324:272|396:184,2,200,4|8|4,0:0|0:0|0:0,0:0:0:0:
128,172,97613,1,0,0:0:0:0:
156,76,97789,1,8,0:0:0:0:
252,108,97964,6,0,B|304:124|352:88,1,100,4|0,0:0|0:0,0:0:0:0:
452,208,98315,1,0,0:0:0:0:
452,208,98403,1,0,0:0:0:0:
452,208,98490,2,0,B|400:192|352:228,1,100,4|0,0:0|0:0,0:0:0:0:
268,272,98841,1,8,0:0:0:0:
268,272,99017,2,0,B|160:320|88:232,1,200,4|0,0:0|0:0,0:0:0:0:
92,132,99543,6,0,B|86:78|36:40,2,100,4|0|8,0:0|0:0|0:0,0:0:0:0:
176,188,100069,1,0,0:0:0:0:
268,144,100245,1,4,0:0:0:0:
268,144,100420,2,0,B|312:116|364:120,1,100,0|8,0:0|0:0,0:0:0:0:
440,248,100771,5,4,0:0:0:0:
440,248,100859,1,0,0:0:0:0:
440,248,100947,2,0,B|396:220|344:224,1,100
248,248,101297,2,0,B|204:276|152:272,1,100,8|0,0:0|0:0,0:0:0:0:
104,184,101648,2,0,B|48:168|0:192,2,100,4|0|8,0:0|0:0|0:0,0:0:0:0:
448,136,102350,6,0,B|448:80|400:52,1,100,4|0,0:0|0:0,0:0:0:0:
304,40,102701,2,0,B|260:108|348:160|296:240,1,200,2|10,0:0|0:0,0:0:0:0:
212,284,103227,1,0,0:0:0:0:
160,200,103403,2,0,B|104:184|60:224,1,100,2|0,0:0|0:0,0:0:0:0:
180,372,103754,2,0,B|236:388|280:348,1,100,2|0,0:0|0:0,0:0:0:0:
348,284,104104,2,0,B|404:268|448:308,1,100,2|0,0:0|0:0,0:0:0:0:
348,116,104455,1,10,0:0:0:0:
348,116,104631,2,0,B|240:156|164:72,1,200,4|0,0:0|0:0,0:0:0:0:
72,224,105157,6,0,B|180:184|256:268,1,200,4|2,0:0|0:0,0:0:0:0:
336,208,105683,1,0,0:0:0:0:
336,208,105859,2,0,B|392:224|436:184,1,100,10|0,0:0|0:0,0:0:0:0:
292,44,106210,2,0,B|236:28|192:68,1,100,2|0,0:0|0:0,0:0:0:0:
128,136,106561,1,2,0:0:0:0:
128,136,106736,2,0,B|16:136,2,100,0|2|0,0:0|0:0|0:0,0:0:0:0:
200,204,107262,1,10,0:0:0:0:
288,160,107438,2,0,B|336:124,2,50,4|0|0,0:0|0:0|0:0,0:0:0:0:
288,260,107789,1,0,0:0:0:0:
288,260,107964,6,0,B|396:300|468:212,1,200,4|2,0:0|0:0,0:0:0:0:
480,112,108490,1,0,0:0:0:0:
416,36,108666,1,12,0:0:0:0:
320,68,108842,1,2,0:0:0:0:
320,68,108929,1,0,0:0:0:0:
320,68,109017,2,0,B|212:68,1,100,8|8,0:0|0:0,0:0:0:0:
208,300,109718,6,0,B|256:324|304:300,1,100,4|0,0:0|0:0,0:0:0:0:
256,192,110069,1,0,0:0:0:0:
256,192,110157,1,0,0:0:0:0:
256,192,110245,2,0,B|256:76,2,100,0|2|4,0:0|0:0|0:0,0:0:0:0:
256,192,110683,12,0,115859,0:0:0:0:
