osu file format v12

[General]
AudioFilename: snf.mp3
AudioLeadIn: 2000
PreviewTime: 80358
Countdown: 0
SampleSet: Soft
StackLeniency: 0.7
Mode: 0
LetterboxInBreaks: 0

[Editor]
DistanceSpacing: 1.1
BeatDivisor: 4
GridSize: 4

[Metadata]
Title:Shuumatsu no Fractal (Short Ver.)
TitleUnicode:終末のフラクタル (Short Ver.)
Artist:Faylan
ArtistUnicode:飛蘭
Creator:MiLu
Version:Insane
Source:Grisaia no Kajitsu
Tags:frontwing opening le fruit de la grisaia ryafuka nanakase gizumo sakik cryo[iceeicee]
BeatmapID:236973
BeatmapSetID:86557

[Difficulty]
HPDrainRate:7
CircleSize:4
OverallDifficulty:8
ApproachRate:9
SliderMultiplier:2
SliderTickRate:1

[Events]
//Background and Video events
0,0,"BG.jpg",0,0
Video,-400,"Movie.avi"
//Break Periods
2,12911,23164
//Storyboard Layer 0 (Background)
//Storyboard Layer 1 (Fail)
//Storyboard Layer 2 (Pass)
//Storyboard Layer 3 (Foreground)
//Storyboard Sound Samples
//Background Colour Transformations
3,100,163,162,255

[TimingPoints]
-95,350.877192982456,4,2,1,60,1,0
1220,-133.333333333333,4,1,1,60,0,0
7097,-100,4,1,1,60,0,0
9729,-200,4,1,1,60,0,0
9817,-200,4,2,1,10,0,0
11133,-100,4,1,1,30,0,0
11308,-100,4,1,1,35,0,0
11483,-100,4,1,1,40,0,0
11659,-100,4,1,1,45,0,0
11834,-100,4,1,1,50,0,0
12010,-100,4,1,1,55,0,0
23676,-100,4,1,1,60,0,0
32273,-100,4,2,1,50,0,0
34203,-200,4,1,1,40,0,0
34554,-133.333333333333,4,1,1,50,0,0
34904,-100,4,1,1,50,0,0
35080,-100,4,1,1,60,0,0
45519,-100,4,1,1,50,0,0
45606,-100,4,1,1,60,0,0
45782,-100,4,1,1,50,0,0
45957,-100,4,1,1,60,0,0
46133,-100,4,1,1,50,0,0
46308,-100,4,1,1,60,0,0
48589,-100,4,1,1,40,0,0
48764,-100,4,1,1,60,0,0
52624,-100,4,1,1,50,0,0
52799,-100,4,1,1,60,0,0
53150,-100,4,1,1,50,0,0
53326,-100,4,1,1,60,0,0
54554,-100,4,1,1,50,0,0
54729,-100,4,1,1,60,0,0
55431,-100,4,1,1,50,0,0
55606,-100,4,1,1,60,0,0
55957,-133.333333333333,4,1,1,60,0,0
61747,-133.333333333333,4,2,1,40,0,0
61922,-133.333333333333,4,2,1,50,0,0
64554,-133.333333333333,4,2,1,40,0,0
64729,-133.333333333333,4,2,1,50,0,0
67361,-133.333333333333,4,2,1,40,0,0
67536,-133.333333333333,4,2,1,50,0,0
69992,-100,4,1,1,50,0,0
70168,-100,4,1,1,60,0,0
72799,-200,4,2,1,60,0,0
72975,-200,4,2,1,40,0,0
73413,-100,4,1,1,60,0,0
74203,-200,4,2,1,40,0,0
74817,-200,4,1,1,60,0,0
75080,-200,4,2,1,60,0,0
75606,-200,4,1,1,50,0,0
76308,-133.333333333333,4,1,1,55,0,0
77010,-100,4,1,1,60,0,0
81308,-100,4,1,1,70,0,1
91133,-200,4,1,1,70,0,0
91220,-200,4,2,1,60,0,0
91659,-100,4,1,1,70,0,0
92536,-100,4,1,1,70,0,1
101133,-133.333333333333,4,2,1,60,0,0
103852,-133.333333333333,4,2,1,50,0,0
104027,-133.333333333333,4,2,1,60,0,0
106659,-133.333333333333,4,2,1,50,0,0
106834,-133.333333333333,4,2,1,60,0,0
109466,-133.333333333333,4,2,1,30,0,0
113764,-133.333333333333,4,2,1,5,0,0

[Colours]
Combo1 : 0,128,192
Combo2 : 232,0,116
Combo3 : 255,255,0
Combo4 : 255,155,255

[HitObjects]
80,328,1308,2,0,P|180:360|276:296,1,225.000008583069,4|0,0:2|2:0,0:0:0:0:
432,56,2712,2,0,P|332:24|236:88,1,225.000008583069,4|0,0:2|2:0,0:0:0:0:
80,328,4115,5,0,0:0:0:0:
80,328,4290,2,0,P|144:316|176:244,1,150.000005722046,4|0,0:2|2:0,0:0:0:0:
136,84,4992,1,0,2:0:0:0:
432,56,5519,2,0,P|344:92|344:208,1,225.000008583069,4|0,0:2|2:0,0:0:0:0:
408,328,6396,5,0,2:0:0:0:
408,328,6571,2,0,L|256:316,1,150.000005722046,0|0,0:0|1:0,0:0:0:0:
240,288,7010,1,0,0:0:0:0:
252,256,7097,2,0,B|264:208|264:208|256:156,1,100,0|0,0:0|2:0,0:0:0:0:
176,30,7448,2,0,B|164:78|164:78|172:128,1,100,0|0,0:0|2:0,0:0:0:0:
96,292,7799,2,0,B|138:266|138:266|168:225,1,100,0|0,0:0|2:0,0:0:0:0:
72,172,8150,1,0,0:0:0:0:
256,80,8326,2,0,B|300:64|300:64|352:72,1,100,0|0,0:0|2:0,0:0:0:0:
500,296,8676,2,0,L|399:279,1,100,0|0,0:0|2:0,0:0:0:0:
252,256,9027,5,0,0:0:0:0:
256,220,9115,1,0,2:0:0:0:
260,184,9203,1,0,2:0:0:0:
160,36,9378,1,0,0:0:0:0:
12,140,9554,1,0,2:0:0:0:
16,176,9641,1,0,2:0:0:0:
20,212,9729,6,0,P|100:352|256:268,1,375,0|0,0:0|0:0,0:0:0:0:
256,252,11133,5,0,0:0:0:0:
256,236,11220,1,0,0:0:0:0:
256,220,11308,1,0,0:0:0:0:
256,204,11396,1,0,0:0:0:0:
256,188,11483,1,0,0:0:0:0:
256,172,11571,1,0,0:0:0:0:
256,156,11659,1,0,0:0:0:0:
256,140,11747,1,0,0:0:0:0:
256,124,11834,1,0,0:0:0:0:
256,108,11922,1,0,0:0:0:0:
256,92,12010,6,0,L|244:56,16,25,0|0|0|0|0|0|0|0|0|0|0|0|0|0|0|0|4,0:0|0:0|0:0|0:0|0:0|0:0|0:0|0:0|0:0|0:0|0:0|0:0|0:0|0:0|0:0|0:0|0:0,0:0:0:0:
260,40,23764,6,0,B|268:108|268:108|244:160|244:160|252:236,1,200,4|0,0:2|0:2,0:0:0:0:
348,180,24290,2,0,B|368:136|368:136|360:80,1,100,8|0,0:0|0:0,0:0:0:0:
140,232,24641,2,0,L|152:336,1,100,2|2,0:2|0:2,0:0:0:0:
344,280,24992,1,8,0:0:0:0:
480,36,25168,6,0,P|392:84|300:60,1,200,2|0,0:2|0:0,0:0:0:0:
240,164,25694,2,0,P|160:140|96:156,1,150,8|0,0:0|0:0,0:0:0:0:
64,188,26045,1,2,0:2:0:0:
176,60,26220,1,2,0:2:0:0:
156,336,26396,2,0,L|108:324,1,50,8|0,0:0|0:0,0:0:0:0:
160,264,26571,6,0,P|252:240|344:280,1,200,4|0,0:2|0:0,0:0:0:0:
344,180,27097,1,8,0:0:0:0:
248,328,27273,1,0,0:0:0:0:
156,176,27448,2,0,P|132:132|92:100,1,100,2|2,0:2|0:2,0:0:0:0:
80,328,27799,1,8,0:0:0:0:
248,204,27975,6,0,P|252:124|272:56,1,150,4|0,0:2|0:0,0:0:0:0:
300,28,28326,1,2,0:2:0:0:
344,180,28501,1,8,0:0:0:0:
156,176,28676,1,2,0:2:0:0:
142,203,28764,1,0,0:0:0:0:
140,232,28852,1,2,0:2:0:0:
256,352,29027,1,0,0:2:0:0:
436,328,29203,5,8,0:0:0:0:
464,152,29378,2,0,B|472:104|472:104|464:52,1,100,4|0,0:2|0:0,0:0:0:0:
344,180,29729,2,0,B|358:228|358:228|387:270,1,100,2|8,0:2|0:0,0:0:0:0:
304,108,30080,2,0,B|267:68|267:68|224:52,1,100,4|0,0:2|0:0,0:0:0:0:
92,176,30431,2,0,B|116:132|116:132|126:83,1,100,2|8,0:2|0:0,0:0:0:0:
304,108,30782,6,0,P|256:192|276:288,1,200,4|0,0:2|0:0,0:0:0:0:
396,124,31308,2,0,P|384:72|356:36,1,100,8|0,0:0|0:0,0:0:0:0:
184,88,31659,1,2,0:2:0:0:
28,228,31834,2,0,P|111:253|182:175,1,200,2|0,0:2|0:0,0:0:0:0:
104,128,32361,5,4,1:2:0:0:
184,88,32536,1,0,0:0:0:0:
260,136,32712,1,2,0:0:0:0:
340,100,32887,1,2,0:0:0:0:
334,190,33062,1,0,0:0:0:0:
254,230,33238,1,0,0:0:0:0:
181,177,33413,1,2,0:0:0:0:
264,48,33589,1,0,0:0:0:0:
416,148,33764,5,0,1:0:0:0:
420,168,33852,1,0,0:0:0:0:
424,188,33940,1,0,0:0:0:0:
428,208,34027,1,0,0:0:0:0:
432,228,34115,1,2,1:2:0:0:
416,340,34290,6,0,P|392:348|368:352,1,50,4|0,0:0|2:0,0:0:0:0:
336,284,34641,6,0,P|304:308|292:340,1,75.0000028610231,4|0,0:0|2:0,0:0:0:0:
192,360,34992,6,0,P|220:268|180:176,1,200,4|0,0:0|2:0,0:0:0:0:
48,248,35519,2,0,P|40:196|48:148,1,100,0|0,0:0|2:0,0:0:0:0:
256,32,35869,2,0,P|264:84|256:132,1,100,0|0,0:0|2:0,0:0:0:0:
40,356,36220,2,0,P|81:323|126:306,1,100,0|0,0:0|2:0,0:0:0:0:
420,234,36571,6,0,P|379:267|336:284,1,100,0|0,0:0|2:0,0:0:0:0:
80,64,36922,2,0,P|129:83|166:114,1,100,0|0,0:0|2:0,0:0:0:0:
421,234,37273,1,0,0:0:0:0:
360,172,37448,2,0,P|336:128|344:80,1,100,2|0,0:2|2:0,0:0:0:0:
476,168,37799,1,0,0:0:0:0:
432,320,37975,6,0,L|340:272,1,100,2|0,0:2|2:0,0:0:0:0:
80,64,38326,2,0,L|172:112,1,100,0|0,0:0|2:0,0:0:0:0:
236,360,38676,2,0,B|228:308|228:308|236:256,1,100,0|0,0:0|2:0,0:0:0:0:
276,24,39027,2,0,B|284:76|284:76|276:128,1,100,0|0,0:0|2:0,0:0:0:0:
56,204,39378,6,0,B|104:192|104:192|152:212,1,100,0|0,0:0|2:0,0:0:0:0:
456,180,39729,2,0,B|408:192|408:192|360:172,1,100,0|0,0:0|2:0,0:0:0:0:
416,100,40080,1,0,0:0:0:0:
504,256,40255,2,0,P|504:308|476:344,1,100,2|0,0:2|2:0,0:0:0:0:
332,352,40606,5,0,0:0:0:0:
296,348,40694,1,0,2:0:0:0:
260,344,40782,2,0,B|248:296|248:296|256:244,1,100,2|0,0:2|2:0,0:0:0:0:
252,40,41133,2,0,B|264:88|264:88|256:140,1,100,0|0,0:0|2:0,0:0:0:0:
144,276,41483,2,4,B|95:284|95:284|47:272,1,100,0|0,0:0|2:0,0:0:0:0:
368,108,41834,2,4,B|417:100|417:100|465:112,1,100,0|0,0:0|2:0,0:0:0:0:
388,232,42185,6,0,P|420:272|464:292,1,100,0|0,0:0|2:0,0:0:0:0:
124,152,42536,2,0,P|92:112|48:92,1,100,0|0,0:0|2:0,0:0:0:0:
180,240,42887,1,2,0:2:0:0:
132,48,43062,1,2,0:2:0:0:
180,240,43238,1,0,2:0:0:0:
224,32,43413,5,0,0:0:0:0:
232,60,43501,1,0,0:0:0:0:
240,88,43589,2,0,P|276:116|328:120,1,100,2|0,0:2|2:0,0:0:0:0:
384,284,43940,2,0,L|392:184,1,100,0|0,0:0|2:0,0:0:0:0:
240,88,44290,2,0,L|232:188,1,100,0|0,0:0|2:0,0:0:0:0:
288,260,44641,1,0,0:0:0:0:
424,104,44817,6,0,P|344:64|240:88,1,200,4|0,0:2|0:0,0:0:0:0:
252,224,45343,1,0,0:0:0:0:
252,224,45431,1,0,0:0:0:0:
252,224,45519,2,0,P|244:276|216:312,1,100,8|0,0:0|2:0,0:0:0:0:
52,300,45869,2,0,P|104:308|140:336,1,100,8|0,0:0|2:0,0:0:0:0:
148,64,46220,6,0,P|132:168|161:256,1,200,4|0,0:2|0:0,0:0:0:0:
252,224,46747,2,0,P|264:180|260:124,1,100,0|0,2:2|0:0,0:0:0:0:
36,204,47097,1,2,0:2:0:0:
52,300,47273,2,0,P|92:328|144:336,1,100
264,320,47624,6,0,P|248:272|252:224,1,100,0|2,2:0|0:2,0:0:0:0:
336,172,47975,1,0,0:0:0:0:
496,208,48150,1,0,0:0:0:0:
424,264,48326,2,0,P|416:328|432:372,1,100,0|2,0:0|0:2,0:0:0:0:
336,172,48676,2,0,P|364:133|412:113,1,100,4|0,0:2|2:0,0:0:0:0:
336,352,49027,1,0,0:0:0:0:
216,224,49203,6,0,P|208:172|216:124,1,100,4|0,0:2|2:0,0:0:0:0:
468,96,49554,2,0,P|475:142|467:194,1,100,0|0,0:0|2:0,0:0:0:0:
316,312,49904,1,0,0:0:0:0:
228,340,50080,1,0,0:0:0:0:
148,300,50255,2,0,P|124:256|116:208,1,100,0|0,0:0|0:0,0:0:0:0:
308,112,50606,2,0,P|319:160|315:209,1,100,0|0,0:0|0:0,0:0:0:0:
216,224,50957,1,0,0:0:0:0:
148,300,51133,1,0,0:0:0:0:
56,336,51308,1,2,0:2:0:0:
56,336,51396,1,0,0:0:0:0:
56,336,51483,2,0,P|36:296|32:240,1,100
152,40,51834,6,0,L|352:56,1,200,4|0,0:2|0:0,0:0:0:0:
312,140,52361,2,0,P|300:188|308:240,1,100,0|0,0:0|2:0,0:0:0:0:
500,128,52712,2,0,P|452:140|400:132,1,100,4|0,0:2|2:0,0:0:0:0:
260,64,53062,1,0,0:0:0:0:
108,120,53238,6,0,P|60:172|68:248,1,150,4|0,0:2|2:0,0:0:0:0:
108,268,53589,2,0,L|204:240,2,100,0|2|0,0:2|0:2|2:0,0:0:0:0:
292,228,54115,2,0,P|304:272|300:328,1,100,2|0,0:2|2:0,0:0:0:0:
192,152,54466,1,0,0:0:0:0:
376,80,54641,6,0,P|460:128|480:224,1,200,4|0,0:2|0:0,0:0:0:0:
292,228,55168,2,0,P|328:196|380:184,1,100,0|0,0:0|0:0,0:0:0:0:
388,312,55519,1,4,0:2:0:0:
268,352,55694,2,0,P|219:340|183:304,1,100,0|0,2:0|0:0,0:0:0:0:
92,216,56045,6,0,P|144:176|224:184,1,150.000005722046,4|0,0:2|0:0,0:0:0:0:
316,248,56571,1,0,2:0:0:0:
388,160,56747,1,0,2:0:0:0:
304,80,56922,2,0,P|236:116|224:184,1,150.000005722046,2|0,0:2|0:0,0:0:0:0:
84,296,57448,6,0,P|124:240|116:160,1,150.000005722046,2|0,0:2|2:0,0:0:0:0:
36,188,57975,2,0,P|32:148|44:116,1,75.0000028610231,0|0,2:0|0:0,0:0:0:0:
120,32,58326,1,0,0:0:0:0:
176,128,58501,2,0,P|248:148|320:128,1,150.000005722046,0|0,0:0|2:0,0:0:0:0:
432,124,59027,6,0,P|396:108|376:80,1,75.0000028610231,2|0,0:2|0:0,0:0:0:0:
504,80,59378,2,0,P|512:116|508:156,1,75.0000028610231,2|2,0:2|2:0,0:0:0:0:
416,220,59729,2,0,L|340:208,2,75.0000028610231,2|0|0,0:2|2:0|0:0,0:0:0:0:
496,240,60255,6,0,P|488:316|432:356,1,150.000005722046,2|0,0:2|2:0,0:0:0:0:
360,316,60782,2,0,P|280:304|220:340,1,150.000005722046
144,360,61308,2,0,P|124:292|144:216,1,150.000005722046,0|0,0:0|2:0,0:0:0:0:
220,192,61834,6,0,L|208:116,2,75.0000028610231,4|0|0,1:0|0:0|0:0,0:0:0:0:
268,260,62361,1,0,0:0:0:0:
268,260,62536,2,0,P|324:300|400:284,1,150.000005722046,2|0,0:0|0:0,0:0:0:0:
452,220,63062,1,2,0:0:0:0:
400,64,63413,6,0,L|424:136,1,75.0000028610231,0|0,0:0|0:0,0:0:0:0:
260,120,63940,2,0,L|236:48,1,75.0000028610231,0|2,0:0|0:0,0:0:0:0:
160,80,64290,2,0,P|148:112|148:152,1,75.0000028610231,2|0,0:0|0:0,0:0:0:0:
220,192,64641,6,0,P|240:264|204:328,1,150.000005722046,4|0,1:0|0:0,0:0:0:0:
128,352,65168,2,0,B|52:340,1,75.0000028610231,0|2,0:0|0:0,0:0:0:0:
64,176,65694,1,2,0:0:0:0:
144,160,65869,2,0,P|178:97|158:25,2,150.000005722046,0|0|2,0:0|0:0|0:0,0:0:0:0:
116,240,66747,5,0,0:0:0:0:
148,316,66922,2,0,P|204:356|280:340,1,150.000005722046,2|0,0:0|0:0,0:0:0:0:
284,256,67448,2,0,P|256:192|272:116,2,150.000005722046,4|0|2,1:0|0:0|0:0,0:0:0:0:
408,148,68501,5,0,0:0:0:0:
440,224,68676,2,0,P|416:288|344:312,1,150.000005722046,2|2,0:0|0:0,0:0:0:0:
284,256,69203,1,0,0:0:0:0:
139,296,69378,2,0,P|196:347|264:336,1,150.000005722046,2|2,0:0|0:0,0:0:0:0:
376,72,70080,6,0,P|276:96|256:180,1,200,4|0,0:0|2:0,0:0:0:0:
356,224,70606,2,0,P|372:264|372:320,1,100,2|0,0:2|2:0,0:0:0:0:
264,336,70957,1,2,0:2:0:0:
168,280,71133,1,0,0:0:0:0:
148,172,71308,1,0,2:0:0:0:
256,180,71483,6,0,P|272:136|268:84,1,100,2|0,0:2|2:0,0:0:0:0:
100,240,71834,2,0,P|84:284|88:336,1,100,2|0,0:2|2:0,0:0:0:0:
280,352,72185,1,0,0:0:0:0:
476,332,72361,1,2,0:2:0:0:
472,312,72448,1,0,0:0:0:0:
468,292,72536,1,0,0:0:0:0:
464,272,72624,1,0,0:0:0:0:
460,252,72712,1,0,0:2:0:0:
396,160,72887,6,0,P|318:149|256:180,1,150,2|4,0:0|0:0,0:0:0:0:
308,256,73589,6,0,P|340:292|352:344,1,100,0|0,0:0|2:0,0:0:0:0:
68,342,73940,2,0,P|57:287|64:244,1,100,0|0,0:0|2:0,0:0:0:0:
164,134,74290,6,0,L|176:284,1,150,2|4,0:0|0:0,0:0:0:0:
324,168,75168,5,2,0:0:0:0:
308,256,75343,1,0,0:0:0:0:
392,224,75519,1,0,0:0:0:0:
408,136,75694,2,0,P|404:84|376:44,1,100,2|0,0:2|0:0,0:0:0:0:
216,88,76396,6,0,P|140:104|80:68,1,150.000005722046,2|0,0:2|0:0,0:0:0:0:
48,284,77097,6,0,P|128:248|232:276,1,200,2|0,0:2|0:0,0:0:0:0:
184,352,77624,1,0,0:2:0:0:
280,200,77799,1,2,0:2:0:0:
404,332,77975,1,0,0:0:0:0:
232,276,78150,2,0,P|204:240|192:188,1,100,2|0,0:2|0:0,0:0:0:0:
396,76,78501,6,0,P|452:112|468:192,1,150,4|0,0:2|2:0,0:0:0:0:
444,228,78852,1,2,0:2:0:0:
372,168,79027,1,0,0:0:0:0:
280,200,79203,1,0,0:0:0:0:
304,328,79378,1,2,0:2:0:0:
184,352,79554,1,0,0:0:0:0:
104,260,79729,1,0,0:2:0:0:
304,32,79904,6,0,P|208:52|196:144,1,200,4|0,0:2|0:0,0:0:0:0:
304,328,80431,1,4,0:2:0:0:
304,328,80782,1,2,0:2:0:0:
472,240,80957,1,4,0:2:0:0:
312,140,81133,5,0,0:0:0:0:
324,168,81220,1,0,0:0:0:0:
332,196,81308,2,0,P|256:260|160:244,1,200,4|0,0:2|0:0,0:0:0:0:
220,42,81834,2,0,P|228:96|216:140,1,100,8|0,0:0|0:0,0:0:0:0:
20,168,82185,2,0,P|52:139|108:128,1,100,2|2,0:2|0:2,0:0:0:0:
332,196,82536,1,8,0:0:0:0:
392,348,82712,6,0,L|408:248,1,100,2|0,0:2|0:0,0:0:0:0:
328,60,83062,1,0,0:0:0:0:
140,136,83238,1,8,0:0:0:0:
296,268,83413,1,2,0:2:0:0:
300,244,83501,1,0,0:0:0:0:
304,220,83589,1,0,0:0:0:0:
292,40,83764,1,0,0:0:0:0:
168,172,83940,1,8,0:0:0:0:
344,212,84115,6,0,L|384:176,1,50,0|0,0:0|0:0,0:0:0:0:
408,252,84290,2,0,P|392:296|392:348,1,100,2|0,0:2|0:0,0:0:0:0:
448,128,84641,2,0,P|432:84|432:32,1,100,8|0,0:0|0:0,0:0:0:0:
416,64,84904,1,0,0:0:0:0:
404,96,84992,2,0,P|364:124|312:128,1,100,2|0,0:2|0:0,0:0:0:0:
292,40,85343,1,8,0:0:0:0:
408,252,85519,6,0,B|432:304|404:364|340:384|300:356,1,200,4|0,0:2|0:0,0:0:0:0:
220,140,86045,2,0,P|249:183|254:231,1,100,8|0,0:0|0:0,0:0:0:0:
156,352,86396,1,2,0:2:0:0:
96,164,86571,2,0,P|88:116|92:64,1,100,2|8,0:2|0:0,0:0:0:0:
312,124,86922,5,0,0:0:0:0:
336,144,87010,1,0,0:0:0:0:
360,164,87097,2,0,L|460:144,1,100,4|0,0:2|0:0,0:0:0:0:
252,56,87448,1,8,0:0:0:0:
164,232,87624,2,0,L|264:212,1,100,2|0,0:2|0:0,0:0:0:0:
360,284,87975,1,0,0:0:0:0:
240,132,88150,1,8,0:0:0:0:
96,260,88326,6,0,P|144:272|179:306,1,100,2|0,0:2|0:0,0:0:0:0:
56,352,88676,1,0,0:0:0:0:
136,172,88852,1,8,0:0:0:0:
328,152,89027,1,2,0:2:0:0:
328,152,89115,1,0,0:0:0:0:
328,152,89203,1,0,0:0:0:0:
256,264,89378,1,0,0:0:0:0:
380,324,89554,1,8,0:0:0:0:
409,305,89641,1,0,0:0:0:0:
429,276,89729,1,0,0:0:0:0:
435,241,89817,1,0,0:0:0:0:
432,208,89905,1,0,0:0:0:0:
324,64,90080,5,2,0:2:0:0:
208,204,90255,1,8,0:0:0:0:
148,36,90431,2,0,B|192:56|224:100,1,100,2|0,0:2|0:0,0:0:0:0:
300,328,90782,1,0,0:0:0:0:
60,348,90957,1,8,0:0:0:0:
48,332,91045,1,0,0:0:0:0:
36,316,91133,6,0,L|24:188,1,125,0|0,0:0|0:0,0:0:0:0:
52,148,91659,6,0,P|120:128|192:156,1,150,4|0,0:2|0:0,0:0:0:0:
208,204,92010,1,2,0:2:0:0:
300,328,92185,1,4,0:2:0:0:
432,248,92361,5,0,0:0:0:0:
460,228,92448,1,0,0:0:0:0:
488,208,92536,2,0,P|488:100|416:60,1,200,4|0,0:2|0:0,0:0:0:0:
300,32,93062,2,0,L|292:132,1,100
280,252,93413,1,2,0:2:0:0:
408,172,93589,1,2,0:2:0:0:
388,320,93764,1,8,0:0:0:0:
488,208,93940,6,0,P|504:160|496:112,1,100,2|0,0:2|0:0,0:0:0:0:
196,112,94290,1,0,0:0:0:0:
276,296,94466,1,8,0:0:0:0:
408,172,94641,2,0,P|304:156|228:208,1,200,2|0,0:2|0:0,0:0:0:0:
200,344,95168,1,8,0:0:0:0:
88,300,95343,5,0,0:0:0:0:
68,272,95431,1,0,0:0:0:0:
56,240,95519,2,0,P|48:192|56:140,1,100,2|0,0:2|0:0,0:0:0:0:
292,24,95869,2,0,P|240:76|168:92,1,150,8|0,0:0|0:0,0:0:0:0:
196,112,96220,2,0,P|220:152|220:208,1,100,2|2,0:2|0:2,0:0:0:0:
112,252,96571,1,8,0:0:0:0:
296,140,96747,6,0,P|364:124|436:156,1,150,4|0,0:2|0:0,0:0:0:0:
460,132,97097,2,0,P|476:88|472:36,1,100,0|8,0:0|0:0,0:0:0:0:
360,204,97448,1,0,0:0:0:0:
296,32,97624,1,2,0:2:0:0:
228,200,97799,2,0,P|132:172|111:81,1,200,2|0,0:2|0:0,0:0:0:0:
368,56,98326,5,4,0:2:0:0:
360,204,98501,2,0,B|356:304,1,100,0|8,0:0|0:0,0:0:0:0:
448,220,98852,1,2,0:2:0:0:
296,32,99027,1,0,0:0:0:0:
256,272,99203,2,0,P|216:304|168:312,1,100,2|8,0:2|0:0,0:0:0:0:
16,272,99554,6,0,P|108:288|180:220,1,200,4|0,0:2|0:0,0:0:0:0:
100,40,100080,2,0,P|68:72|56:124,1,100,8|0,0:0|0:0,0:0:0:0:
72,156,100343,1,0,0:0:0:0:
72,156,100431,1,2,0:2:0:0:
364,92,100606,2,0,P|408:180|400:280,1,200,2|0,0:2|0:0,0:0:0:0:
256,272,101133,6,0,L|188:312,1,75.0000028610231,4|0,0:0|0:0,0:0:0:0:
28,232,101483,2,0,L|96:272,1,75.0000028610231,0|2,0:0|0:0,0:0:0:0:
248,176,101834,2,0,L|180:216,1,75.0000028610231,2|0,0:0|0:0,0:0:0:0:
100,176,102185,1,0,0:0:0:0:
152,100,102361,6,0,B|220:76|220:76|296:92,1,150.000005722046,2|0,0:0|0:0,0:0:0:0:
356,160,102887,2,0,L|336:240,1,75.0000028610231,0|0,0:0|0:0,0:0:0:0:
204,288,103238,1,0,0:0:0:0:
276,344,103413,2,0,P|308:360|348:356,1,75.0000028610231,0|0,0:0|0:0,0:0:0:0:
408,292,103764,1,0,0:0:0:0:
448,132,103940,6,0,L|430:205,1,75.0000028610231,4|2,1:0|0:0,0:0:0:0:
300,104,104290,2,0,L|281:31,1,75.0000028610231,0|2,0:0|0:0,0:0:0:0:
172,156,104641,2,0,L|152:236,1,75.0000028610231,2|0,0:0|0:0,0:0:0:0:
124,352,104992,1,2,0:0:0:0:
44,312,105168,6,0,P|28:240|44:164,1,150.000005722046,0|0,0:0|0:0,0:0:0:0:
104,100,105694,1,0,0:0:0:0:
304,104,106045,1,0,0:0:0:0:
312,192,106220,2,0,L|328:344,1,150.000005722046,2|0,0:0|0:0,0:0:0:0:
464,216,106747,6,0,P|488:184|496:148,1,75.0000028610231,0|0,1:2|0:0,0:0:0:0:
420,32,107097,2,0,P|429:64|425:104,1,75.0000028610231
312,192,107448,2,0,P|302:155|280:125,1,75.0000028610231,2|0,0:0|0:0,0:0:0:0:
136,152,107799,1,0,0:0:0:0:
220,272,107975,1,4,0:0:0:0:
220,272,108501,6,0,P|180:312|124:312,1,112.500004291535,4|0,0:0|0:0,0:0:0:0:
108,276,108852,2,0,L|116:240,2,37.5000014305115,0|0|0,0:0|0:0|0:0,0:0:0:0:
136,152,109203,1,0,0:0:0:0:
156,64,109378,1,4,0:0:0:0:
256,192,109466,12,0,113764,0:0:0:0:
