osu file format v12

[General]
AudioFilename: snf.mp3
AudioLeadIn: 2000
PreviewTime: 80358
Countdown: 0
SampleSet: Soft
StackLeniency: 0.7
Mode: 0
LetterboxInBreaks: 0

[Editor]
DistanceSpacing: 1.1
BeatDivisor: 2
GridSize: 4

[Metadata]
Title:Shuumatsu no Fractal (Short Ver.)
TitleUnicode:終末のフラクタル (Short Ver.)
Artist:Faylan
ArtistUnicode:飛蘭
Creator:MiLu
Version:Easy
Source:Grisaia no Kajitsu
Tags:frontwing opening le fruit de la grisaia ryafuka nanakase gizumo sakik cryo[iceeicee]
BeatmapID:236971
BeatmapSetID:86557

[Difficulty]
HPDrainRate:2
CircleSize:3
OverallDifficulty:2
ApproachRate:3
SliderMultiplier:0.8
SliderTickRate:1

[Events]
//Background and Video events
0,0,"BG.jpg",0,0
Video,-400,"Movie.avi"
//Break Periods
2,12912,22324
//Storyboard Layer 0 (Background)
//Storyboard Layer 1 (Fail)
//Storyboard Layer 2 (Pass)
//Storyboard Layer 3 (Foreground)
//Storyboard Sound Samples
//Background Colour Transformations
3,100,163,162,255

[TimingPoints]
-95,350.877192982456,4,2,1,60,1,0
34817,-100,4,1,1,60,0,0
45869,-100,4,1,1,50,0,0
46133,-100,4,1,1,60,0,0
61747,-100,4,2,1,40,0,0
61922,-100,4,2,1,50,0,0
64554,-100,4,2,1,40,0,0
64729,-100,4,2,1,50,0,0
67361,-100,4,2,1,40,0,0
67624,-100,4,2,1,50,0,0
80343,-100,4,1,1,50,0,0
81308,-100,4,1,1,70,0,1
91133,-100,4,1,1,70,0,0
91571,-100,4,1,1,60,0,0
92536,-100,4,1,1,70,0,1
101133,-100,4,2,1,60,0,0
109290,-100,4,2,1,30,0,0
113764,-100,4,2,1,5,0,0

[Colours]
Combo1 : 0,128,192
Combo2 : 232,0,116
Combo3 : 255,255,0
Combo4 : 255,155,255

[HitObjects]
300,312,1308,2,0,P|380:356|480:328,1,200,4|2,0:0|0:0,0:0:0:0:
380,244,2712,2,0,P|276:224|200:272,1,200,4|2,0:0|0:0,0:0:0:0:
36,336,4290,6,0,P|4:244|36:148,1,200,4|2,0:0|0:0,0:0:0:0:
124,152,5519,2,0,P|144:100|136:36,2,120,4|2|0,0:0|0:0|1:0,0:0:0:0:
160,280,7097,6,0,L|236:312,1,79.9999999999999,0|2,1:0|0:0,0:0:0:0:
308,260,7799,1,0,1:0:0:0:
388,296,8150,2,0,L|464:328,2,79.9999999999999,2|0|2,0:0|1:0|0:0,0:0:0:0:
380,208,9203,2,0,P|376:168|376:128,1,80
256,192,9729,12,0,12712,1:0:0:0:
108,48,23764,6,0,P|64:84|72:144,1,120,4|0,0:0|1:0,0:0:0:0:
144,192,24641,2,0,L|136:312,2,120,0|2|2,1:0|0:0|0:0,0:0:0:0:
200,124,26045,1,0,1:0:0:0:
320,68,26571,6,0,P|376:52|440:64,1,120,0|2,1:0|0:0,0:0:0:0:
468,144,27448,2,0,L|460:264,1,120,2|0,0:0|1:0,0:0:0:0:
352,340,28501,1,2,0:0:0:0:
264,324,28852,2,0,P|244:272|248:208,1,120,0|4,1:0|0:0,0:0:0:0:
300,40,30080,5,4,0:0:0:0:
452,132,30782,2,0,P|424:188|372:216,1,120,4|0,0:0|1:0,0:0:0:0:
292,192,31659,2,0,L|212:192,1,79.9999999999999,0|0,1:0|0:0,0:0:0:0:
124,196,32361,5,4,0:0:0:0:
236,60,33062,1,0,1:0:0:0:
392,140,33764,2,0,P|444:176|456:232,1,120,2|0,0:0|1:0,0:0:0:0:
452,316,34641,1,0,1:0:0:0:
372,348,34992,6,0,L|372:228,1,120,4|2,0:2|0:2,0:0:0:0:
304,172,35869,2,0,P|264:184|224:180,1,79.9999999999999,0|2,0:0|0:2,0:0:0:0:
172,112,36571,1,0,1:0:0:0:
348,96,37273,1,0,1:0:0:0:
264,252,37975,6,0,L|232:328,1,79.9999999999999,0|2,0:0|0:2,0:0:0:0:
168,264,38676,2,0,P|172:224|164:184,1,79.9999999999999,0|2,0:0|0:2,0:0:0:0:
88,228,39378,1,0,0:0:0:0:
228,336,40080,1,0,0:0:0:0:
272,164,40782,6,0,L|260:84,1,79.9999999999999,0|2,0:0|0:2,0:0:0:0:
176,112,41483,2,0,L|164:32,1,79.9999999999999,0|2,0:0|0:2,0:0:0:0:
84,72,42185,1,0,0:0:0:0:
184,216,42887,1,0,0:0:0:0:
332,120,43589,6,0,P|360:144|404:152,1,79.9999999999999,4|0,0:2|0:0,0:0:0:0:
436,72,44290,2,0,P|480:108|492:172,1,120,2|4,0:2|0:2,0:0:0:0:
468,344,45519,2,0,L|388:336,1,79.9999999999999,2|4,0:2|0:2,0:0:0:0:
312,292,46220,6,0,L|192:280,1,120,4|0,0:2|0:2,0:0:0:0:
108,308,47097,2,0,P|104:268|116:228,1,79.9999999999999,2|0,0:2|0:0,0:0:0:0:
196,192,47799,1,2,0:2:0:0:
92,52,48501,1,2,0:2:0:0:
36,216,49203,6,0,P|28:256|32:296,1,80,4|0,0:2|0:0,0:0:0:0:
116,268,49904,2,0,P|129:306|152:339,1,80,0|0,0:2|0:0,0:0:0:0:
216,276,50606,2,0,P|272:328|352:324,1,160,2|2,0:2|0:2,0:0:0:0:
448,232,51834,6,0,P|464:184|452:116,1,120,4|0,0:2|0:0,0:0:0:0:
400,44,52712,1,4,0:2:0:0:
292,120,53238,6,0,P|232:136|176:124,1,120,2|0,0:2|0:0,0:0:0:0:
180,212,54115,2,0,L|188:336,2,120
92,192,55519,1,4,0:2:0:0:
212,132,56045,6,0,L|332:120,1,120,2|0,0:2|0:0,0:0:0:0:
404,172,56922,2,0,P|380:244|400:324,2,160,2|0|2,0:2|0:0|0:2,0:0:0:0:
236,120,59027,6,0,L|248:40,2,79.9999999999999,4|2|0,0:2|2:0|0:0,0:0:0:0:
216,252,60255,2,0,P|164:280|104:276,1,120
40,216,61133,1,0,0:0:0:0:
116,56,61834,6,0,L|276:72,1,160,4|2,0:0|0:0,0:0:0:0:
404,40,63062,2,0,P|452:72|468:132,1,120,2|0,0:0|0:0,0:0:0:0:
388,168,63940,2,0,L|424:244,1,80,2|0,0:0|0:0,0:0:0:0:
424,328,64641,6,0,P|348:316|308:248,1,160,4|2,0:0|0:0,0:0:0:0:
252,80,66045,2,0,P|328:92|368:160,1,160,0|2,0:0|0:0,0:0:0:0:
280,164,67097,1,0,0:0:0:0:
192,148,67448,6,0,L|152:76,2,79.9999999999999,4|0|2,0:0|0:0|0:0,0:0:0:0:
248,268,68676,2,0,P|236:308|216:340,1,79.9999999999999,0|2,0:0|0:0,0:0:0:0:
160,272,69378,2,0,P|119:281|81:280,1,79.9999999999999,0|4,0:0|0:0,0:0:0:0:
112,196,70080,6,0,P|120:140|92:80,1,120,4|0,0:0|1:0,0:0:0:0:
36,148,70957,1,0,1:0:0:0:
160,272,71659,1,0,1:0:0:0:
336,252,72361,6,0,L|328:132,1,120,2|2,0:0|0:0,0:0:0:0:
232,40,73413,2,0,L|152:56,1,79.9999999999999,4|0,0:0|0:0,0:0:0:0:
228,164,74290,6,0,P|240:220|236:284,1,120,2|4,0:0|0:0,0:0:0:0:
172,344,75168,2,0,P|112:324|52:336,1,120,2|0,0:0|1:0,0:0:0:0:
48,248,76045,6,0,L|40:168,1,79.9999999999999,2|0,0:0|1:0,0:0:0:0:
28,80,76747,1,2,0:0:0:0:
108,112,77097,2,0,P|160:128|224:112,1,120,0|2,1:0|0:0,0:0:0:0:
256,32,77975,1,2,0:0:0:0:
256,192,78501,12,4,79904,0:0:0:0:
316,280,80431,6,2,P|256:300|200:284,1,120,0|2,0:0|0:0,0:0:0:0:
256,212,81308,6,0,L|264:92,1,120,4|2,0:2|0:2,0:0:0:0:
336,40,82185,1,2,0:2:0:0:
396,160,82712,5,0,0:0:0:0:
432,240,83062,1,2,0:2:0:0:
468,320,83413,2,0,P|412:348|356:340,1,120,2|0,0:2|0:0,0:0:0:0:
288,284,84290,6,0,L|208:308,2,79.9999999999999,4|2|0,0:2|0:2|0:0,2:0:0:0:
256,156,85519,2,0,P|260:96|244:36,1,120,4|0,0:2|0:0,0:0:0:0:
160,56,86396,1,2,0:2:0:0:
56,196,87097,6,0,L|92:312,1,120,4|2,0:2|0:2,0:0:0:0:
172,344,87975,1,0,0:0:0:0:
256,320,88326,1,2,0:2:0:0:
324,156,89027,6,0,P|292:104|280:44,1,120,0|2,0:0|0:2,0:0:0:0:
368,28,89905,1,4,0:2:0:0:
444,76,90255,1,0,0:2:0:0:
432,164,90606,2,0,L|416:284,1,120,2|2,0:2|0:2,0:0:0:0:
288,320,91659,6,2,P|292:260|276:200,1,120,0|2,0:0|0:0,0:0:0:0:
212,144,92536,6,0,P|148:140|96:156,1,120,4|2,0:2|0:2,0:0:0:0:
56,236,93413,2,0,L|28:356,2,120,2|2|0,0:2|0:2|0:0,0:0:0:0:
128,288,94817,6,0,P|164:304|204:308,1,79.9999999999999,0|2,0:0|0:2,0:0:0:0:
276,260,95519,1,4,0:2:0:0:
364,272,95869,2,0,L|380:352,1,79.9999999999999,2|2,0:2|0:2,0:0:0:0:
444,236,96747,6,0,P|428:176|432:116,1,120,4|2,0:2|0:2,0:0:0:0:
348,96,97624,2,0,L|188:120,1,160,2|4,0:2|0:2,0:2:0:0:
80,260,99027,6,0,P|60:200|60:144,1,120,2|2,0:2|0:2,0:0:0:0:
192,120,100080,1,0,0:2:0:0:
280,108,100431,1,2,0:2:0:0:
396,240,101133,6,0,P|404:280|400:320,2,79.9999999999999,4|0|2,0:0|0:0|0:0,0:0:0:0:
244,328,102536,1,0,0:0:0:0:
156,316,102887,2,0,L|76:304,1,79.9999999999999,0|2,0:0|0:0,0:0:0:0:
36,224,103589,1,0,0:0:0:0:
100,164,103940,6,0,P|112:124|108:84,2,79.9999999999999,4|0|2,0:0|0:0|0:0,0:0:0:0:
256,80,105343,1,0,0:0:0:0:
300,156,105694,2,0,P|332:180|372:188,1,79.9999999999999,0|2,0:0|0:0,0:0:0:0:
200,148,106747,6,0,L|212:308,1,160,4|0,0:0|1:0,0:0:0:0:
296,192,107975,2,0,P|344:172|412:180,1,120,0|4,1:0|0:0,0:0:0:0:
464,248,108852,1,0,1:0:0:0:
256,192,109378,12,0,113764,0:0:0:0:
