osu file format v9

[General]
AudioFilename: Faylan.mp3
AudioLeadIn: 1500
PreviewTime: 80364
Countdown: 0
SampleSet: Normal
StackLeniency: 0.7
Mode: 0
LetterboxInBreaks: 1

[Editor]
DistanceSpacing: 1.2
BeatDivisor: 4
GridSize: 8

[Metadata]
Title:Shumatsu no Fractal
Artist:Faylan
Creator:S o r d a
Version:Hard
Source:Gurizaia no kajitsu
Tags:Front wing apricot takos

[Difficulty]
HPDrainRate:6
CircleSize:4
OverallDifficulty:7
ApproachRate:8
SliderMultiplier:1.6
SliderTickRate:1

[Events]
//Background and Video events
0,0,"bg2.jpg"
//Break Periods
//Storyboard Layer 0 (Background)
//Storyboard Layer 1 (Fail)
//Storyboard Layer 2 (Pass)
//Storyboard Layer 3 (Foreground)
//Storyboard Sound Samples
//Background Colour Transformations
3,100,163,162,255

[TimingPoints]
365,350.877192982456,4,1,0,60,1,0
1066,-100,4,2,0,60,0,0
1329,-100,4,1,0,60,0,0
8873,-200,4,1,0,60,0,0
9487,-100,4,1,0,60,0,0
23610,-100,4,2,0,80,0,0
23786,-100,4,1,0,60,0,0
34049,-100,4,2,0,60,0,0
35014,-100,4,1,0,60,0,0
45364,-100,4,2,0,60,0,0
46242,-100,4,1,0,60,0,0

[Colours]
Combo1 : 255,128,255
Combo2 : 0,255,255
Combo3 : 5,5,240

[HitObjects]
256,192,365,1,0
112,64,715,2,0,B|72:64|32:104,1,80
280,112,1242,2,0,B|328:192|288:352,1,240,4|0
128,240,2119,1,0
172,155,2294,1,0
119,74,2470,1,0
224,129,2645,2,0,B|264:145|288:193,1,80
202,236,2996,1,0
278,294,3172,2,0,B|230:318|214:358,1,80
385,111,3873,5,0
385,111,4049,1,0
385,111,4575,2,0,B|322:150|285:244,1,160
204,188,5101,1,0
172,97,5277,1,0
81,128,5452,2,0,B|20:200,1,80
110,240,5803,2,0,B|157:309,1,80
295,174,6329,5,0
362,105,6505,1,0
76,69,7031,2,0,B|112:93|154:75,1,80
135,177,7382,2,0,B|151:222|207:230,1,80
269,285,7733,2,0,B|311:252|319:206,1,80
369,141,8084,1,0
322,57,8259,1,0
135,101,8610,5,0
257,249,8961,2,0,B|257:329,1,80
256,192,9663,12,0,12645
121,119,13172,6,0,B|89:147,2,40,0|0|2
256,192,13698,1,0
454,308,14049,2,0,B|486:206|448:134,1,160,0|0
273,91,14750,2,0,B|197:138|194:251,1,160
386,197,15452,1,0
98,213,15979,2,0,B|72:211|43:237,2,40,0|0|2
349,57,17382,5,0
402,181,17557,1,0
304,276,17733,1,0
106,66,18259,6,0,B|29:121|59:222,1,160
220,305,18961,2,0,B|244:256|235:212,2,80
149,239,19487,2,0,B|134:147|198:84,1,160
286,73,20014,2,0,B|368:66|404:170,1,160,0|0
325,222,20540,1,0
42,276,21066,2,0,B|29:226|35:166,2,80
216,193,21768,2,0,B|229:143|223:83,2,80
133,143,22294,6,0,B|98:219|151:332,1,160
233,290,22821,1,0
327,308,22996,1,0
348,117,23347,1,0
155,309,23698,1,4
274,46,24224,6,0,B|221:53|213:109,1,80
297,145,24575,1,0
363,214,24750,1,0
197,117,25101,2,0,B|110:108|75:198,1,160
170,215,25628,2,0,B|160:259|182:319,1,80
263,257,25979,1,0
307,172,26154,1,0
253,92,26329,1,0
233,186,26505,2,0,B|294:113|413:173,1,160,4|0
402,251,27031,5,0
402,251,27119,1,0
402,251,27207,1,0
337,321,27382,2,0,B|293:306|258:311,1,80
97,205,27908,6,0,B|155:127|250:144,1,160
330,158,28435,1,0
330,158,28522,1,0
330,158,28610,1,0
273,236,28786,1,0
248,143,28961,2,0,B|309:57|401:92,1,160
445,270,29663,2,0,B|419:309|366:304,2,80
277,175,30364,2,0,B|238:201|243:254,2,80
28,27,31242,5,0
193,123,31593,1,0
154,210,31768,1,0
424,112,32294,2,0,B|401:63|347:89,2,80
343,166,32821,2,0,B|315:203|317:249,1,80
410,260,33172,2,0,B|438:297|436:343,1,80
343,309,33522,2,0,B|279:225|179:273|202:287,1,160
137,89,34224,5,4
320,35,34574,1,4
360,222,34925,1,4
168,216,35277,6,0,B|192:264|192:312,1,80
288,280,35628,2,0,B|272:216|312:184,1,80
352,128,35979,2,0,B|336:80|288:64,1,80
208,56,36329,2,0,B|136:96|144:192,1,160
224,136,36856,1,0
256,176,36943,1,0
272,224,37031,1,0
264,272,37119,1,0
232,304,37207,1,0
64,208,37557,6,0,B|64:160|104:128,1,80
176,184,37908,1,0
248,120,38084,1,0
344,144,38259,1,0
336,336,38610,1,0
336,336,38961,2,0,B|328:224|248:176,1,160
104,104,39663,6,0,B|112:216|192:264,1,160
185,253,40101,1,0
204,258,40189,1,0
278,198,40364,1,0
215,125,40540,1,0
458,160,40891,5,0
411,243,41066,1,0
336,176,41242,1,0
304,88,41417,1,0
224,32,41593,1,0
224,32,41943,2,0,B|120:88|232:184|176:256,1,240
272,216,42645,2,0,B|208:136|104:176,1,160
72,248,43172,1,0
152,72,43522,6,0,B|209:56|256:88,1,80
321,165,43873,2,0,B|361:205|361:261|361:261,1,80
229,223,44224,2,0,B|169:219|151:265,1,80
323,55,44750,2,0,B|396:120|319:194,1,160
312,210,45189,1,0
294,219,45277,1,0
180,64,45452,1,4
33,187,45803,1,4
183,306,46154,1,4
