osu file format v9

[General]
AudioFilename: Faylan.mp3
AudioLeadIn: 1500
PreviewTime: 80364
Countdown: 0
SampleSet: Soft
StackLeniency: 0.7
Mode: 0
LetterboxInBreaks: 1

[Editor]
DistanceSpacing: 2
BeatDivisor: 4
GridSize: 8

[Metadata]
Title:Shumatsu no Fractal
Artist:Faylan
Creator:S o r d a
Version:Apricot
Source:Gurizaia no kajitsu
Tags:Front wing apricot takos

[Difficulty]
HPDrainRate:6
CircleSize:4
OverallDifficulty:7
ApproachRate:8
SliderMultiplier:1.6
SliderTickRate:1

[Events]
//Background and Video events
0,0,"bg1.jpg"
//Break Periods
2,12867,16648
//Storyboard Layer 0 (Background)
//Storyboard Layer 1 (Fail)
//Storyboard Layer 2 (Pass)
//Storyboard Layer 3 (Foreground)
//Storyboard Sound Samples
//Background Colour Transformations
3,100,163,162,255

[TimingPoints]
1258,350.877192982456,4,2,0,60,1,0
1258,-133.333333333333,4,2,0,60,0,0
6959,-100,4,2,0,60,0,0
17310,-200,4,2,0,60,0,0
18188,-133.333333333333,4,2,0,60,0,0
23626,-100,4,2,0,70,0,0
57310,-133.333333333333,4,2,0,60,0,0
61696,-200,4,2,0,40,0,0
69240,-100,4,2,0,70,0,0
69591,-100,4,2,0,80,0,0
69766,-100,4,2,0,70,0,0
80556,-100,4,2,0,80,0,0
81257,-100,4,2,0,80,0,1
91082,-100,4,2,0,60,0,0
92486,-100,4,2,0,60,0,1
100556,-100,4,2,0,60,0,0
100994,-133.333333333333,4,2,0,60,0,0
113538,-133.333333333333,4,2,0,20,0,0

[Colours]
Combo1 : 255,128,255
Combo2 : 0,255,255
Combo3 : 5,5,240

[HitObjects]
144,192,1258,6,0,B|112:136|144:72,1,119.999996423721,4|2
141,76,1784,1,0
368,192,2135,1,0
368,192,2310,1,0
368,192,2486,1,2
368,192,2661,6,0,B|400:248|368:312,1,119.999996423721,4|2
256,256,3188,1,0
144,192,3363,2,0,B|112:248|144:312,1,119.999996423721,4|0
256,352,3889,1,2
256,256,4065,2,0,B|256:208|280:176|280:176|256:136|256:80,1,179.999994635582,4|0
256,84,4766,5,0
168,88,4942,2,0,B|136:112|136:152,1,59.9999982118607,2|0
176,216,5293,1,0
256,256,5468,2,0,B|208:312|128:312|96:248,1,179.999994635582,4|2
64,80,6345,5,0
64,80,6521,2,0,B|104:40|136:128|184:80,1,119.999996423721,2|0
264,80,7047,5,4
352,128,7223,2,0,B|400:120|408:56,2,80,0|2|0
392,216,7749,2,0,B|384:264|336:280,1,80,2|0
296,192,8100,1,0
256,104,8275,2,0,B|216:64|152:64|112:104,2,160,2|4|2
256,200,9152,2,0,B|288:248|224:304|264:360,1,160,2|0
260,354,9679,1,4
256,192,9854,12,0,12661
256,40,17398,5,0
256,40,17573,1,2
256,40,17749,2,0,B|256:128,1,80,2|0
328,168,18275,6,0,B|296:224|208:224|176:168,1,179.999994635582,2|0
120,240,18977,2,0,B|80:288,1,59.9999982118607,0|2
168,304,19328,1,0
232,240,19503,2,0,B|296:240|320:264|320:264|344:240|408:240,1,179.999994635582,2|0
401,240,20381,1,2
232,240,20556,1,4
232,240,20907,5,0
232,240,21082,2,0,B|216:176|152:152,1,119.999996423721,4|0
144,240,21609,1,2
144,240,21784,2,0,B|160:304|224:328,1,119.999996423721,4|0
232,240,22310,2,0,B|312:240|328:152,1,119.999996423721,4|0
264,112,22837,1,2
192,168,23012,2,0,B|192:288,1,119.999996423721,0|4
48,176,23714,6,0,B|80:264|176:272,1,160,4|0
248,224,24240,1,0
248,224,24416,1,0
320,288,24591,2,0,B|360:312|368:360,2,80,2|0|0
248,224,25117,2,0,B|200:144|248:72,1,160,2|0
344,48,25644,1,2
368,144,25819,1,0
400,232,25995,2,0,B|424:272|464:288,2,80,2|0|0
312,192,26521,6,0,B|264:168|216:224|152:192,1,160,0|2
155,193,27047,1,0
416,72,27398,5,2
416,72,27573,1,2
416,72,27924,2,0,B|392:160|304:176,1,160,0|2
272,88,28451,1,0
216,168,28626,1,2
256,256,28802,1,2
352,256,28977,1,0
352,152,29152,1,0
416,72,29328,6,0,B|336:32|256:80,1,160,4|0
288,168,29854,1,0
352,352,30030,2,0,B|272:384|192:344,1,160,4|0
152,264,30556,1,0
64,96,30731,2,0,B|16:176|64:256,1,160,4|0
152,264,31257,1,0
240,296,31433,2,0,B|272:328|280:376,1,80,0|2
152,264,31784,2,0,B|176:176|272:160,1,160,2|4
352,136,32310,6,0,B|448:112,2,80,2|0|2
416,208,32837,2,0,B|392:304|296:288,1,160,2|0
272,272,33275,1,0
248,248,33363,2,0,B|240:200|192:192,1,80,2|0
376,120,33714,2,0,B|424:104|440:56,2,80,2|0|2
376,120,34240,5,4
96,192,34591,1,4
256,376,34942,2,0,B|256:208,1,160,4|2
216,128,35468,5,0
120,128,35644,1,2
88,216,35819,1,0
168,272,35995,1,2
248,216,36170,2,0,B|296:224|320:256,1,80,0|2
472,352,36696,5,2
176,240,37047,1,2
448,64,37398,2,0,B|392:120,1,80,0|4
320,184,37749,2,0,B|256:240|168:192,1,160
96,136,38275,5,2
416,232,38627,1,2
96,328,38977,1,0
96,328,39152,2,0,B|144:256|232:248,1,160,2|2
320,208,39679,6,0,B|328:160|368:144,1,80,0|2
192,176,40030,2,0,B|184:224|144:240,1,80,0|2
256,80,40380,2,0,B|296:144|224:192|264:248,1,160,0|4
168,272,40907,1,0
88,216,41082,2,0,B|80:168|120:144,1,80,2|0
184,80,41433,1,2
184,80,41609,1,2
336,192,41959,5,0
80,328,42486,1,2
168,160,42837,2,0,B|192:112|232:104,2,80,0|2|0
256,192,43363,1,0
184,248,43538,2,0,B|224:296|288:296|328:240,1,160,4|0
320,152,44065,1,2
320,56,44240,2,0,B|280:8|216:8|176:64,1,160,4|0
120,128,44766,5,0
392,256,45117,1,0
392,256,45292,1,0
328,328,45468,5,2
256,48,45819,2,0,B|256:208,1,160,0|4
96,312,46521,5,0
96,312,46696,1,2
144,232,46872,2,0,B|168:192|208:192,2,80,2|0|2
128,136,47398,1,0
200,72,47573,2,0,B|272:128|352:120,1,160,2|4
312,312,48275,2,0,B|240:256|160:264,1,160,2|4
216,184,48801,5,0
200,88,48977,2,0,B|288:48|360:208|256:256,1,240,2|0
216,184,49679,1,0
120,176,49854,2,0,B|120:248|152:280|224:280,1,160,2|0
304,320,50380,5,0
160,72,50731,1,2
160,72,50907,2,2,B|256:56|296:144,1,160
200,160,51433,2,0,B|176:192|120:176,2,80,0|2|0
280,216,51959,5,4
320,128,52135,2,0,B|336:80|376:72,1,80
372,72,52486,1,2
280,216,52661,2,0,B|248:304|144:304,1,160,4|0
320,128,53187,2,0,B|352:40|456:40,1,160,2|0
441,40,53714,5,2
344,344,54065,1,2
344,344,54240,1,0
112,128,54591,1,2
111,128,54942,6,0,B|128:176|200:176,1,80,0|2
171,173,55293,1,0
360,120,55468,1,4
360,120,55819,1,2
432,296,55994,1,4
136,192,56872,1,2
256,40,57222,5,2
256,40,57398,2,0,B|288:88|240:120|240:120|240:208,1,179.999994635582
240,207,58100,1,2
176,168,58275,2,0,B|144:176|128:216,1,59.9999982118607,0|2
64,336,58801,1,0
64,336,58977,6,0,B|112:352|136:336,1,59.9999982118607,0|2
112,272,59328,2,0,B|96:240|120:208,1,59.9999982118607,2|0
160,160,59679,1,0
224,128,59854,1,2
296,144,60029,1,0
360,176,60205,2,0,B|400:224|408:288,1,119.999996423721,2|0
407,284,60731,5,4
104,284,61082,1,2
104,284,61257,1,4
256,344,61608,1,2
328,312,61784,6,0,B|416:280|408:168,1,160,4|0
384,112,62837,1,2
320,64,63187,2,0,B|272:72|256:112,1,80,0|2
192,64,63889,2,0,B|168:104|192:152,1,80,0|2
104,144,64591,2,0,B|112:208|161:238|224:216,1,160,4|0
256,152,65643,1,2
336,136,65994,2,0,B|384:152|384:200,1,80,0|2
304,216,66696,2,0,B|288:256|240:272,1,80,0|2
224,192,67398,2,0,B|128:168|88:248,2,160,4|2|2
344,88,69152,1,0
296,152,69328,6,0,B|136:152,1,160,2|4
136,152,70029,5,0
80,232,70205,2,0,B|88:280|128:296,1,80,2|0
176,216,70556,2,0,B|216:232|224:280,1,80
304,328,70907,1,2
400,304,71082,1,0
456,224,71257,1,0
440,128,71433,1,0
376,64,71608,6,0,B|336:80|312:128,1,80,2|0
136,320,71959,2,0,B|176:304|200:264,1,80
256,200,72310,1,0
256,200,72486,1,0
136,320,72661,5,2
224,352,72836,2,0,B|312:384|400:312|384:208,1,240,4|0
385,230,73538,1,2
128,96,74065,1,2
128,96,74240,2,0,B|48:136|48:264|136:288,1,240,4|0
224,280,74942,1,0
320,264,75117,2,0,B|368:248|376:192,2,80,2|0|2
256,192,75643,5,0
328,192,75994,1,2
184,192,76345,1,0
400,192,76697,1,2
112,192,77047,1,0
256,64,77398,1,4
256,160,77573,5,0
256,160,77749,1,2
256,160,77924,1,0
256,160,78100,2,0,B|256:320,1,160,2|4
256,192,78714,12,4,79942
256,192,80380,5,2
424,96,80731,1,0
88,96,80907,1,4
176,264,81257,2,0,B|256:312|328:264,1,160,4|0
384,184,81784,1,2
424,96,81959,2,0,B|448:48|504:40,2,80,0|2|0
424,288,82486,5,2
424,288,82661,2,0,B|360:352|280:288,1,160,4|0
344,216,83187,1,2
344,216,83363,2,0,B|176:216,1,160,4|0
120,144,83889,5,0
184,72,84065,2,0,B|224:48|272:64,1,80,4|0
256,160,84415,1,0
336,104,84591,1,2
384,184,84766,1,0
456,248,84942,2,0,B|464:288|504:320,2,80,2|0|2
368,280,85468,2,0,B|320:344|208:312,1,160,4|0
144,264,85994,2,0,B|112:224|112:176,1,80,2|0
96,96,86345,5,0
96,96,86521,1,4
328,264,86872,1,0
272,192,87047,2,0,B|256:144|208:144,2,80,4|2|0
184,224,87573,6,0,B|152:280|176:344|256:352,1,160,4|2
236,348,88100,1,0
272,256,88275,2,0,B|296:192|280:144|216:128,1,160,4|0
219,128,88801,1,2
232,32,88977,2,0,B|144:40|128:104|136:136,1,160,4|0
176,224,89503,5,2
272,248,89679,1,0
336,176,89854,2,0,B|360:136|408:136,2,80,2|0|2
272,248,90380,2,0,B|224:320|120:312,1,160
133,312,90907,1,2
133,312,91082,1,0
256,56,91608,6,0,B|312:128|208:144|264:208,1,160,2|0
259,203,92135,1,4
432,120,92486,6,0,B|432:216|336:248,1,160,4|2
256,272,93012,1,0
160,280,93187,1,0
96,208,93363,1,2
184,184,93538,1,2
160,280,93714,1,0
96,208,93889,6,0,B|56:128|104:56,1,160,4|0
200,56,94415,1,2
296,56,94591,2,0,B|336:136|288:208,1,160,4|2
208,256,95117,1,0
120,296,95293,2,0,B|72:304|64:352,2,80,2|0|2
288,208,95819,2,0,B|336:200|344:152,1,80,2|0
256,120,96170,5,2
256,120,96345,1,0
184,56,96521,2,0,B|144:80|160:128,1,80,2|0
200,208,96872,1,0
200,208,97047,1,0
256,288,97222,2,0,B|280:328|320:328,1,80,2|0
408,296,97573,1,2
408,296,97749,5,0
96,72,98100,1,0
144,152,98275,6,0,B|160:192|208:208,2,80,2|0|2
240,128,98801,1,0
312,184,98977,1,0
256,256,99152,2,0,B|208:280|192:320,2,80,2|0|2
256,256,100029,1,0
400,128,100380,5,0
112,128,100556,1,2
256,0,100907,5,0
256,88,101082,2,0,B|264:104|264:104|248:104|248:104|264:112|264:112|248:112|248:112|264:120|264:120|248:120|248:120|264:128|264:128|248:128|248:128|264:136|264:136|248:136|248:136|264:144|264:144|248:144|248:144|264:152|264:152|256:152|256:152|256:168,1,239.999992847443,4|0
320,264,102135,1,0
432,224,102486,2,0,B|464:168|432:104,1,119.999996423721,2|0
344,32,103187,2,0,B|312:88|344:152,1,119.999996423721,2|0
320,264,103889,2,0,B|272:320|144:328|96:256,2,239.999992847443,4|0|2
272,152,105643,1,0
176,80,105994,2,0,B|104:88|96:168,1,119.999996423721,0|2
208,192,106696,2,0,B|256:248|384:256|432:184,1,239.999992847443,4|0
256,48,107924,5,2
256,48,108450,2,0,B|336:160|144:216|280:344,1,299.999991059304,0|4
256,192,109503,12,0,113714
