osu file format v6

[General]
AudioFilename: mind as Judgment.mp3
AudioLeadIn: 0
PreviewTime: 62193
Countdown: 0
SampleSet: Normal
StackLeniency: 0.4
Mode: 0
LetterboxInBreaks: 1

[Editor]
Bookmarks: 6303,16720,31877,41983,52088,62193,74825,95035,105141,115246,127246,137983,152509,174614,195456,206193
DistanceSpacing: 0.899999976158142
BeatDivisor: 2
GridSize: 8

[Metadata]
Title:Mind as Judgment
Artist:Faylan
Creator:miccoliasms
Version:Easy
Source:CANNAN
Tags:hemoC quintitem azuki

[Difficulty]
HPDrainRate:2
CircleSize:3
OverallDifficulty:5
SliderMultiplier:0.8
SliderTickRate:1

[Events]
//Background and Video events
0,0,"mind as Judgment.jpg"
//Break Periods
2,27039,30692
2,49776,51060
2,62408,63060
//Storyboard Layer 0 (Background)
//Storyboard Layer 1 (Fail)
//Storyboard Layer 2 (Pass)
//Storyboard Layer 3 (Foreground)
//Storyboard Sound Samples
//Background Colour Transformations
3,100,163,162,255

[TimingPoints]
945,315.789473684211,4,1,0,80,1,0
14132,-100,4,1,0,0,0,0
16698,-100,4,1,0,80,0,0
64027,-100,4,1,0,80,0,1
64106,-100,4,1,0,80,0,0
74843,-100,4,2,0,80,0,0
80211,-100,4,1,0,80,0,0
89211,-100,4,1,0,80,0,0

[Colours]
Combo1 : 255,128,64
Combo2 : 0,0,0
Combo3 : 255,0,0
Combo4 : 100,100,100

[HitObjects]
256,208,14208,12,0,16734
144,88,17997,5,0
368,88,19260,1,0
368,296,20523,1,0
136,296,21787,5,4
144,88,23050,1,4
368,88,24313,1,4
368,296,25576,1,4
312,248,25892,2,0,B|240:328|176:224|176:224|176:328,1,240,0|4
96,64,31892,6,0,L|296:64,1,200
368,64,32997,1,8
368,208,33629,1,8
296,208,33945,1,8
184,208,34418,2,0,L|184:312|88:360,1,200
40,312,35523,1,8
40,168,36155,1,2
112,168,36471,1,2
184,168,36787,5,0
256,168,37102,2,0,L|256:112|384:112|384:176,1,240,4|0
384,240,38366,2,0,L|384:296|256:296|256:232,1,240,4|0
256,168,39629,1,0
112,168,40260,1,0
112,24,40892,1,0
256,24,41523,1,2
256,24,41681,1,2
256,96,41997,6,0,L|256:304,1,200,4|0
184,296,43102,1,8
40,296,43734,1,8
40,224,44050,1,8
40,112,44523,6,0,L|152:112|208:184,1,200
208,256,45629,1,8
352,256,46260,1,2
352,184,46576,1,2
352,112,46892,5,0
280,112,47208,2,0,L|200:16|120:136,1,240,4|0
136,184,48471,1,0
136,184,48629,1,0
136,256,48945,1,2
136,328,49260,1,0
208,328,49576,1,2
128,72,52260,5,0
200,72,52576,1,0
272,72,52892,1,8
392,152,53523,5,0
320,152,53839,1,0
248,152,54155,1,8
128,232,54787,5,0
200,232,55102,1,0
272,232,55418,1,0
328,280,55734,1,8
272,328,56050,1,0
200,328,56366,1,0
128,328,56681,1,2
256,208,57155,12,4,58418
256,208,58576,12,0,59839
184,192,60313,5,0
112,192,60629,1,0
112,264,60945,2,2,L|256:336|432:248,1,320,2|4
416,64,64260,6,0,L|48:64,1,360
48,136,65997,1,0
120,136,66313,1,2
120,208,66629,1,0
48,208,66945,6,0,L|48:288|224:288,1,240,0|8
280,288,68208,1,8
352,288,68523,2,2,L|352:176,2,80
312,152,69787,6,0,L|96:152,1,200
112,80,70892,2,0,B|264:80,1,120,2|8
304,80,71681,1,8
392,144,72155,6,0,L|392:232|336:296,1,160,0|2
296,232,73102,2,0,L|192:232,1,80,0|2
144,232,73734,2,2,L|56:232,2,80
88,96,74997,6,0,L|248:96,1,160
304,144,75945,1,2
248,192,76260,2,0,L|72:192,1,160
40,248,77208,1,2
88,304,77523,6,0,L|192:304,1,80
240,304,78155,2,2,L|304:304,1,40
352,304,78629,2,0,L|448:304|448:200,1,200
448,128,79734,1,0
448,56,80050,1,4
376,56,80366,6,0,L|280:56,2,80,8|8|8
376,128,81313,2,2,L|376:288,2,160
136,64,83839,5,0
136,64,84155,1,0
208,64,84471,1,0
208,64,84787,1,0
280,64,85102,6,4,L|352:64,1,40
280,312,86366,2,4,L|224:312,1,40
32,168,87629,2,4,L|32:232,1,40
256,208,87945,12,4,89050
