osu file format v9

[General]
AudioFilename: Live in Despair.mp3
AudioLeadIn: 0
PreviewTime: 111507
Countdown: 0
SampleSet: Soft
StackLeniency: 0.7
Mode: 0
LetterboxInBreaks: 1

[Editor]
Bookmarks: 152821,207601
DistanceSpacing: 1.2
BeatDivisor: 4
GridSize: 8

[Metadata]
Title:Live in Despair
Artist:Faylan
Creator:PSPDS Eddie
Version:Hard
Source:Comyu - Kuroi Ryuu to Yasashii Oukoku
Tags:Akatsuki Works

[Difficulty]
HPDrainRate:4
CircleSize:4
OverallDifficulty:6
ApproachRate:6
SliderMultiplier:1.6
SliderTickRate:1

[Events]
//Background and Video events
0,0,"BG.jpg"
//Break Periods
2,67014,72160
2,169414,176153
//Storyboard Layer 0 (Background)
//Storyboard Layer 1 (Fail)
//Storyboard Layer 2 (Pass)
//Storyboard Layer 3 (Foreground)
//Storyboard Sound Samples
//Background Colour Transformations
3,100,163,162,255

[TimingPoints]
15614.2531742746,400,4,2,0,62,1,0
26619,-100,4,1,0,60,0,0
73010,-100,4,2,0,60,0,0
85809,-100,4,1,0,60,0,0
99008,-100,4,2,0,60,0,0
111507,-100,4,1,0,60,0,0
152605,-200,4,2,0,60,0,0
159804,-100,4,1,0,60,0,0
185002,-100,4,1,0,30,0,0
185502,-100,4,1,0,49,0,0
185902,-100,4,1,0,71,0,0
186302,-100,4,1,0,100,0,0
186602,-100,4,2,0,60,0,0
208901,-100,4,1,0,60,0,0

[Colours]
Combo1 : 255,150,0
Combo2 : 5,240,5
Combo3 : 5,5,240
Combo4 : 240,5,5

[HitObjects]
96,304,15614,6,0,B|432:304,1,320,0|2
256,192,16814,1,0
416,88,17214,2,0,B|80:88,1,320,0|2
256,192,18414,1,0
448,192,18814,6,0,B|448:128|392:96,2,80,0|0|2
352,192,19414,1,0
256,192,19614,2,0,B|257:241|296:272,2,80,0|0|2
64,192,20414,1,0
160,192,20614,1,0
64,192,20814,2,0,B|64:96,1,80,2|0
64,192,21214,2,0,B|64:296,1,80
160,192,21614,1,4
320,48,22014,6,0,B|448:192|320:344,1,320,0|2
256,192,23214,1,0
192,336,23614,2,0,B|64:192|192:40,1,320,0|2
256,192,24814,5,0
64,192,25214,2,0,B|64:272,2,80,0|0|2
256,192,26014,2,0,B|256:272,2,80,0|0|2
448,192,26814,5,4
256,192,27214,2,0,B|256:128,2,40
352,192,27614,6,0,B|352:128,2,40,0|0|0
256,192,28014,2,0,B|256:136,2,40
88,192,28414,6,0,B|88:80|192:64,3,160,0|8|0|8
424,192,30014,2,0,B|424:304|320:320,3,160,0|8|0|8
160,312,31614,6,0,B|160:120,1,160,0|8
352,152,32414,2,0,B|352:320,1,160,0|8
408,192,33214,6,0,B|304:184|288:296,2,160,0|8|0
472,120,34214,1,0
376,104,34414,1,8
208,192,34814,6,0,B|216:296|320:288,2,160,0|8|0
208,96,35814,2,0,B|272:88|296:144,1,80,0|8
256,312,36414,5,0
104,192,36814,1,8
256,72,37214,1,0
408,192,37614,1,8
256,192,38014,1,4
256,192,38214,12,4,40814
256,128,41214,6,0,B|160:152|88:72,1,160,0|2
256,264,42014,2,0,B|352:240|424:320,1,160,0|2
320,192,42814,2,0,B|296:96|376:24,1,160,0|2
192,200,43614,2,0,B|216:296|136:368,1,160,0|2
256,192,44414,1,0
256,192,44814,1,2
448,192,45214,6,0,B|384:264|448:336,2,160,0|2|0
256,192,46414,1,2
64,192,46814,5,0
64,192,47214,1,2
160,360,47614,6,0,B|352:352|352:216,2,240
160,168,49214,2,0,B|160:56,2,80
256,168,49814,1,0
208,248,50014,6,0,B|160:328|48:320,2,160
256,328,51014,2,0,B|440:328,1,160,8|0
336,272,51614,2,0,B|160:272,1,160,8|0
256,216,52214,2,0,B|440:216,1,160,8|0
336,168,52814,2,0,B|224:168,1,80,8|0
160,168,53214,2,0,B|104:168,4,40,0|0|0|0|4
256,192,54014,5,0
256,192,54414,1,0
256,192,54814,2,0,B|256:104,2,80
104,304,55614,6,0,B|288:304,1,160,0|8
360,304,56214,1,0
312,224,56414,2,0,B|312:120,1,80
216,144,56814,2,0,B|216:232,1,80,8|0
264,304,57214,2,0,B|168:352|88:288,3,160,0|8|0|8
24,296,58614,6,2,B|72:224|-16:112|40:56,1,240
152,192,59614,1,0
248,192,59814,2,0,B|248:136,2,40,2|0|0
248,192,60214,1,0
248,192,60414,1,0
256,352,60814,6,0,B|448:352,2,160,0|0|0
80,280,62014,2,0,B|32:200|96:104,1,160,0|8
160,72,62614,1,0
160,168,62814,2,0,C|232:232,3,80,0|0|8|0
304,272,63614,6,0,B|424:200|360:56,2,240
208,112,65214,2,0,B|88:184|152:328,2,240
256,192,66814,5,4
256,192,73214,6,0,B|296:144|400:144,2,120,2|0|0
256,192,74014,2,0,B|304:248|280:304,2,120,2|0|0
256,192,74814,2,0,B|176:192|144:128,2,120,2|0|0
256,96,75614,5,2
256,192,75814,1,2
256,288,76014,1,2
256,96,76414,6,0,B|408:96,2,120,2|2|0
256,192,77214,2,0,B|104:192,2,120,2|2|0
176,248,78014,5,2
256,192,78214,1,2
176,136,78414,2,0,B|176:48,2,80,2|2|6
480,192,79614,6,0,B|312:192,2,160,0|2|0
256,192,80814,1,2
32,192,81214,2,0,B|200:192,2,160,0|2|0
256,192,82414,1,2
352,72,82814,6,0,B|352:176,2,80,0|0|2
256,240,83614,2,0,B|256:344,2,80,0|0|2
160,72,84414,2,0,B|160:176,2,80,0|0|2
256,240,85214,5,4
352,72,85614,1,4
160,72,86014,1,4
256,240,86414,2,0,B|336:200|432:248,1,160
368,152,87014,2,0,B|432:232|352:328,3,160
312,224,88414,2,0,B|240:224,4,40,0|0|0|0|4
256,120,89214,5,0
256,312,89614,1,4
256,120,90014,1,0
184,184,90214,2,0,B|224:224|296:224|328:176,3,160
256,120,91614,2,0,B|256:48,4,40
256,216,92214,1,0
256,312,92414,6,0,B|357:311|416:232,1,160,0|0
256,120,93214,2,0,B|144:120,2,80
256,216,93814,2,0,B|424:216,2,160
256,216,94814,2,0,B|256:160,2,40
160,216,95214,6,0,B|88:216,4,40
352,216,96014,1,0
256,48,96414,2,0,B|256:160,1,80
256,320,97014,2,0,B|256:248,2,40
72,192,97614,2,0,B|184:192,1,80
440,192,98214,1,0
344,192,98414,2,0,B|344:128,2,40
248,192,98814,6,0,B|224:96|296:56,2,120,4|0|0
248,192,99614,2,0,B|272:288|200:328,2,120,0|0|0
248,192,100414,2,0,B|72:192,3,160,0|2|0|2
256,96,102014,6,0,B|400:96,2,120
256,192,102814,2,0,B|112:192,2,120
336,144,103614,2,0,B|440:152|432:264,3,160,0|2|0|2
256,328,105214,5,0
64,328,105614,1,2
64,136,106014,2,0,B|152:136,2,80,0|0|2
64,328,106814,2,0,B|248:328,3,160,0|2|0|6
416,328,108414,6,0,B|496:280|480:160,1,160,0|2
416,192,109014,2,0,B|416:72|328:40,1,160,0|2
320,104,109614,2,0,B|240:32|144:96,2,160,0|0|2
280,192,110614,2,0,B|280:296,2,80
184,192,111214,2,0,B|184:144,2,40
232,280,111614,6,0,B|184:328|104:320,2,120
328,280,112414,2,0,B|392:256|472:304,2,120
280,200,113214,2,0,B|176:176|160:72,3,160,0|2|0|2
312,96,114814,6,0,B|376:56|448:128,2,120
360,176,115614,2,0,B|392:240|336:304,2,120
272,224,116414,2,0,B|168:200|152:96,3,160,0|2|0|2
256,136,117814,1,0
336,88,118014,6,0,B|440:184|400:320,2,240
176,192,119614,2,0,B|120:144|128:64,2,120
256,136,120414,2,0,B|256:320,1,160
352,296,121014,2,0,B|352:352,2,40
352,104,121614,1,0
352,104,121814,1,0
160,104,122214,2,0,B|104:176|120:288,1,160
296,328,123014,5,0
208,288,123214,1,0
256,208,123414,1,0
112,144,123614,1,0
256,72,123814,1,0
400,144,124014,1,0
256,192,124414,12,6,125614
392,40,126014,6,0,B|496:192|384:352,1,320
256,192,127214,1,2
256,96,127414,1,0
256,192,127614,6,0,B|256:344,2,120
256,192,128414,2,0,B|256:48,2,120
160,192,129214,1,2
352,192,129614,1,2
160,192,130014,1,2
256,192,130214,1,0
352,192,130414,1,6
256,192,130814,12,0,132014
144,336,132414,6,0,B|40:184|152:24,1,320
256,192,133614,1,0
256,96,133814,1,0
344,144,134014,6,0,B|480:144,2,120
256,192,134814,2,0,B|112:192,2,120
344,240,135614,2,0,B|488:240,2,120
256,288,136414,2,0,B|128:288,2,120
256,192,137214,6,0,B|256:64,2,120
256,288,138014,1,0
120,240,138314,2,0,B|248:240,1,120
336,240,138814,1,0
256,64,139214,6,0,B|256:8,4,40
256,160,139814,6,0,B|256:232,6,40
256,352,140814,1,0
256,160,141214,2,0,B|256:48,2,80
256,352,142014,2,0,B|152:328|128:240,2,160
344,312,143014,1,0
256,272,143214,1,0
448,192,143614,5,0
256,192,144014,1,2
64,192,144414,5,0
256,192,144814,1,2
448,192,145214,5,0
352,192,145414,2,0,B|352:96,2,80,0|2|0
256,192,146014,2,0,B|256:104,2,80,0|0|6
384,336,146814,6,0,B|536:336,2,120
312,272,147614,2,0,B|448:272,2,120
240,208,148414,2,0,B|392:208,2,120
144,208,149214,1,0
144,112,149414,1,0
240,112,149614,1,0
240,208,149814,1,0
144,208,150014,6,0,B|209:162,3,80
368,56,151014,2,0,B|424:16,4,40,0|0|0|0|4
256,192,152814,5,4
256,288,153214,2,0,B|312:288|320:248,3,80,0|2|0|2
320,152,154814,2,0,B|296:120|248:120,2,80,0|2|0
320,248,156014,1,4
224,248,156414,2,0,B|160:248,2,60,4|0|0
224,200,157214,2,0,B|160:200,2,60,4|0|0
224,152,158014,2,0,B|152:152,2,60,4|4|4
272,152,158814,2,0,B|272:184,8,20,8|0|0|0|8|0|0|0|4
432,264,160014,6,0,B|488:176|424:112,1,160
256,192,160814,1,4
64,192,161214,5,0
64,192,161614,1,2
448,192,162014,1,0
448,192,162414,1,6
256,144,162814,6,0,B|416:144,2,120
256,240,163614,2,0,B|128:240,2,120
256,192,164414,12,0,165614
256,240,166014,5,0
400,240,166314,1,0
256,240,166614,1,0
256,144,166814,1,0
112,144,167114,1,0
256,144,167414,1,0
256,192,167614,12,0,169214
64,192,177214,5,0
64,192,177614,1,0
256,192,178014,1,0
256,192,178414,1,0
448,192,178814,1,0
448,192,179214,1,0
256,192,179614,1,0
256,192,180014,1,0
112,72,180414,6,0,B|368:72,2,240
400,312,182014,2,0,B|144:312,2,240
256,96,183614,5,0
256,96,184014,1,8
256,288,184414,1,0
256,288,184814,1,8
256,96,185214,6,0,B|336:96,1,80,0|0
256,192,185614,2,0,B|160:192,1,80,8|0
256,288,186014,2,0,B|344:288,2,80,0|0|4
256,192,186814,6,0,B|216:240|112:240,2,120
256,192,187614,2,0,B|208:136|232:80,2,120
256,192,188414,2,0,B|336:192|368:256,2,120
256,288,189214,5,0
256,192,189414,1,2
256,96,189614,1,2
256,192,189814,1,2
256,288,190014,6,0,B|104:288,2,120
256,192,190814,2,0,B|408:192,2,120
256,96,191614,5,2
256,96,191814,1,0
256,288,192014,1,2
256,288,192214,1,0
256,192,192414,6,0,B|96:192,1,160,2|4
256,96,193214,5,0
256,96,193614,1,2
256,288,194014,1,0
256,288,194414,1,2
88,192,194814,2,0,B|272:192,3,160,0|2|0|6
440,192,196414,6,0,B|480:104|432:32,1,160
368,112,197014,1,0
304,40,197214,2,0,B|248:112|312:208,2,160
128,112,198414,1,0
128,112,198614,1,0
128,112,198814,6,0,B|128:200,1,80,4|0
216,232,199214,6,0,B|304:232,1,80,4|0
384,192,199614,6,0,B|384:48,2,120,4|0|0
384,288,200414,1,0
240,288,200714,1,0
384,288,201014,1,0
384,192,201214,1,0
288,192,201414,2,0,B|168:192,2,80,0|6|0
288,96,202014,1,0
192,96,202214,2,0,B|80:96,2,80,0|6|0
288,96,202814,6,0,B|448:96,2,120
200,144,203614,2,0,B|48:144,2,120
288,192,204414,1,0
200,232,204614,2,0,B|96:232,2,80,0|6|0
288,280,205214,1,0
200,328,205414,2,0,B|96:328,2,80,0|6|0
288,280,206014,2,0,B|408:272|408:160,1,160
405,192,206614,2,0,B|408:112|288:104,1,160
232,104,207214,2,0,B|168:104,2,40
256,200,207614,6,0,B|152:200,1,80,4|0
128,120,208014,2,0,B|216:120,1,80,4|0
256,200,208414,2,0,B|152:200,1,80,4|0
128,288,208814,2,0,B|232:288,1,80,4|0
304,288,209214,2,0,B|256:208|312:120,1,160
384,88,209814,2,0,B|288:128|200:72,1,160
144,48,210414,2,0,B|120:88|152:144,1,80
320,192,211014,5,0
256,120,211214,1,0
192,192,211414,1,0
256,264,211614,2,0,B|256:328,4,40
96,312,212414,6,0,B|264:256|432:320,1,320
256,192,213614,1,2
416,80,214014,2,0,B|248:136|80:72,1,320
256,192,215214,1,2
96,192,215614,6,0,B|96:288,2,80
416,200,216414,2,0,B|416:104,2,80
224,192,217214,5,2
224,192,217414,1,2
128,192,217614,2,0,B|128:88,1,80,0|2
224,112,218014,1,0
224,112,218214,1,2
312,152,218414,1,2
184,336,218814,6,0,B|272:376|344:328,3,160,0|0|0|0
336,40,220414,6,0,B|248:0|176:48,3,160,0|0|0|0
64,192,222014,6,0,B|64:64,2,120
160,192,222814,2,0,B|296:192,2,120
232,256,223614,2,0,B|104:256,2,120
328,264,224414,2,0,B|376:328|448:312,2,120
280,176,225214,6,0,B|152:176,2,120
360,232,226014,2,0,B|504:232,2,120
272,272,226814,1,0
360,320,227014,1,0
360,232,227214,6,0,B|400:208,4,40
272,272,227814,1,0
184,312,228014,2,0,B|120:344,4,40
256,120,228814,5,2
256,120,229214,1,0
208,40,229414,1,0
304,40,229614,1,2
256,120,229814,1,0
208,40,230014,1,0
256,256,230414,5,2
256,256,230814,1,0
200,344,231014,1,0
312,344,231214,1,2
256,256,231414,1,0
200,344,231614,2,0,B|72:344,2,120
312,344,232414,2,0,B|448:344,2,120
256,256,233214,2,0,B|256:96,2,160,0|2|0
256,256,234414,1,6
312,64,234814,6,0,B|432:64,2,120,0|0|4
200,160,235614,2,0,B|80:160,2,120,0|0|4
256,256,236414,5,0
256,64,236814,1,2
256,256,237214,1,0
256,160,237414,1,0
256,64,237614,1,2
256,160,237814,1,0
256,256,238014,6,0,B|352:256,3,80
256,80,239014,2,0,B|184:80,4,40,0|0|0|0|4
256,192,240814,5,0
64,192,241214,2,0,B|64:248|104:280,3,80,0|2|0|2
160,200,242014,1,0
256,368,242414,1,2
448,192,242814,2,0,B|448:248|408:280,3,80,0|2|0|2
352,200,243614,1,0
256,368,244014,1,2
176,192,244414,6,0,B|304:192,2,120
104,256,245214,2,0,B|64:192|104:128,2,120
176,320,246014,2,0,B|304:320,2,120
192,224,246814,2,0,B|232:192,2,40,8|0|8
288,224,247214,2,0,B|336:184,4,40,8|0|8|0|8
400,192,248014,6,0,B|456:264|400:344,1,160
304,352,248614,1,0
264,264,248814,1,0
72,192,249214,5,0
168,192,249414,2,0,B|168:96,2,80,2|0|2
168,288,250014,1,0
264,264,250214,1,2
328,192,250414,1,6
216,40,250814,6,0,B|56:40,2,120
296,96,251614,2,0,B|424:96,2,120
256,192,252414,12,0,253614
256,104,254014,5,0
120,160,254314,1,0
256,104,254614,1,0
256,216,254814,1,0
392,272,255114,1,0
256,216,255414,1,0
256,192,255614,12,4,258414
