osu file format v11

[General]
AudioFilename: god fate.mp3
AudioLeadIn: 2000
PreviewTime: 56803
Countdown: 0
SampleSet: Normal
StackLeniency: 0.7
Mode: 0
LetterboxInBreaks: 0

[Editor]
DistanceSpacing: 1.01
BeatDivisor: 4
GridSize: 4

[Metadata]
Title:God FATE (TV Size)
TitleUnicode:God FATE (TV Size)
Artist:Faylan
ArtistUnicode:飛蘭
Creator:bl801
Version:Insane
Source:Hakkenden Touhou Hakken Ibun
Tags:shino sousuke pokie
BeatmapID:212061
BeatmapSetID:74738

[Difficulty]
HPDrainRate:6
CircleSize:4
OverallDifficulty:7
ApproachRate:9
SliderMultiplier:2.16
SliderTickRate:2

[Events]
//Background and Video events
0,0,"hamaji.jpg"
Video,-200,"xiangdongnijiudong.flv"
//Break Periods
//Storyboard Layer 0 (Background)
//Storyboard Layer 1 (Fail)
//Storyboard Layer 2 (Pass)
//Storyboard Layer 3 (Foreground)
//Storyboard Sound Samples
//Background Colour Transformations
3,100,163,162,255

[TimingPoints]
-1043,307.692307692308,4,2,0,100,1,0
33,-200,4,2,1,40,0,0
12649,-200,4,2,1,20,0,0
13418,-200,4,2,1,50,0,0
14956,-100,4,2,2,80,0,0
17418,-200,4,2,2,80,0,0
18495,-100,4,2,2,80,0,0
20341,-200,4,2,2,80,0,0
20957,-100,4,2,2,80,0,0
21572,-200,4,2,2,80,0,0
22341,-100,4,2,2,80,0,0
26495,-200,4,2,2,80,0,0
26957,-100,4,2,2,80,0,0
27264,-200,4,2,2,80,0,0
28187,-100,4,2,2,80,0,0
28957,-200,4,2,2,80,0,0
29418,-100,4,2,2,80,0,0
30187,-200,4,2,2,80,0,0
30649,-100,4,2,2,80,0,0
30957,-200,4,2,2,80,0,0
31880,-100,4,2,2,80,0,0
32649,-200,4,2,2,80,0,0
33110,-100,4,2,2,80,0,0
42341,-133.333333333333,4,2,2,80,0,0
44495,-100,4,2,2,80,0,0
56803,-100,4,1,0,70,0,1
56880,-100,4,2,2,100,0,1
61572,-100,4,1,2,70,0,1
61649,-100,4,2,2,100,0,1
66649,-100,4,1,2,70,0,1
66726,-100,4,2,2,100,0,1
71572,-100,4,1,2,70,0,1
71649,-100,4,2,2,100,0,1
76495,-100,4,1,0,80,0,1
76649,-100,4,2,2,55,0,1
76803,-100,4,1,0,80,0,1
76957,-100,4,2,2,55,0,1
77110,-100,4,1,0,80,0,1
77264,-100,4,2,2,55,0,1
77418,-100,4,1,0,80,0,1
77572,-100,4,2,2,55,0,1
77726,-100,4,1,0,80,0,1
77880,-100,4,2,2,65,0,1
78033,-100,4,1,0,80,0,1
78187,-100,4,2,2,65,0,1
78341,-100,4,1,0,80,0,1
78495,-100,4,2,2,65,0,1
78649,-100,4,1,0,80,0,1
78803,-100,4,2,2,70,0,1
78957,-100,4,1,2,80,0,1
79110,-100,4,2,2,70,0,1
79264,-100,4,1,2,80,0,1
79418,-100,4,2,2,70,0,1
79572,-100,4,1,2,80,0,1
79726,-100,4,2,2,70,0,1
79880,-100,4,1,2,80,0,1
80033,-100,4,2,2,70,0,1
80187,-100,4,1,2,80,0,1
80341,-100,4,2,2,70,0,1
80495,-100,4,1,2,80,0,1
80649,-100,4,2,2,70,0,1
80803,-100,4,1,2,80,0,1
81572,-100,4,2,2,70,0,1
81726,-100,4,1,2,80,0,1
81880,-100,4,2,2,70,0,1
82033,-100,4,1,2,80,0,1
82649,-200,4,1,2,55,0,0
82726,-200,4,1,2,5,0,0
83264,-200,4,1,2,55,0,0
83418,-200,4,1,2,60,0,0
83880,-100,4,1,0,55,0,0
84033,-100,4,2,0,25,0,0

[Colours]
Combo1 : 255,128,0
Combo2 : 0,128,0
Combo3 : 0,128,255
Combo4 : 128,0,128

[HitObjects]
136,168,33,1,0,0:0:0
136,168,110,1,0,0:0:0
136,169,187,2,0,P|200:173|200:173|241:148|241:148|308:160,1,162,4|2,0:0|0:0,0:0:0
452,108,1110,1,2,0:0:0
411,263,1418,2,0,P|379:157,1,108,4|0,0:0|0:0,0:0:0
256,56,1880,2,0,P|288:164,1,108,2|0,0:0|0:0,0:0:0
244,240,2341,1,0,0:0:0
244,240,2418,1,0,0:0:0
244,240,2495,1,0,0:0:0
244,240,2572,1,0,0:0:0
244,240,2649,6,0,P|170:257|170:257|72:237,1,162,4|2,0:0|0:0,0:0:0
52,44,3572,2,0,P|92:84|104:152,1,108,2|0,0:0|0:0,0:0:0
184,172,4033,2,0,P|168:112|180:51,1,108,2|0,0:0|0:0,0:0:0
173,67,4495,1,2,0:0:0
312,200,4803,1,0,0:0:0
394,38,5110,6,0,P|328:60|293:132,1,135,2|0,0:0|0:0,0:0:0
248,112,5572,2,0,P|288:184|274:278,1,162,2|0,0:0|0:0,0:0:0
44,344,6495,1,2,0:0:0
448,276,6957,1,0,0:0:0
44,344,7264,1,2,0:0:0
228,330,7572,6,0,P|187:272,1,54,4|0,0:0|0:0,0:0:0
280,168,7880,2,0,P|222:209,1,54,0|0,0:0|0:0,0:0:0
96,116,8187,2,0,P|137:174,1,54
52,288,8495,2,0,P|110:247,1,54
168,220,8803,6,0,P|192:144|168:56,1,162,4|0,0:0|0:0,0:0:0
296,184,9572,1,0,0:0:0
296,184,9726,2,0,P|304:260|336:296,1,108,0|4,0:0|0:0,0:0:0
256,192,10110,12,4,12033,0:0:0
260,192,12341,5,0,0:0:0
260,192,12418,1,0,0:0:0
260,192,12495,1,0,0:0:0
259,191,12572,2,0,P|233:167|165:239|229:327|337:279|369:203|233:159|289:107,1,297
356,48,13572,1,4,0:0:0
440,176,13880,5,0,0:0:0
436,192,13956,1,0,0:0:0
432,208,14033,1,0,0:0:0
428,224,14110,1,0,0:0:0
424,241,14187,1,0,0:0:0
421,257,14264,1,0,0:0:0
417,273,14341,1,4,0:0:0
321,338,14495,1,4,0:0:0
241,256,14649,1,0,0:0:0
241,256,14726,1,0,0:0:0
241,256,14803,1,0,0:0:0
241,256,14880,1,0,0:0:0
241,256,14956,6,0,P|152:284|116:272,1,108,4|0,0:0|0:0,0:0:0
64,240,15264,1,8,0:0:0
40,156,15418,1,0,0:0:0
310,39,15726,1,0,0:0:0
384,80,15880,1,8,0:0:0
368,164,16033,1,0,0:0:0
280,168,16187,5,0,0:0:0
240,92,16341,1,0,0:0:0
316,109,16495,2,0,P|334:180|312:238,1,108,8|0,0:0|0:0,0:0:0
196,275,16803,2,0,P|178:204|200:146,1,108
280,284,17110,1,8,0:0:0
368,292,17264,1,0,0:0:0
484,340,17418,6,0,P|429:348|372:320,1,108,0|8,0:0|0:0,0:0:0
28,340,17880,2,0,P|83:348|140:320,1,108,0|0,0:0|0:0,0:0:0
256,252,18495,1,0,0:0:0
244,232,18572,1,0,0:0:0
232,213,18649,1,0,0:0:0
257,130,18803,1,0,0:0:0
172,112,18956,1,8,0:0:0
152,196,19110,1,0,0:0:0
258,130,19264,6,0,P|382:133,1,108
152,196,19572,2,0,P|28:193,1,108,8|0,0:0|0:0,0:0:0
200,304,19880,6,0,P|246:325|304:316,1,108
366,260,20187,1,8,0:0:0
234,263,20341,6,0,P|203:304|136:308,1,108
112,120,20957,1,0,0:0:0
180,76,21110,1,0,0:0:0
239,134,21264,1,0,0:0:0
315,114,21418,1,8,0:0:0
388,92,21572,6,0,P|412:164|396:216,1,108
228,328,22033,2,0,P|204:256|220:204,1,108,8|0,0:0|0:0,0:0:0
296,264,22495,5,0,0:0:0
320,352,22649,1,8,0:0:0
416,336,22803,2,0,P|504:348,2,54
396,244,23110,2,0,P|464:200|468:148,1,108,0|8,0:0|0:0,0:0:0
448,92,23418,1,0,0:0:0
272,148,23572,6,0,P|408:152,1,108
188,52,23880,2,0,P|296:56,1,108,8|0,0:0|0:0,0:0:0
76,48,24187,1,0,0:0:0
76,156,24341,1,0,0:0:0
188,160,24495,2,0,P|172:240|200:292,1,108,8|0,0:0|0:0,0:0:0
196,276,24726,1,0,0:0:0
212,288,24803,6,0,P|76:292,1,108,4|0,0:0|0:0,0:0:0
411,343,25110,2,0,P|304:340,1,108,8|0,0:0|0:0,0:0:0
280,128,25418,2,0,P|304:264,2,108,0|0|8,0:0|0:0|0:0,0:0:0
208,64,25880,1,0,0:0:0
188,160,26033,6,0,P|112:136|64:152,1,108
264,220,26341,1,8,0:0:0
324,296,26495,6,0,P|368:328|440:316,1,108
364,208,26957,1,8,0:0:0
264,220,27110,1,0,0:0:0
232,312,27264,6,0,P|160:288|96:312,1,108,0|8,0:0|0:0,0:0:0
40,144,27726,2,0,P|100:172|156:160,1,108
172,64,28187,1,8,0:0:0
284,60,28341,1,0,0:0:0
357,132,28495,5,0,0:0:0
365,120,28572,1,0,0:0:0
373,108,28649,1,0,0:0:0
460,56,28803,1,8,0:0:0
448,177,28957,2,0,P|416:239|439:315,1,108
418,275,29418,1,8,0:0:0
316,212,29572,1,0,0:0:0
256,312,29726,6,0,P|144:320,2,108,0|0|8,0:0|0:0|0:0,0:0:0
168,216,30187,6,0,P|56:224,1,108
60,223,30649,5,8,0:0:0
180,180,30803,1,0,0:0:0
308,128,30957,6,0,P|312:188|280:232,1,108,0|8,0:0|0:0,0:0:0
176,40,31418,2,0,P|212:76|204:144,1,108
204,332,31880,6,0,P|160:272|172:216,1,108,8|0,0:0|0:0,0:0:0
260,248,32187,1,4,0:0:0
332,320,32341,1,0,0:0:0
412,256,32495,1,8,0:0:0
336,76,32649,6,0,P|352:136|328:188,1,108
244,40,33110,1,8,0:0:0
336,76,33264,1,0,0:0:0
144,160,33418,6,0,P|268:136,1,108,0|8,0:0|0:0,0:0:0
72,228,33726,1,4,0:0:0
72,228,33880,1,8,0:0:0
144,296,34033,1,8,0:0:0
144,296,34187,1,0,0:0:0
216,232,34341,1,8,0:0:0
216,232,34495,6,0,P|296:233|296:233|372:180|372:180|448:192,1,216,4|0,0:0|0:0,0:0:0
144,108,34957,2,0,P|4:132,1,108,2|0,0:0|0:0,0:0:0
388,328,35264,2,0,P|528:300,1,108,2|0,0:0|0:0,0:0:0
324,252,35572,1,2,0:0:0
256,132,35726,1,0,0:0:0
368,152,35880,6,0,P|380:80|440:48,1,108,2|0,0:0|0:0,0:0:0
144,152,36187,2,0,P|132:80|72:48,1,108,2|0,0:0|0:0,0:0:0
104,225,36495,1,2,0:0:0
408,228,36649,1,2,0:0:0
266,339,36957,6,0,P|204:251|327:189|230:99,1,216,4|0,0:0|0:0,0:0:0
152,317,37418,2,0,P|24:334,1,108,2|0,0:0|0:0,0:0:0
360,248,37726,2,0,P|488:231,1,108,2|0,0:0|0:0,0:0:0
216,168,38033,2,0,P|192:36,1,108,2|0,0:0|0:0,0:0:0
155,25,38341,6,0,P|179:144,1,108
352,360,38649,2,0,P|328:241,1,108,2|0,0:0|0:0,0:0:0
248,204,38957,1,10,0:0:0
248,204,39033,1,0,0:0:0
248,204,39110,1,8,0:0:0
184,256,39264,1,10,0:0:0
315,156,39418,1,4,0:0:0
40,88,39726,6,0,P|64:164|120:184,1,108,0|2,0:0|0:0,0:0:0
427,177,40033,2,0,P|448:164|472:88,1,108,0|2,0:0|0:0,0:0:0
248,204,40341,2,0,P|255:332,1,108,0|2,0:0|0:0,0:0:0
261,171,40649,2,0,P|250:38,1,108,0|2,0:0|0:0,0:0:0
172,152,40957,5,0,0:0:0
344,192,41110,1,2,0:0:0
192,256,41264,1,0,0:0:0
312,88,41418,1,2,0:0:0
236,48,41572,2,0,P|234:111|234:111|280:192|280:192|261:263,1,216,2|4,0:0|0:0,0:0:0
264,249,42341,5,0,0:0:0
360,340,42649,1,8,0:0:0
168,344,42957,1,0,0:0:0
156,172,43264,2,0,P|235:115|368:168,1,243.000009269715,4|0,0:0|0:0,0:0:0
264,249,43880,1,8,0:0:0
264,249,44033,1,2,0:0:0
264,336,44187,1,0,0:0:0
264,336,44341,1,12,0:0:0
48,181,44649,6,0,P|156:168,1,108,0|2,0:0|0:0,0:0:0
464,200,44957,2,0,P|356:213,1,108,0|2,0:0|0:0,0:0:0
140,260,45264,6,0,P|12:280,1,108,0|2,0:0|0:0,0:0:0
372,124,45572,2,0,P|500:104,1,108,0|2,0:0|0:0,0:0:0
296,68,45880,1,0,0:0:0
284,160,46033,1,2,0:0:0
272,248,46187,1,0,0:0:0
260,336,46341,1,2,0:0:0
84,152,46495,2,0,P|84:264|176:324,1,216,2|4,0:0|0:0,0:0:0
380,256,47110,5,0,0:0:0
380,256,47187,1,0,0:0:0
380,256,47264,2,0,P|248:272,1,108,2|0,0:0|0:0,0:0:0
240,104,47572,2,0,P|172:216,1,108,2|0,0:0|0:0,0:0:0
8,148,47880,6,0,P|80:276,1,108,2|0,0:0|0:0,0:0:0
352,156,48187,2,0,P|420:44,2,108,2|0|2,0:0|0:0|0:0,0:0:0
248,228,48649,1,0,0:0:0
151,296,48803,1,8,0:0:0
148,276,48880,1,0,0:0:0
144,255,48957,1,8,0:0:0
139,236,49033,1,8,0:0:0
135,216,49110,1,0,0:0:0
17,201,49264,6,0,P|68:127|200:120,1,216,4|0,0:0|0:0,0:0:0
186,112,49649,1,0,0:0:0
186,112,49726,1,8,0:0:0
333,195,49880,1,0,0:0:0
333,195,49957,1,0,0:0:0
333,195,50033,2,0,P|275:214|199:177,1,108
399,117,50341,1,8,0:0:0
436,228,50495,6,0,P|408:308|300:336|228:316,1,216
257,321,50880,1,0,0:0:0
257,321,50957,1,8,0:0:0
80,212,51110,1,0,0:0:0
80,212,51187,1,0,0:0:0
80,212,51264,2,0,P|152:216|188:256,1,108
140,344,51572,1,8,0:0:0
177,237,51726,6,0,P|248:188|372:204,1,216,4|0,0:0|0:0,0:0:0
371,203,52110,1,0,0:0:0
371,203,52187,1,10,0:0:0
452,280,52341,2,0,P|480:232|472:168,1,108,0|2,0:0|0:0,0:0:0
449,149,52572,1,0,0:0:0
410,133,52649,2,0,P|391:70|415:28,1,108,0|10,0:0|0:0,0:0:0
475,84,52957,1,0,0:0:0
316,80,53110,6,0,P|193:99,1,108,2|0,0:0|0:0,0:0:0
44,220,53418,2,0,P|150:204,1,108,10|0,0:0|0:0,0:0:0
268,204,53726,1,8,0:0:0
268,204,53803,1,0,0:0:0
268,204,53880,1,8,0:0:0
268,204,53957,1,8,0:0:0
268,204,54033,1,8,0:0:0
268,204,54110,1,0,0:0:0
268,204,54187,1,8,0:0:0
268,204,54264,1,0,0:0:0
268,204,54341,6,0,P|248:268,24,54,4|0|0|0|0|0|0|0|0|0|0|0|0|0|0|0|0|0|0|0|0|0|0|0|8,0:0|0:0|0:0|0:0|0:0|0:0|0:0|0:0|0:0|0:0|0:0|0:0|0:0|0:0|0:0|0:0|0:0|0:0|0:0|0:0|0:0|0:0|0:0|0:0|0:0,0:0:0
424,64,56803,5,4,0:0:0
312,80,56957,1,0,0:0:0
200,96,57110,1,8,0:0:0
424,64,57264,2,0,P|392:144|456:272,1,216
316,248,57726,1,8,0:0:0
316,248,57803,1,0,0:0:0
316,248,57880,6,0,P|208:232|88:300,1,216
76,296,58264,1,0,0:0:0
48,328,58341,2,0,P|88:192,1,108,8|0,0:0|0:0,0:0:0
128,40,58649,1,0,0:0:0
128,40,58803,1,0,0:0:0
200,100,58957,2,0,P|168:220,1,108,8|0,0:0|0:0,0:0:0
276,352,59264,6,0,P|284:252|368:200|452:228,1,216,0|8,0:0|0:0,0:0:0
236,32,59726,2,0,P|228:132|144:184|60:156,1,216
94,163,60110,1,0,0:0:0
94,163,60187,1,8,0:0:0
44,68,60341,5,0,0:0:0
32,244,60495,1,0,0:0:0
196,244,60649,1,0,0:0:0
448,296,60803,2,0,P|316:312,1,108,8|0,0:0|0:0,0:0:0
64,296,61110,2,0,P|196:312,1,108
256,184,61418,1,8,0:0:0
168,144,61572,2,0,P|197:76|315:69|354:158,1,216,4|0,0:0|0:0,0:0:0
180,328,62033,5,8,0:0:0
332,328,62187,1,0,0:0:0
368,240,62341,1,0,0:0:0
144,240,62495,1,0,0:0:0
168,144,62649,1,8,0:0:0
344,144,62803,1,0,0:0:0
244,80,62957,6,0,P|268:196|268:196|248:304,1,216,0|8,0:0|0:0,0:0:0
108,336,63418,2,0,P|128:208,1,108
404,48,63726,2,0,P|384:176,1,108,0|8,0:0|0:0,0:0:0
248,184,64033,1,0,0:0:0
248,184,64110,1,0,0:0:0
248,184,64187,6,0,P|256:304|256:304|367:321,1,216,0|8,0:0|0:0,0:0:0
140,128,64649,2,0,P|152:248,1,108
344,144,64957,2,0,P|332:36,2,108,0|8|0,0:0|0:0|0:0,0:0:0
436,200,65418,5,0,0:0:0
436,200,65572,2,0,P|406:333,1,108,0|8,0:0|0:0,0:0:0
268,304,65880,1,0,0:0:0
240,288,65957,1,8,0:0:0
232,256,66033,1,0,0:0:0
236,224,66110,1,8,0:0:0
248,192,66187,1,8,0:0:0
264,164,66264,1,8,0:0:0
271,132,66341,1,0,0:0:0
271,99,66418,1,8,0:0:0
264,68,66495,1,0,0:0:0
240,44,66572,1,8,0:0:0
204,32,66649,6,0,P|144:120|144:120|96:112|96:112|60:163,1,216,4|8,0:0|0:0,0:0:0
13,322,67110,2,0,P|106:260|221:276,1,216
334,333,67572,1,8,0:0:0
334,333,67726,2,0,P|340:248|329:233,1,108
416,40,68033,2,0,P|412:120|434:164,1,108,0|8,0:0|0:0,0:0:0
447,165,68264,1,0,0:0:0
475,169,68341,1,0,0:0:0
224,132,68495,2,0,P|116:151,2,108,0|0|8,0:0|0:0|0:0,0:0:0
312,48,68957,1,0,0:0:0
276,240,69110,6,0,P|31:283,1,216,0|8,0:0|0:0,0:0:0
386,293,69572,2,0,P|418:225|394:145|362:109|302:102,1,216
117,150,70033,2,0,P|237:130,1,108,8|0,0:0|0:0,0:0:0
223,133,70264,1,0,0:0:0
223,133,70341,1,0,0:0:0
16,112,70495,6,0,P|12:184|39:225,1,108,0|8,0:0|0:0,0:0:0
320,288,70803,2,0,P|324:216|293:179,1,108
120,260,71110,1,0,0:0:0
224,232,71264,1,8,0:0:0
224,232,71341,1,0,0:0:0
224,232,71418,1,0,0:0:0
200,336,71572,6,0,P|136:364|84:347,1,108,4|0,0:0|0:0,0:0:0
252,120,71880,1,8,0:0:0
340,264,72033,1,0,0:0:0
108,208,72187,1,0,0:0:0
225,232,72341,1,0,0:0:0
252,120,72495,2,0,P|320:96|371:113,1,108,8|0,0:0|0:0,0:0:0
481,170,72803,6,0,P|441:110|468:38,1,108
248,24,73110,1,8,0:0:0
292,192,73264,2,0,P|252:268|276:324,1,108
254,285,73495,1,0,0:0:0
254,285,73572,1,0,0:0:0
164,360,73726,1,8,0:0:0
120,248,73880,1,0,0:0:0
0,204,74033,6,0,P|0:276|34:314,1,108
168,128,74341,2,0,P|164:48|128:18,1,108,8|0,0:0|0:0,0:0:0
35,83,74649,1,0,0:0:0
120,248,74803,1,0,0:0:0
80,164,74957,1,8,0:0:0
80,164,75110,1,0,0:0:0
212,280,75264,6,0,P|276:300|331:274,1,108
424,140,75572,2,0,P|360:152|333:202,1,108,8|0,0:0|0:0,0:0:0
424,252,75880,1,0,0:0:0
424,252,75957,1,0,0:0:0
424,252,76033,1,0,0:0:0
424,252,76110,1,0,0:0:0
424,252,76187,1,8,0:0:0
424,252,76264,1,0,0:0:0
424,252,76341,1,0,0:0:0
424,252,76418,1,0,0:0:0
424,252,76495,5,4,0:0:0
212,280,76649,1,0,0:0:0
188,68,76803,1,0,0:0:0
400,40,76957,1,0,0:0:0
432,144,77110,5,0,0:0:0
293,33,77264,1,0,0:0:0
184,174,77418,1,0,0:0:0
323,286,77572,1,0,0:0:0
308,156,77726,5,0,0:0:0
308,156,77880,1,0,0:0:0
80,208,78033,1,0,0:0:0
80,208,78187,1,0,0:0:0
100,96,78341,5,0,0:0:0
100,96,78495,1,0,0:0:0
248,264,78649,1,0,0:0:0
248,264,78803,1,0,0:0:0
144,296,78957,5,0,0:0:0
144,296,79110,1,0,0:0:0
184,172,79264,1,0,0:0:0
184,172,79418,1,0,0:0:0
224,48,79572,1,0,0:0:0
224,48,79726,1,0,0:0:0
372,96,79880,2,0,P|324:136|262:137,1,108
42,309,80187,6,0,P|91:288|155:300,1,108,0|0,0:0|0:0,0:0:0
268,344,80495,1,0,0:0:0
304,204,80649,1,0,0:0:0
468,136,80803,1,0,0:0:0
388,280,80957,1,0,0:0:0
388,280,81110,1,0,0:0:0
148,168,81264,6,0,P|156:216|240:240,1,108,0|4,0:0|0:0,0:0:0
240,112,81572,1,0,0:0:0
232,96,81649,1,0,0:0:0
224,80,81726,1,0,0:0:0
108,60,81880,1,0,0:0:0
44,152,82033,6,0,P|44:224|164:330,1,216
468,152,82649,6,0,P|468:224|348:330,1,216
373,324,83418,1,0,0:0:0
256,64,83880,6,0,P|256:188,1,108,4|0,0:0|0:0,0:0:0
