osu file format v11

[General]
AudioFilename: god fate.mp3
AudioLeadIn: 2000
PreviewTime: 56803
Countdown: 0
SampleSet: Normal
StackLeniency: 0.7
Mode: 0
LetterboxInBreaks: 0

[Editor]
DistanceSpacing: 1.41
BeatDivisor: 4
GridSize: 4

[Metadata]
Title:God FATE (TV Size)
TitleUnicode:God FATE (TV Size)
Artist:Faylan
ArtistUnicode:飛蘭
Creator:bl801
Version:Hard
Source:Hakkenden Touhou Hakken Ibun
Tags:shino sousuke pokie
BeatmapID:212060
BeatmapSetID:74738

[Difficulty]
HPDrainRate:4
CircleSize:3
OverallDifficulty:4
ApproachRate:6
SliderMultiplier:1
SliderTickRate:1

[Events]
//Background and Video events
0,0,"hamaji.jpg"
Video,-200,"xiangdongnijiudong.flv"
//Break Periods
//Storyboard Layer 0 (Background)
//Storyboard Layer 1 (Fail)
//Storyboard Layer 2 (Pass)
//Storyboard Layer 3 (Foreground)
//Storyboard Sound Samples
//Background Colour Transformations
3,100,163,162,255

[TimingPoints]
-1043,307.692307692308,4,2,0,100,1,0
33,-133.333333333333,4,2,1,50,0,0
7572,-100,4,1,1,50,0,0
8880,-100,4,2,1,50,0,0
14957,-100,4,2,2,90,0,0
17418,-100,4,2,2,90,0,0
18495,-100,4,2,2,90,0,0
20341,-100,4,2,2,90,0,0
20957,-100,4,2,2,90,0,0
21572,-100,4,2,2,90,0,0
22341,-100,4,2,2,90,0,0
24649,-100,4,1,2,35,0,0
24803,-100,4,2,2,90,0,0
26495,-100,4,2,2,90,0,0
26957,-100,4,2,2,90,0,0
27264,-100,4,2,2,90,0,0
28341,-100,4,2,2,90,0,0
28957,-100,4,2,2,90,0,0
29418,-100,4,2,2,90,0,0
30187,-100,4,2,2,90,0,0
30649,-100,4,2,2,90,0,0
30957,-100,4,2,2,90,0,0
31880,-100,4,2,2,90,0,0
32649,-100,4,2,2,90,0,0
33110,-100,4,2,2,90,0,0
39033,-100,4,1,2,50,0,0
39110,-100,4,2,2,90,0,0
42341,-100,4,2,2,90,0,0
44495,-100,4,2,2,90,0,0
56803,-100,4,1,0,70,0,1
56880,-100,4,2,2,100,0,1
66649,-100,4,1,2,65,0,1
66726,-100,4,2,2,100,0,1
76495,-100,4,1,0,65,0,1
76649,-100,4,2,2,100,0,1
76803,-100,4,1,0,65,0,1
76957,-100,4,2,2,100,0,1
77110,-100,4,1,0,65,0,1
77264,-100,4,2,2,100,0,1
77418,-100,4,1,0,65,0,1
77572,-100,4,2,2,100,0,1
77726,-100,4,1,0,65,0,1
77880,-100,4,2,2,100,0,1
78033,-100,4,1,0,65,0,1
78187,-100,4,2,2,100,0,1
78341,-100,4,1,0,65,0,1
78495,-100,4,2,2,100,0,1
78649,-100,4,1,0,65,0,1
78803,-100,4,2,2,100,0,1
78957,-100,4,1,2,65,0,1
79110,-100,4,2,2,100,0,1
79264,-100,4,1,2,65,0,1
79418,-100,4,2,2,100,0,1
79572,-100,4,1,2,65,0,1
79726,-100,4,2,2,100,0,1
79880,-100,4,1,2,65,0,1
80033,-100,4,2,2,100,0,1
80187,-100,4,1,2,65,0,1
80341,-100,4,2,2,100,0,1
80495,-100,4,1,2,65,0,1
80649,-100,4,2,2,100,0,1
80803,-100,4,1,2,65,0,1
81572,-100,4,2,2,100,0,1
81726,-100,4,1,2,65,0,1
81880,-100,4,2,2,100,0,1
82033,-100,4,1,2,65,0,1
82649,-100,4,1,2,55,0,0
83880,-100,4,1,0,55,0,0
84033,-100,4,2,0,25,0,0

[Colours]
Combo1 : 255,128,0
Combo2 : 0,128,0
Combo3 : 0,128,255
Combo4 : 128,0,128

[HitObjects]
136,188,2649,2,0,P|268:176,2,112.500004291535,4|2|0,0:0|0:0|0:0,0:0:0
216,264,4033,2,0,P|336:252,1,112.500004291535,2|0,0:0|0:0,0:0:0
404,248,4803,1,2,0:0:0
412,172,5110,6,0,P|416:108|384:68,2,112.500004291535,0|2|0,0:0|0:0|0:0,0:0:0
356,272,6495,1,2,0:0:0
248,244,6957,1,0,0:0:0
176,224,7264,2,0,P|128:240,2,37.5000014305115,0|2|4,0:0|0:0|0:0,0:0:0
84,188,7880,5,0,0:0:0
112,92,8187,1,0,0:0:0
208,120,8495,1,0,0:0:0
304,148,8803,6,0,P|304:236|260:276,1,150,4|0,0:0|0:0,0:0:0
112,272,9726,1,0,0:0:0
256,192,10033,12,4,12495,0:0:0
256,188,13572,5,4,0:0:0
452,228,14341,1,0,0:0:0
452,228,14495,2,0,P|416:264|352:272,1,100,4|0,0:0|0:0,0:0:0
316,244,14957,5,0,0:0:0
248,344,15264,1,8,0:0:0
248,344,15418,1,0,0:0:0
164,260,15726,1,0,0:0:0
164,260,15880,1,8,0:0:0
232,164,16187,6,0,P|260:96|300:80,1,100,0|8,0:0|0:0,0:0:0
280,84,16649,1,0,0:0:0
364,168,16957,1,0,0:0:0
364,168,17110,1,8,0:0:0
348,288,17418,6,0,P|388:324|448:328,1,100,0|8,0:0|0:0,0:0:0
432,331,17880,1,0,0:0:0
484,224,18187,1,0,0:0:0
484,224,18341,1,8,0:0:0
472,104,18649,6,0,P|416:80,2,50,0|0|8,0:0|0:0|0:0,0:0:0
360,144,19264,2,0,P|288:140,2,50,0|0|8,0:0|0:0|0:0,0:0:0
260,212,19880,5,0,0:0:0
220,324,20187,1,8,0:0:0
220,324,20341,1,0,0:0:0
104,288,20649,1,0,0:0:0
104,288,20803,1,8,0:0:0
136,172,21110,6,0,P|136:100|160:72,1,100,0|8,0:0|0:0,0:0:0
150,79,21572,1,0,0:0:0
256,140,21880,1,0,0:0:0
256,140,22033,1,8,0:0:0
352,68,22341,6,0,P|392:112|388:168,1,100,0|8,0:0|0:0,0:0:0
383,157,22803,2,0,P|349:255,1,100
344,260,23264,2,0,P|374:306,1,50,8|0,0:0|0:0,0:0:0
400,344,23572,6,0,P|332:364,3,50,0|0|8|0,0:0|0:0|0:0|0:0,0:0:0
316,322,24187,2,0,P|255:311,3,50,0|0|8|0,0:0|0:0|0:0|0:0,0:0:0
212,288,24803,5,4,0:0:0
144,188,25110,1,8,0:0:0
144,188,25264,1,0,0:0:0
212,88,25572,1,0,0:0:0
212,88,25726,1,8,0:0:0
324,132,26033,6,0,P|384:108,2,50,0|0|8,0:0|0:0|0:0,0:0:0
324,132,26495,2,0,P|296:176|307:241,1,100
348,256,26957,2,0,P|460:252,1,100,8|0,0:0|0:0,0:0:0
280,344,27572,5,8,0:0:0
280,344,27726,2,0,P|160:347,1,100
120,348,28187,2,0,P|92:288|104:248,1,100,8|0,0:0|0:0,0:0:0
98,245,28649,2,0,P|28:232,1,50,0|8,0:0|0:0,0:0:0
8,212,28957,2,0,P|36:168|30:103,1,100
9,67,29418,1,8,0:0:0
129,67,29726,6,0,P|185:39|237:51,1,100,0|8,0:0|0:0,0:0:0
220,43,30187,1,0,0:0:0
304,127,30495,1,0,0:0:0
304,127,30649,2,0,P|344:147|368:147,1,50,8|0,0:0|0:0,0:0:0
400,117,30957,6,0,P|384:173|404:209,1,100,0|8,0:0|0:0,0:0:0
402,207,31418,1,0,0:0:0
480,288,31726,2,0,P|496:228,2,50,0|8|0,0:0|0:0|0:0,0:0:0
480,300,32187,6,0,P|408:304|368:328,1,100,0|8,0:0|0:0,0:0:0
382,324,32649,2,0,P|333:340|274:329,1,100
287,324,33110,2,0,P|228:308,1,50,8|0,0:0|0:0,0:0:0
180,292,33418,5,0,0:0:0
180,292,33572,2,0,P|156:240|176:184,1,100,12|0,0:0|0:0,0:0:0
260,124,34033,6,0,P|268:188|244:224,1,100,10|0,0:0|0:0,0:0:0
251,216,34495,1,4,0:0:0
440,308,34957,5,2,0:0:0
436,168,35264,1,2,0:0:0
440,28,35572,1,2,0:0:0
316,92,35880,6,0,P|272:72|212:88,2,100,0|2|0,0:0|0:0|0:0,0:0:0
316,92,36649,1,2,0:0:0
348,228,36957,1,4,0:0:0
156,316,37418,5,2,0:0:0
160,176,37726,1,0,0:0:0
164,36,38033,1,2,0:0:0
48,112,38341,6,0,P|32:156|48:228,2,100,0|2|0,0:0|0:0|0:0,0:0:0
48,112,39110,1,2,0:0:0
188,108,39418,1,4,0:0:0
40,260,39880,5,2,0:0:0
179,260,40187,1,0,0:0:0
319,260,40495,1,2,0:0:0
459,260,40803,5,0,0:0:0
459,120,41110,1,2,0:0:0
318,120,41418,1,0,0:0:0
318,120,41572,2,0,P|250:116|206:132,1,100,2|4,0:0|0:0,0:0:0
368,273,42341,5,0,0:0:0
368,273,42649,2,0,P|312:293|256:277,1,100,8|0,0:0|0:0,0:0:0
151,215,43264,2,0,P|195:175|251:179,1,100
308,53,43880,2,0,P|253:37,3,50,8|0|0|4,0:0|0:0|0:0|0:0,0:0:0
448,140,44803,5,2,0:0:0
320,192,45110,1,0,0:0:0
188,248,45418,1,2,0:0:0
212,108,45726,2,0,P|104:84,2,100,0|2|0,0:0|0:0|0:0,0:0:0
211,107,46495,1,2,0:0:0
320,192,46803,1,4,0:0:0
156,332,47264,6,0,P|44:332,1,100,2|0,0:0|0:0,0:0:0
164,244,47880,2,0,P|56:244,1,100,2|0,0:0|0:0,0:0:0
172,152,48495,2,0,P|56:152,1,100,2|0,0:0|0:0,0:0:0
72,152,48957,1,2,0:0:0
168,52,49264,1,4,0:0:0
324,192,49726,6,0,P|320:264|284:288,1,100,8|0,0:0|0:0,0:0:0
164,300,50341,1,8,0:0:0
164,300,50495,6,0,P|188:256|244:236,1,100,4|0,0:0|0:0,0:0:0
224,168,50957,2,0,P|176:144|160:80,1,100,8|0,0:0|0:0,0:0:0
144,36,51418,1,0,0:0:0
280,76,51726,6,0,P|360:124|368:200,1,150,4|8,0:0|0:0,0:0:0
296,296,52495,2,0,P|168:312,1,100,0|8,0:0|0:0,0:0:0
76,232,53110,2,0,P|184:216,1,100,0|8,0:0|0:0,0:0:0
316,200,53726,2,0,P|360:148|352:104,1,100,0|8,0:0|0:0,0:0:0
256,192,54341,12,8,56187,0:0:0
112,124,56803,6,0,P|120:204|184:256,1,150,4|0,0:0|0:0,0:0:0
372,300,57726,1,2,0:0:0
372,300,57880,2,0,P|360:252|304:216,1,100
256,196,58341,1,2,0:0:0
248,336,58649,2,0,P|120:344,1,100,0|2,0:0|0:0,0:0:0
8,348,59264,6,0,P|8:268|80:232,1,150
212,84,60187,1,2,0:0:0
212,84,60341,2,0,P|164:208,1,100
188,248,60803,2,0,P|264:244|312:268,1,100,2|0,0:0|0:0,0:0:0
384,352,61418,2,0,P|316:344,1,50,2|4,0:0|0:0,0:0:0
456,172,62033,5,2,0:0:0
456,172,62649,1,2,0:0:0
360,68,62957,6,0,P|344:124|364:184,1,100,0|2,0:0|0:0,0:0:0
352,163,63418,1,0,0:0:0
216,200,63726,1,0,0:0:0
216,200,63880,2,0,P|232:252|276:280,1,100,2|0,0:0|0:0,0:0:0
404,316,64495,5,2,0:0:0
404,316,65110,1,2,0:0:0
484,200,65418,6,0,P|432:224,1,50,4|4,0:0|0:0,0:0:0
308,168,65880,1,0,0:0:0
308,168,66033,2,0,P|288:92|236:56,1,100,0|2,0:0|0:0,0:0:0
132,72,66649,6,0,P|124:144|184:184|248:172,1,150,4|0,0:0|0:0,0:0:0
52,308,67572,1,2,0:0:0
52,308,67726,2,0,P|156:312,1,100
216,340,68187,2,0,P|264:296|328:296,1,100,2|0,0:0|0:0,0:0:0
436,280,68803,1,2,0:0:0
328,192,69110,6,0,P|296:128|320:64|400:56,1,150
360,276,70033,1,2,0:0:0
360,276,70187,2,0,P|312:308|244:304,1,100
204,292,70649,2,0,P|120:276|80:304,1,100,2|0,0:0|0:0,0:0:0
20,172,71264,2,0,P|88:156,1,50,2|4,0:0|0:0,0:0:0
256,64,71880,5,2,0:0:0
256,64,72495,1,2,0:0:0
336,180,72803,6,0,P|328:260|284:292,1,100,0|2,0:0|0:0,0:0:0
264,320,73264,2,0,P|152:308,2,100
328,352,74033,1,4,0:0:0
460,296,74341,5,2,0:0:0
460,296,74957,1,2,0:0:0
404,168,75264,6,0,P|336:120|288:128,1,100,0|2,0:0|0:0,0:0:0
322,119,75726,1,0,0:0:0
188,160,76033,1,0,0:0:0
56,208,76341,2,0,P|56:280|120:336,1,150,0|4,0:0|0:0,0:0:0
320,304,77264,1,0,0:0:0
384,271,77418,1,0,0:0:0
284,171,77726,6,0,P|284:87|360:43,1,150,0|2,0:0|0:0,0:0:0
430,147,78495,1,0,0:0:0
464,208,78649,1,0,0:0:0
424,336,78957,6,0,P|352:348|288:296,1,150,0|2,0:0|0:0,0:0:0
392,205,79726,1,0,0:0:0
463,207,79880,1,0,0:0:0
464,68,80187,6,0,P|308:32,1,150,0|2,0:0|0:0,0:0:0
196,108,80957,1,0,0:0:0
257,73,81110,1,0,0:0:0
364,164,81418,6,0,P|240:152,1,100,0|2,0:0|0:0,0:0:0
140,220,82033,2,0,P|16:212,1,100,0|0,0:0|0:0,0:0:0
40,213,82649,1,4,0:0:0
464,192,83880,6,0,P|440:128,1,50,4|0,0:0|0:0,0:0:0
