osu file format v7

[General]
AudioFilename: Errand.mp3
AudioLeadIn: 0
PreviewTime: -1
Countdown: 0
SampleSet: Normal
StackLeniency: 0.7
Mode: 0
LetterboxInBreaks: 0

[Editor]
Bookmarks: 9653,21152,32291,38400,42712,54930,73975
DistanceSpacing: 0.800000011920929
BeatDivisor: 4
GridSize: 8

[Metadata]
Title:Errand(TV Size)
Artist:Faylan
Creator:do and do
Version:Hard
Source:Seikon no Qwaser
Tags:Anime

[Difficulty]
HPDrainRate:4
CircleSize:5
OverallDifficulty:4
SliderMultiplier:1.6
SliderTickRate:2

[Events]
//Background and Video events
0,0,"Seikon no Qwaser.jpg"
Video,320,"Seikon no Qwaser OP.avi"
//Break Periods
//Storyboard Layer 0 (Background)
//Storyboard Layer 1 (Fail)
//Storyboard Layer 2 (Pass)
//Storyboard Layer 3 (Foreground)
//Storyboard Sound Samples
//Background Colour Transformations
3,100,163,162,255

[TimingPoints]
1029,359.281437125748,4,1,1,70,1,0
6419,-100,4,1,0,50,0,0
6688,-100,4,1,0,30,0,0
6958,-100,4,1,0,70,0,0
7317,-100,4,2,0,70,0,0
7676,-100,4,1,0,70,0,0
8215,-100,4,1,0,70,0,0
8754,-100,4,2,0,70,0,0
9114,-100,4,1,0,70,0,0
10192,-100,4,2,0,70,0,0
11090,-100,4,1,0,70,0,0
11629,-100,4,1,0,40,0,0
11899,-100,4,1,0,35,0,0
11988,-100,4,1,0,40,0,0
12078,-100,4,1,0,45,0,0
12168,-100,4,1,0,50,0,0
12258,-100,4,1,0,55,0,0
12348,-100,4,1,0,60,0,0
12438,-100,4,1,0,65,0,0
12527,-100,4,1,0,70,0,0
13066,-100,4,2,0,70,0,0
13426,-100,4,1,0,70,0,0
14504,-100,4,2,0,70,0,0
14863,-100,4,1,0,70,0,0
15941,-100,4,2,0,70,0,0
16301,-100,4,1,0,70,0,0
16840,-100,4,2,0,70,0,0
17109,-100,4,1,0,70,0,0
18007,-100,4,2,0,70,0,0
18277,-100,4,1,0,70,0,0
19535,-100,4,2,0,70,0,0
19624,-100,4,2,0,65,0,0
19804,-100,4,2,0,60,0,0
19984,-100,4,2,0,55,0,0
20164,-100,4,2,0,50,0,0
20343,-100,4,2,0,45,0,0
20523,-100,4,2,0,40,0,0
20703,-100,4,2,0,35,0,0
20882,-100,4,2,0,70,0,0
30944,-100,4,1,0,70,0,0
32466,-100,4,1,1,60,0,0
43790,-100,4,2,0,65,0,0
52415,-100,4,1,0,65,0,0
55469,-100,4,1,1,70,0,1
76940,-100,4,2,0,70,0,0
87271,-100,4,2,0,70,0,0

[Colours]
Combo1 : 185,146,239
Combo2 : 0,128,255
Combo3 : 152,89,155

[HitObjects]
448,288,1029,1,0
448,160,1388,1,0
448,96,1567,2,0,B|464:88|480:64|472:56|456:40|440:24|432:16,4,80,0|0|0|0|0
384,96,2466,1,0
288,288,3005,6,0,B|296:304|320:320|328:312|344:296|360:280|368:272,4,80,0|0|0|0|0
160,288,4082,1,0
96,288,4262,1,0
96,160,4621,1,0
96,96,4801,1,0
160,96,4981,1,0
224,96,5160,6,0,B|224:392|416:392|416:72|416:72,1,480,0|0
288,96,6597,1,4
288,64,6687,1,4
288,32,6777,1,4
160,32,7136,6,0,B|152:120|160:192|160:192,1,160,0|0
160,320,7855,1,0
416,320,8573,2,0,B|328:312|256:320|256:320,1,160,0|0
256,192,9292,1,0
480,32,10011,5,0
352,32,10370,2,0,B|392:48|376:80|336:112|336:112,1,80,0|2
288,96,10729,2,0,B|248:80|264:48|304:16|304:16,1,80,2|0
288,224,11448,5,0
416,224,11807,2,0,B|416:176,8,40
416,352,12885,6,0,B|328:344|256:352|256:352,1,160
128,352,13603,1,0
128,96,14322,2,0,B|120:184|128:256|128:256,1,160
256,256,15040,1,0
128,256,15400,5,4
128,192,15579,1,0
128,128,15759,2,0,B|216:120|288:128|288:128,1,160
288,192,16298,1,0
352,192,16478,1,0
416,192,16657,2,0,B|424:280|416:352|416:352,1,160
352,352,17196,1,0
288,352,17376,2,0,B|272:344|256:320|264:312|280:296|296:280|304:272,2,80
224,352,17915,2,0,B|128:352|128:352,1,80
144,224,18454,6,4,B|144:128|144:128,1,80
256,80,18993,1,4
320,80,19172,2,0,B|320:32|320:32,1,40
320,80,19352,2,0,B|320:128|320:128,1,40,0|0
320,144,19531,6,0,B|224:216|224:216,1,80,0|2
304,256,19891,2,0,B|232:160|232:160,1,80,0|2
192,240,20250,2,0,B|288:168|288:168,1,80,0|2
208,128,20609,2,0,B|280:224|280:224,1,80,0|2
256,192,20969,1,0
448,224,21508,6,0,B|448:128|448:128,1,80,0|2
416,88,21867,1,0
368,40,22046,2,0,B|280:40|280:40,1,80,0|2
224,40,22406,2,0,B|128:32|128:144|128:144,1,160,0|2
64,144,22945,1,0
64,208,23124,1,0
64,336,23484,2,0,B|208:320|176:200|304:224|304:224,1,240,0|2
400,208,24382,6,0,B|400:304|400:304,1,80,0|2
464,288,24741,1,0
464,352,24921,1,0
400,352,25100,1,0
336,352,25280,2,0,B|280:360|288:288|288:288,1,80,0|2
224,304,25639,2,0,B|232:360|160:352|160:352,1,80,0|2
112,352,25999,1,0
32,256,26358,1,0
32,192,26537,2,0,B|40:104|152:96|152:96,1,160,0|2
272,96,27256,6,0,B|368:96|368:96,1,80,0|2
352,32,27615,1,0
288,32,27795,2,0,B|192:32|192:32,1,80,0|2
144,32,28154,2,0,B|48:56|24:160|24:160,1,160,0|2
32,200,28693,1,0
32,264,28873,1,0
32,328,29052,1,0
224,328,29591,6,0,B|312:312|312:200|312:200,1,160,0|2
312,144,30130,1,0
184,144,30490,1,0
120,144,30669,1,0
120,80,30849,1,0
184,80,31028,5,4
184,208,31388,1,4
248,208,31567,1,0
120,208,31927,1,4
184,208,32106,1,0
320,304,32645,5,0
192,304,33005,1,8
64,304,33364,2,0,B|64:192,2,80,0|0|8
64,176,34082,5,0
64,48,34442,1,8
192,48,34801,2,0,B|304:48,2,80,0|0|8
320,48,35520,5,0
448,48,35879,1,8
448,176,36238,2,0,B|448:288,2,80,0|0|8
448,304,36957,5,0
320,304,37316,1,8
192,304,37675,2,0,B|80:304,2,80,0|0|8
256,56,38753,5,0
128,88,39112,1,0
56,192,39472,2,0,B|264:328|176:56|352:152|352:32|432:112|456:48|488:128|488:128,1,480
480,240,40909,1,0
376,320,41268,1,4
256,272,41627,2,0,B|256:184|256:184,1,80
152,112,42166,1,4
56,192,42526,1,4
32,288,43963,5,0
32,320,44052,1,0
32,352,44142,2,0,B|80:304|144:280|208:280|248:368|248:368,1,240,2|0
304,352,44861,2,0,B|368:320|400:304|400:248|352:136|352:136,1,240,2|0
360,88,45579,2,0,B|264:88|176:88|96:88|64:168|24:264|24:264,1,400,2|0
160,248,46837,5,0
208,296,47017,2,0,B|240:360|304:376|360:352|408:296|408:296,1,240,2|0
472,296,47735,2,0,B|480:208|472:136|472:136,1,160,2|0
472,72,48274,2,0,B|320:16|0:-72|144:320|144:320,1,560,2|0
320,296,50070,5,0
368,248,50250,1,2
320,200,50430,1,0
192,200,50789,1,0
144,248,50969,1,2
192,296,51148,5,4
256,184,51508,1,4
144,128,51867,1,4
72,232,52226,1,4
256,184,52765,5,4
256,88,53034,1,0
352,88,53304,2,0,B|440:88|440:88,1,80,0|4
432,184,53753,1,0
432,280,54023,2,0,B|344:280|344:280,1,80,0|4
256,280,54472,1,0
256,184,54741,1,0
480,352,55819,6,0,B|480:264|480:264,1,80,0|8
480,208,56178,1,0
480,144,56358,1,0
416,144,56537,1,0
416,80,56717,2,0,B|328:80|328:80,1,80,8|0
208,80,57256,2,0,B|112:80|112:80,1,80,0|8
64,80,57615,5,0
64,208,57975,1,0
64,272,58154,2,0,B|153:272|153:272,1,80,8|0
264,320,58693,2,0,B|352:320|352:320,1,80,0|8
480,320,59232,5,0
432,272,59412,1,0
472,216,59591,1,8
472,152,59771,2,0,B|352:232|232:96|136:192|136:192,1,320
32,176,60849,5,0
88,144,61029,1,8
32,112,61208,1,0
32,48,61388,2,0,B|120:48|120:48,1,80,0|0
176,48,61747,1,8
176,112,61927,1,0
176,176,62106,2,0,B|264:176|264:176,1,80
256,48,62645,6,8,B|344:48|424:48|424:48,1,160,0|0
480,48,63184,2,8,B|480:296|480:296,1,240,0|0
376,352,64082,5,0
312,352,64262,2,8,B|56:352|56:352,1,240,0|0
176,272,65160,1,0
144,216,65340,1,0
112,160,65520,1,0
112,32,65879,1,0
240,32,66238,1,0
240,160,66597,1,0
480,264,67316,6,0,B|480:368|480:368,1,80,0|8
416,344,67675,1,0
352,344,67855,2,0,B|248:344|248:344,1,80
208,344,68214,1,8
208,280,68394,1,0
440,160,69112,6,0,B|256:160|256:160,1,160
216,160,69651,1,8
216,96,69831,1,0
96,40,70190,6,0,B|200:40|200:40,1,80,0|8
96,144,70729,5,0
96,208,70909,1,0
96,272,71088,1,8
96,336,71268,2,8,B|424:336|416:56|416:56,1,480,0|0
288,32,72705,5,0
232,72,72885,1,0
288,104,73064,1,0
288,232,73424,2,0,B|192:232|192:232,1,80
32,32,74322,5,0
160,32,74681,1,0
160,160,75040,1,0
32,160,75400,1,0
32,288,75759,1,0
160,288,76118,1,0
288,288,76478,1,0
288,160,76837,1,0
288,96,77017,6,8,B|16:96|16:96,1,240,0|0
128,192,77915,2,0,B|128:288|128:288,1,80
232,352,78454,2,0,B|320:352|320:352,1,80
440,352,78993,1,2
440,224,79352,1,0
440,160,79531,1,0
440,96,79711,2,0,B|344:96|344:96,1,80,2|0
232,96,80250,2,0,B|128:96|128:96,1,80,0|2
232,192,80789,5,0
224,320,81148,2,0,B|128:320|128:320,1,80,2|0
336,320,81867,1,2
336,192,82226,1,0
336,128,82406,1,0
336,64,82585,2,0,B|240:64|240:64,1,80,2|0
128,64,83124,2,0,B|40:64|40:64,1,80,0|2
128,160,83663,5,0
384,160,84382,1,0
384,96,84561,1,0
384,32,84741,2,0,B|288:32|288:32,1,80,2|0
240,32,85100,1,0
176,32,85280,1,0
112,32,85460,2,0,B|112:128|112:128,1,80,2|0
112,240,85999,6,0,B|112:336|112:336,1,80,0|2
240,320,86537,1,0
368,320,86897,2,0,B|368:216|368:216,1,80,2|0
256,208,87256,12,0,88514
