osu file format v7

[General]
AudioFilename: Errand (TV Size).mp3
AudioLeadIn: 2500
PreviewTime: 54954
Countdown: 0
SampleSet: Soft
StackLeniency: 0.4
Mode: 0
LetterboxInBreaks: 1

[Editor]
Bookmarks: 6092,11841,17589,20463,26212,31960,37709,43457,49206,54954,60703,66451,72200,83697,87829
DistanceSpacing: 0.75
BeatDivisor: 4
GridSize: 16

[Metadata]
Title:Errand (TV Size)
Artist:Faylan
Creator:DJPop
Version:Normal
Source:Seikon no Qwaser
Tags:Dangaard

[Difficulty]
HPDrainRate:2
CircleSize:4
OverallDifficulty:4
SliderMultiplier:1.28
SliderTickRate:2

[Events]
//Background and Video events
Video,-300,"Errand (TV Size).avi"
0,0,"Errand (TV Size).png"
//Break Periods
//Storyboard Layer 0 (Background)
//Storyboard Layer 1 (Fail)
//Storyboard Layer 2 (Pass)
//Storyboard Layer 3 (Foreground)
//Storyboard Sound Samples
//Background Colour Transformations
3,100,0,0,0

[TimingPoints]
344,359.281437125748,4,1,2,0,1,0
5373,-100,4,1,1,80,0,0
9775,-100,4,1,2,80,0,0
10134,-100,4,1,1,80,0,0
11391,-100,4,1,2,80,0,0
11571,-100,4,1,1,80,0,0
15523,-100,4,1,2,80,0,0
15882,-100,4,1,1,80,0,0
17140,-100,4,1,2,80,0,0
17320,-100,4,1,1,80,0,0
20643,-200,4,2,1,60,0,0
30254,-200,4,1,1,80,0,0
30523,-100,4,1,1,80,0,0
33667,-100,4,1,2,80,0,0
33846,-100,4,1,1,80,0,0
36541,-100,4,1,2,80,0,0
36721,-100,4,1,1,80,0,0
43637,-100,4,2,2,80,0,0
44625,-100,4,1,2,80,0,0
44805,-100,4,2,2,80,0,0
45882,-100,4,1,1,80,0,0
46511,-100,4,2,2,80,0,0
47230,-100,4,2,1,80,0,0
47769,-100,4,2,2,80,0,0
48936,-100,4,1,2,80,0,0
49116,-100,4,2,1,80,0,0
49385,-100,4,2,2,80,0,0
50373,-100,4,2,1,80,0,0
50643,-100,4,1,1,80,0,0
54954,-100,4,1,1,80,0,1
60254,-100,4,1,2,80,0,1
60613,-100,4,1,1,80,0,1
61691,-100,4,1,2,80,0,1
61870,-100,4,1,1,80,0,1
62409,-100,4,1,2,80,0,1
62589,-100,4,1,1,80,0,1
63128,-100,4,1,2,80,0,1
63308,-100,4,1,1,80,0,1
63846,-100,4,1,2,80,0,1
64026,-100,4,1,1,80,0,1
66450,-100,4,1,1,80,0,0
66451,-100,4,1,1,80,0,1
71212,-100,4,1,2,80,0,1
71391,-100,4,1,1,80,0,1
75343,-100,4,1,2,80,0,1
75523,-100,4,1,1,80,0,1
75703,-100,4,1,2,0,0,1
75793,-100,4,1,2,80,0,1
75882,-100,4,1,1,80,0,1
76062,-100,4,1,2,80,0,1
76242,-100,4,1,1,80,0,1
76511,-100,4,2,1,80,0,1
77499,-100,4,1,1,80,0,1
77679,-100,4,1,1,80,0,0
83248,-100,4,1,2,80,0,0
83427,-100,4,1,1,80,0,0
85403,-100,4,1,2,80,0,0
85583,-100,4,1,1,80,0,0
86122,-100,4,1,2,80,0,0
86302,-100,4,1,1,80,0,0

[Colours]
Combo1 : 0,255,0
Combo2 : 0,255,255
Combo3 : 255,0,255
Combo4 : 255,255,0

[HitObjects]
256,192,344,12,0,4475
32,352,6092,5,4
32,256,6451,1,8
32,160,6811,1,0
32,64,7170,1,8
32,64,7349,2,0,C|160:64,1,128,4|0
160,64,7888,1,8
256,64,8248,2,0,C|384:64,1,128,0|8
480,64,8966,5,4
480,160,9326,1,8
384,160,9685,2,0,C|384:352,2,192,0|4|8
384,160,10942,2,0,C|384:32,2,128,0|8|8
384,160,11841,5,4
288,160,12200,1,8
192,160,12559,1,0
96,160,12918,1,8
96,160,13098,2,0,C|96:288,1,128,4|0
96,288,13637,1,8
168,352,13996,2,0,C|296:352,1,128,0|8
392,352,14715,5,4
464,288,15074,1,8
464,192,15433,2,0,B|464:120|368:104|368:31,2,192,0|4|8
464,192,16691,2,0,B|408:224|352:256,2,128,0|8|8
416,96,17769,5,10
416,96,17948,1,2
320,64,18308,1,10
320,64,18487,1,10
224,32,18846,1,8
224,32,19026,2,0,C|96:32,4,128,4|0|0|0|4
224,96,20823,5,0
224,160,21182,1,0
224,224,21541,1,0
224,224,21721,2,0,C|160:224,2,64
288,224,22799,2,0,B|344:211|352:160,1,96,0|2
352,96,23697,5,0
416,96,24056,1,0
480,96,24415,1,0
480,96,24595,2,0,C|480:160,3,64
480,160,25852,2,0,C|480:224,1,64,0|2
416,224,26571,6,0,C|416:160,2,64
416,224,27469,2,0,C|416:288,2,64
416,224,28367,2,0,C|320:224,2,96
480,224,29805,5,0
480,288,30164,1,0
480,288,30343,1,6
480,352,30703,2,0,C|416:352,1,64,2|2
352,352,31242,2,0,C|288:352,1,64,2|2
160,288,31960,5,4
64,288,32320,1,8
64,192,32679,1,0
160,192,33038,1,8
160,192,33218,2,0,C|160:64,2,128
256,192,34296,2,0,C|320:192,1,64,0|8
352,288,34835,5,0
448,288,35194,1,8
448,192,35553,1,0
352,192,35912,1,8
352,192,36092,2,0,C|352:64,2,128
256,192,37170,1,0
256,192,37349,2,0,C|128:192,1,128,8|4
128,96,38068,6,0,C|256:96,2,128,0|8|8
128,96,38966,1,4
32,96,39326,6,0,C|32:224,2,128
32,96,40224,1,8
104,32,40583,5,6
200,32,40942,1,10
200,32,41122,1,2
296,32,41481,1,10
392,32,41841,2,0,B|496:95|496:208|480:320,1,320,4|0
176,304,43457,6,0,B|136:264|120:232|105:192|120:152|136:120|176:80,3,256,4|0|0|0
336,80,46152,5,8
336,80,46332,2,0,B|376:120|392:152|407:192|392:232|376:264|336:304,1,256,4|0
256,248,47409,1,0
256,248,47589,2,0,C|256:56,4,192,8|0|0|4|0
176,304,50104,6,0,C|48:304,1,128,0|12
56,208,50823,2,0,B|80:232|88:232|112:246|136:232|144:232|168:208,1,128,8|8
112,128,51541,1,8
256,128,52080,6,0,C|160:64,2,96,12|0|0
256,128,52799,2,0,C|352:64,2,96,12|0|8
256,128,53517,2,0,C|256:224,2,96,8|8|8
256,32,54415,1,4
432,32,54954,6,0,B|486:67|480:128|480:144,1,128,4|8
480,240,55673,1,0
384,240,56032,1,8
384,240,56212,6,0,B|382:352|272:352|256:352,2,192,4|8|0
384,144,57649,2,0,B|382:32|272:32|256:32,2,192,4|8|0
304,192,59086,2,0,C|112:192,3,192,4|8|0|4
40,128,61062,5,8
40,224,61421,2,0,B|52:330|128:352|160:352,1,192,0|4
256,352,62320,2,0,C|448:352,2,192
256,352,63577,6,0,C|256:160,2,192,4|0|8
256,352,64835,1,2
323,284,65194,1,2
390,216,65553,1,2
457,148,65912,1,0
352,32,66451,6,0,C|224:32,1,128,4|8
128,64,67170,1,0
96,160,67529,1,8
96,160,67709,6,0,C|96:352,2,192,4|8|0
192,160,69146,2,0,C|192:352,2,192,4|8|8
288,160,70583,2,0,C|288:352,2,192,4|8|8
288,160,71841,1,8
288,64,72200,6,0,C|416:64,3,128,4|8|0|8
464,144,73637,2,0,C|464:272,3,128,4|8|8|8
368,272,75074,6,0,C|144:272,2,224,4|0|0
320,128,76870,2,0,C|192:128,2,128,0|0|8
320,32,77948,6,0,C|192:32,3,128,4|8|0|8
192,32,79206,1,4
208,128,79565,1,0
208,128,79745,2,0,B|137:138|96:80,2,128,8|0|8
208,128,80643,1,4
304,128,81002,5,0
304,128,81182,2,0,B|375:138|416:80,2,128,8|0|8
304,128,82080,1,4
256,208,82439,2,0,C|256:272,1,64,0|8
208,352,82978,2,0,B|176:352|88:352|64:288|64:256,1,192,0|8
64,256,83697,6,0,C|64:128,3,128,4|8|0|8
64,128,84954,1,4
80,32,85314,2,0,C|208:32,3,128,0|0|0|4
304,32,86751,6,0,C|432:32,2,128,0|0|8
280,32,87649,1,8
256,32,87829,1,4
