osu file format v7

[General]
AudioFilename: Errand (TV Size).mp3
AudioLeadIn: 2500
PreviewTime: 54954
Countdown: 0
SampleSet: Normal
StackLeniency: 0.4
Mode: 0
LetterboxInBreaks: 1

[Editor]
Bookmarks: 6092,11841,17589,20463,26212,31960,37709,43457,49206,54954,60703,66451,72200,77948,83697,87829
DistanceSpacing: 1.10000002384186
BeatDivisor: 4
GridSize: 32

[Metadata]
Title:Errand (TV Size)
Artist:Faylan
Creator:DJPop
Version:Insane
Source:Seikon no Qwaser
Tags:Dangaard

[Difficulty]
HPDrainRate:6
CircleSize:5
OverallDifficulty:8
SliderMultiplier:1.92
SliderTickRate:2

[Events]
//Background and Video events
Video,-300,"Errand (TV Size).avi"
0,0,"Errand (TV Size).png"
//Break Periods
//Storyboard Layer 0 (Background)
//Storyboard Layer 1 (Fail)
//Storyboard Layer 2 (Pass)
//Storyboard Layer 3 (Foreground)
//Storyboard Sound Samples
//Background Colour Transformations
3,100,0,0,0

[TimingPoints]
344,359.281437125748,4,1,2,0,1,0
5912,-100,4,1,1,80,0,0
20643,-300,4,2,1,60,0,0
23517,-200,4,2,1,60,0,0
28817,-150,4,2,1,60,0,0
30254,-150,4,1,1,80,0,0
30523,-100,4,1,1,80,0,0
43547,-100,4,2,1,80,0,0
50643,-100,4,1,1,80,0,0
54236,-300,4,1,1,80,0,0
54685,-300,4,1,2,0,0,0
54864,-100,4,1,1,80,0,0
54954,-100,4,1,1,80,0,1
56122,-200,4,1,1,80,0,1
56661,-100,4,1,1,80,0,1
57559,-200,4,1,1,80,0,1
58098,-100,4,1,1,80,0,1
58996,-200,4,1,1,80,0,1
59535,-100,4,1,1,80,0,1
66450,-100,4,1,1,80,0,0
66451,-100,4,1,1,80,0,1
67619,-200,4,1,1,80,0,1
68158,-100,4,1,1,80,0,1
69056,-200,4,1,1,80,0,1
69595,-100,4,1,1,80,0,1
70493,-200,4,1,1,80,0,1
71032,-100,4,1,1,80,0,1
72379,-150,4,1,1,80,0,1
72829,-100,4,1,1,80,0,1
73817,-150,4,1,1,80,0,1
74984,-100,4,1,1,80,0,1
76242,-300,4,1,1,80,0,1
76601,-300,4,1,2,0,0,1
76781,-200,4,2,1,60,0,1
77499,-150,4,1,1,80,0,1
77858,-100,4,1,1,80,0,0
87829,-450,4,1,1,80,0,0
88278,-450,4,1,2,0,0,0

[Colours]
Combo1 : 0,255,0
Combo2 : 0,255,255
Combo3 : 255,0,255
Combo4 : 255,255,0

[HitObjects]
256,192,344,12,0,5823
32,32,6092,6,0,C|128:32,1,96,4|0
64,96,6451,2,0,C|160:96,1,96,8|0
96,160,6811,2,0,C|192:160,1,96
128,224,7170,1,8
192,224,7349,1,4
256,224,7529,6,0,C|352:224,1,96
288,160,7888,2,0,C|384:160,1,96,8|0
320,96,8248,2,0,C|416:96,1,96
352,32,8607,2,0,C|448:32,1,96,8|0
480,96,8966,6,0,C|480:192,1,96,4|0
480,256,9326,2,0,C|480:352,1,96,8|0
416,352,9685,1,0
384,352,9775,1,0
352,352,9864,1,8
288,352,10044,1,8
224,352,10224,1,4
32,352,10583,5,0
96,320,10763,1,8
160,288,10942,2,0,C|256:288,1,96
320,288,11302,1,0
352,272,11391,1,8
384,256,11481,1,8
400,224,11571,1,8
416,192,11661,1,0
416,128,11841,6,0,C|416:32,1,96,4|0
352,128,12200,2,0,C|352:32,1,96,8|0
288,128,12559,2,0,C|288:32,1,96
224,128,12918,1,8
224,64,13098,1,4
160,32,13278,6,0,C|160:128,1,96
96,64,13637,2,0,C|96:160,1,96,8|0
160,192,13996,2,0,C|160:288,1,96
96,224,14355,2,0,C|96:320,1,96,8|0
160,352,14715,6,0,C|256:352,1,96,4|0
320,352,15074,2,0,C|416:352,1,96,8|0
480,352,15433,1,0
480,288,15613,1,8
416,256,15793,1,8
416,192,15972,1,4
480,160,16152,6,0,C|480:64,1,96
416,32,16511,1,8
352,64,16691,1,0
320,80,16781,1,8
288,96,16870,1,0
256,160,17050,1,0
240,184,17140,1,8
224,208,17230,1,8
208,232,17320,1,8
192,256,17409,1,0
160,320,17589,5,0
128,336,17679,1,8
96,352,17769,1,10
32,320,17948,2,0,C|32:224,1,96,2|0
96,192,18308,1,10
32,160,18487,1,10
32,136,18577,1,8
32,112,18667,1,8
32,88,18757,1,8
32,64,18846,1,8
96,32,19026,5,4
128,96,19206,1,0
192,64,19385,1,0
224,128,19565,1,0
288,96,19745,1,0
320,160,19924,1,0
384,128,20104,1,0
416,192,20284,1,0
480,160,20463,1,4
480,352,20823,5,0
432,352,21002,1,0
384,352,21182,1,0
336,352,21361,1,0
288,352,21541,1,0
240,352,21721,1,0
80,352,22080,5,0
56,304,22260,1,0
32,256,22439,1,0
32,96,22799,2,0,B|41:44|96:32,1,96,0|2
256,32,23697,5,0
296,48,23876,1,0
336,64,24056,1,0
376,80,24236,1,0
416,96,24415,1,0
456,112,24595,1,0
480,272,24954,5,0
320,272,25314,1,0
240,128,25673,1,0
192,128,25852,2,0,C|96:128,1,96,0|2
32,288,26571,5,0
176,352,26930,1,0
224,352,27110,1,0
272,352,27290,1,0
320,352,27469,1,0
480,352,27829,5,0
480,304,28008,1,0
480,256,28188,1,0
480,208,28367,2,0,B|480:164|432:128,1,96
400,104,28906,2,0,B|376:86|344:72,1,64,0|2
128,32,29445,5,0
80,48,29625,1,0
32,64,29805,1,0
32,112,29984,1,0
80,128,30164,1,0
128,144,30343,1,6
32,320,30703,5,2
32,320,30882,1,2
224,320,31242,1,2
224,320,31421,1,2
288,320,31601,2,0,C|320:320,5,32
288,320,31960,1,4
288,128,32320,5,8
320,64,32499,1,0
384,32,32679,1,0
448,64,32858,1,0
480,128,33038,1,8
432,176,33218,2,0,C|336:176,1,96
288,224,33577,5,0
352,240,33757,1,8
416,256,33936,2,0,C|416:352,1,96
352,352,34296,1,0
288,352,34475,2,0,C|96:352,1,192,8|0
32,160,35194,5,8
64,96,35373,1,0
96,32,35553,1,0
128,96,35733,1,0
160,160,35912,1,8
192,96,36092,2,0,C|288:96,1,96
288,32,36451,6,0,C|384:32,1,96,0|8
384,96,36811,2,0,C|480:96,1,96
480,160,37170,1,0
480,224,37349,2,0,C|288:224,1,192,8|4
256,96,37978,5,0
256,96,38068,1,0
96,192,38427,1,8
32,224,38607,1,0
96,256,38787,1,8
32,288,38966,1,4
224,352,39326,5,0
224,352,39415,1,8
224,352,39505,1,0
256,288,39685,1,0
320,320,39864,1,0
352,256,40044,1,0
416,288,40224,1,8
448,224,40403,1,8
448,224,40493,1,8
448,224,40583,5,6
448,32,40942,1,10
448,32,41122,1,2
288,128,41481,1,10
96,128,41841,1,4
256,32,42200,5,8
224,96,42379,1,8
208,120,42469,1,8
192,144,42559,1,8
176,168,42649,1,8
160,192,42739,1,0
96,224,42918,1,0
32,256,43098,1,8
48,280,43188,1,8
64,304,43278,1,0
80,328,43367,1,0
96,352,43457,5,4
160,352,43637,1,0
176,352,43727,1,0
192,352,43817,1,0
256,352,43996,1,0
272,352,44086,1,0
288,352,44176,1,0
352,352,44355,1,0
368,352,44445,1,0
384,352,44535,1,0
448,320,44715,1,8
480,256,44894,5,0
480,192,45074,1,0
480,176,45164,1,0
480,160,45254,1,0
480,96,45433,1,0
464,96,45523,1,0
448,96,45613,1,0
384,96,45793,1,0
384,80,45882,1,0
384,64,45972,1,0
320,32,46152,1,8
256,64,46332,5,4
256,128,46511,1,0
256,144,46601,1,0
256,160,46691,1,0
192,192,46870,1,0
192,208,46960,1,0
192,224,47050,1,0
256,256,47230,1,0
256,272,47320,1,0
256,288,47409,1,0
224,352,47589,1,8
160,352,47769,5,0
96,320,47948,1,0
80,320,48038,1,0
64,320,48128,1,0
32,256,48308,1,0
48,256,48397,1,0
64,256,48487,1,0
96,192,48667,1,0
80,192,48757,1,0
64,192,48846,1,0
32,128,49026,1,8
32,64,49206,5,4
96,32,49385,1,0
112,32,49475,1,0
128,32,49565,1,0
192,32,49745,1,0
208,32,49835,1,0
224,32,49924,1,0
288,32,50104,1,0
304,32,50194,1,0
320,32,50284,1,0
384,32,50463,1,12
480,192,50823,5,8
416,192,51002,1,8
352,192,51182,1,8
288,192,51361,1,8
224,192,51541,1,8
160,192,51721,1,8
96,192,51900,1,8
64,192,51990,1,8
32,192,52080,5,4
88,352,52349,1,0
224,256,52619,1,0
288,256,52799,1,12
424,352,53068,1,0
480,192,53338,1,8
480,128,53517,5,8
328,176,53787,1,8
256,32,54056,1,8
256,352,54415,2,0,C|256:288,1,64,4|0
256,192,54954,5,4
224,128,55134,1,0
192,64,55314,1,8
144,112,55493,1,0
96,64,55673,1,0
64,128,55852,1,0
32,192,56032,1,8
96,192,56212,6,0,C|192:192,1,96,4|0
176,256,56751,1,8
112,256,56930,1,0
288,352,57290,1,0
320,288,57469,1,8
352,352,57649,6,0,C|448:352,1,96,4|0
480,288,58188,1,8
480,96,58547,1,0
416,64,58727,1,8
352,96,58906,1,8
320,160,59086,6,0,B|307:216|256:224,1,96,4|0
192,192,59625,1,8
160,256,59805,1,0
144,288,59894,1,8
128,320,59984,1,0
64,320,60164,1,0
48,288,60254,1,8
32,256,60344,1,8
48,224,60433,1,8
64,192,60523,1,8
48,160,60613,1,8
32,128,60703,5,4
64,64,60882,1,0
128,32,61062,1,8
192,64,61242,1,0
256,32,61421,1,0
320,64,61601,2,0,C|416:64,1,96,0|8
480,32,61960,1,0
480,224,62320,5,0
480,288,62499,1,8
416,288,62679,2,0,B|408:336|384:352|352:354|320:352|296:336|288:288,1,192
224,288,63218,1,8
224,224,63397,1,0
160,224,63577,6,0,B|56:243|32:352,2,192,4|8|0
160,160,64475,1,0
128,96,64655,1,8
96,32,64835,5,2
256,160,65194,1,2
416,32,65553,1,2
480,224,65912,1,0
480,288,66092,1,0
464,312,66182,1,8
448,336,66272,1,8
416,344,66361,1,8
384,352,66451,5,4
336,304,66631,1,0
288,352,66811,1,8
240,304,66990,1,0
192,352,67170,1,0
144,304,67349,1,0
96,352,67529,1,8
48,304,67709,6,0,C|48:208,1,96,4|0
96,160,68248,1,8
32,128,68427,1,0
32,96,68517,1,8
32,64,68607,1,0
96,32,68787,1,0
96,96,68966,1,8
160,96,69146,6,0,C|256:96,1,96,4|0
320,96,69685,1,8
480,224,70044,1,0
480,160,70224,1,8
480,96,70403,1,8
480,32,70583,6,0,C|384:32,1,96,4|0
320,32,71122,1,8
256,32,71302,1,0
224,48,71391,1,8
192,64,71481,1,0
192,128,71661,1,0
224,144,71751,1,8
256,160,71841,1,8
288,176,71930,1,8
320,192,72020,1,8
352,208,72110,1,8
384,224,72200,5,4
480,288,72469,2,0,C|480:320,1,32,0|8
416,352,72739,1,0
352,320,72918,2,0,B|336:288|304:272|272:269|240:272|208:288|192:320,1,192,0|8
128,352,73457,1,0
64,320,73637,5,4
96,224,73906,2,0,C|64:224,1,32,0|8
32,160,74176,1,0
64,96,74355,2,0,B|76:41|128:32,1,96,8|0
149,32,74715,1,8
171,32,74805,1,8
192,32,74894,1,0
256,32,75074,6,0,C|256:128,1,96,4|0
320,64,75433,2,0,C|320:160,1,96,8|0
384,96,75793,1,8
432,144,75972,1,0
384,192,76152,1,8
448,224,76332,6,0,C|448:288,1,64
416,352,76870,1,0
352,352,77050,1,0
288,352,77230,1,0
224,352,77409,1,0
160,352,77589,1,8
128,352,77679,1,8
96,352,77769,1,0
64,288,77948,5,4
32,224,78128,1,0
64,160,78308,1,8
96,224,78487,1,0
128,288,78667,1,0
160,224,78846,1,0
128,160,79026,1,8
96,96,79206,1,4
320,32,79565,5,0
384,64,79745,1,8
448,96,79924,1,0
464,128,80014,1,8
480,160,80104,1,0
448,224,80284,1,0
384,256,80463,1,8
320,288,80643,1,4
96,224,81002,5,0
32,256,81182,1,8
32,320,81361,1,0
96,352,81541,1,0
96,288,81721,1,8
160,256,81900,1,8
160,320,82080,1,4
384,352,82439,5,0
448,320,82619,1,8
480,256,82799,1,0
480,224,82888,1,8
480,192,82978,1,0
448,128,83158,1,0
432,96,83248,1,8
416,64,83338,1,8
384,48,83427,1,8
352,32,83517,1,8
320,48,83607,1,8
288,64,83697,5,4
256,128,83876,1,0
192,160,84056,1,8
128,128,84236,1,0
96,64,84415,1,0
160,32,84595,1,0
224,32,84775,1,8
192,96,84954,1,4
32,256,85314,5,0
64,320,85493,1,8
128,288,85673,1,0
144,320,85763,1,8
160,352,85852,1,0
224,352,86032,1,0
256,288,86212,1,8
320,320,86391,1,4
352,256,86571,5,8
352,240,86661,1,8
352,224,86751,1,0
416,192,86930,1,0
480,160,87110,1,0
416,128,87290,1,8
352,96,87469,1,8
336,128,87559,1,8
304,144,87649,1,8
272,128,87739,1,8
256,96,87829,6,0,C|256:32,1,64,4|0
