osu file format v7

[General]
AudioFilename: Errand (TV Size).mp3
AudioLeadIn: 2500
PreviewTime: 54954
Countdown: 0
SampleSet: Normal
StackLeniency: 0.4
Mode: 0
LetterboxInBreaks: 1

[Editor]
Bookmarks: 6092,11841,17589,20463,26212,31960,37709,43457,49206,54954,60703,66451,72200,77948,83697,87829
DistanceSpacing: 1
BeatDivisor: 4
GridSize: 32

[Metadata]
Title:Errand (TV Size)
Artist:Faylan
Creator:DJPop
Version:Hard
Source:Seikon no Qwaser
Tags:Dangaard

[Difficulty]
HPDrainRate:4
CircleSize:4
OverallDifficulty:6
SliderMultiplier:1.6
SliderTickRate:2

[Events]
//Background and Video events
Video,-300,"Errand (TV Size).avi"
0,0,"Errand (TV Size).png"
//Break Periods
//Storyboard Layer 0 (Background)
//Storyboard Layer 1 (Fail)
//Storyboard Layer 2 (Pass)
//Storyboard Layer 3 (Foreground)
//Storyboard Sound Samples
//Background Colour Transformations
3,100,0,0,0

[TimingPoints]
344,359.281437125748,4,1,2,0,1,0
5912,-100,4,1,1,80,0,0
11391,-100,4,1,2,80,0,0
11571,-100,4,1,1,80,0,0
17140,-100,4,1,2,80,0,0
17320,-100,4,1,1,80,0,0
20643,-200,4,2,1,60,0,0
30254,-200,4,1,1,80,0,0
30523,-100,4,1,1,80,0,0
36541,-100,4,1,2,80,0,0
36721,-100,4,1,1,80,0,0
43547,-100,4,2,2,80,0,0
44625,-100,4,2,1,80,0,0
44805,-100,4,2,2,80,0,0
46062,-100,4,2,1,80,0,0
46421,-100,4,2,2,80,0,0
47499,-100,4,1,1,80,0,0
47679,-100,4,2,2,80,0,0
48936,-100,4,2,1,80,0,0
49296,-100,4,2,2,80,0,0
50373,-100,4,2,1,80,0,0
50643,-100,4,1,1,80,0,0
54954,-100,4,1,1,80,0,1
61691,-100,4,1,2,80,0,1
61870,-100,4,1,1,80,0,1
65733,-150,4,1,1,80,0,1
66450,-150,4,1,1,80,0,0
66451,-150,4,1,1,80,0,1
66541,-100,4,1,1,80,0,1
72559,-100,4,1,2,80,0,1
72649,-100,4,1,1,80,0,1
73996,-100,4,1,2,80,0,1
74086,-100,4,1,1,80,0,1
74715,-100,4,1,2,80,0,1
74805,-100,4,1,1,80,0,1
76242,-150,4,1,1,80,0,1
76781,-150,4,2,1,80,0,1
76960,-100,4,2,1,80,0,1
77499,-100,4,1,2,80,0,1
77679,-100,4,1,1,80,0,1
77858,-100,4,1,1,80,0,0
87739,-150,4,1,1,80,0,0
88278,-150,4,1,2,0,0,0

[Colours]
Combo1 : 0,255,0
Combo2 : 0,255,255
Combo3 : 255,0,255
Combo4 : 255,255,0

[HitObjects]
256,192,344,12,0,5733
480,32,6092,6,0,C|400:32,1,80,4|0
400,96,6451,2,0,C|320:96,1,80,8|0
320,160,6811,2,0,C|240:160,1,80
240,224,7170,1,8
176,224,7349,6,0,B|168:256|152:272|120:288|88:272|72:256|64:224,1,160,4|0
64,160,7888,2,0,C|64:80,1,80,8|0
128,136,8248,2,0,C|128:56,1,80
192,112,8607,2,0,C|192:32,1,80,8|0
256,88,8966,6,0,C|256:168,1,80,4|0
320,112,9326,2,0,C|320:192,1,80,8|0
384,136,9685,2,0,C|384:216,1,80
448,160,10044,1,8
448,224,10224,6,0,B|466:300|432:336|384:352,1,160,4|0
320,352,10763,1,8
256,352,10942,2,0,C|96:352,2,160,0|8|8
256,288,11841,6,0,C|256:208,1,80,4|0
192,208,12200,2,0,C|192:128,1,80,8|0
128,128,12559,2,0,C|128:48,1,80
64,48,12918,1,8
64,112,13098,6,0,B|32:144|24:185|32:224|64:256,1,160,4|0
64,320,13637,2,0,C|144:320,1,80,8|0
208,336,13996,2,0,C|288:336,1,80
352,352,14355,2,0,C|432:352,1,80,8|0
480,304,14715,6,0,C|480:224,1,80,4|0
416,192,15074,2,0,C|416:272,1,80,8|0
352,240,15433,2,0,C|352:160,1,80,0|8
288,192,15793,1,8
224,192,15972,6,0,B|128:208|128:112|128:96,1,160,4|0
80,48,16511,1,8
32,96,16691,2,0,C|32:256,2,160,0|8|8
192,32,17769,5,10
192,32,17948,1,2
352,32,18308,1,10
352,32,18487,1,10
480,128,18846,5,8
480,192,19026,2,0,C|480:272,1,80,4|0
416,216,19385,2,0,C|416:296,1,80
352,240,19745,2,0,C|352:320,1,80
288,264,20104,2,0,C|288:344,1,80
224,288,20463,1,4
64,352,20823,5,0
48,304,21002,1,0
32,256,21182,1,0
48,208,21361,1,0
64,160,21541,1,0
80,112,21721,6,0,B|96:76|128:48,1,80
176,32,22260,1,0
224,32,22439,2,0,C|304:32,1,80
352,32,22978,2,0,C|432:32,1,80,0|2
480,192,23697,5,0
432,192,23876,1,0
384,192,24056,1,0
336,192,24236,1,0
288,192,24415,1,0
240,192,24595,6,0,C|160:192,3,80
112,192,25852,2,0,C|32:192,1,80,0|2
32,352,26571,6,0,C|112:352,1,80
160,352,27110,1,0
208,336,27290,1,0
256,320,27469,2,0,B|293:303|320:272,1,80
336,224,28008,1,0
352,176,28188,1,0
368,128,28367,6,0,C|488:128,2,120
352,80,29625,1,0
320,48,29805,1,0
272,32,29984,1,0
224,48,30164,1,0
192,80,30343,1,6
32,32,30703,5,2
32,32,30882,1,2
32,192,31242,1,2
32,192,31421,1,2
256,352,31960,5,4
384,256,32320,5,8
416,320,32499,1,0
480,288,32679,1,0
448,224,32858,1,0
416,160,33038,1,8
352,192,33218,6,0,C|192:192,1,160
192,256,33757,1,8
192,320,33936,2,0,C|32:320,1,160
32,256,34475,2,0,C|32:96,1,160,8|0
192,80,35194,5,8
240,32,35373,1,0
304,64,35553,1,0
368,32,35733,1,0
416,80,35912,1,8
384,144,36092,6,0,C|224:144,3,160
224,208,37349,2,0,C|384:208,1,160,8|4
320,352,38068,6,0,C|480:352,2,160,0|8|8
256,352,38966,1,4
96,352,39326,6,0,B|45:364|32:320,1,80
32,256,39685,1,0
32,192,39864,2,0,B|48:147|96:160,1,80
160,160,40224,1,8
256,32,40583,5,6
352,160,40942,1,10
352,160,41122,1,2
256,288,41481,1,10
160,160,41841,1,4
256,32,42200,5,8
320,32,42379,2,0,C|400:32,1,80,8|8
464,32,42739,2,0,C|464:112,1,80
464,176,43098,1,8
464,240,43278,1,0
456,264,43367,1,0
448,288,43457,6,0,C|288:288,3,160,4|0|0|0
256,352,44715,1,8
224,288,44894,6,0,C|64:288,3,160
32,224,46152,1,8
64,160,46332,6,0,C|224:160,3,160,4|0|0|0
256,96,47589,1,8
288,160,47769,6,0,C|448:160,3,160
480,96,49026,1,8
448,32,49206,5,4
384,32,49385,1,0
320,32,49565,1,0
256,32,49745,2,0,C|96:32,1,160
64,96,50284,1,0
32,160,50463,1,12
32,320,50823,6,0,C|112:320,1,80,8|8
112,256,51182,2,0,C|192:256,1,80,8|8
192,192,51541,2,0,C|288:192,2,80,8|8|8
192,128,52080,5,4
280,96,52349,1,0
368,128,52619,1,0
416,176,52799,1,12
448,264,53068,1,0
416,352,53338,1,8
352,352,53517,5,8
256,352,53787,1,8
160,352,54056,1,8
256,224,54415,1,4
96,32,54954,5,4
32,64,55134,1,0
32,128,55314,1,8
96,160,55493,1,0
96,224,55673,1,0
32,256,55852,1,0
32,320,56032,1,8
96,352,56212,6,0,B|144:320|176:312|207:305|240:312|272:320|320:352,1,240,4|8
384,352,56930,2,0,B|416:352|483:356|480:288|480:256,1,160
480,192,57469,1,8
480,128,57649,6,0,B|464:18|352:32|288:32,1,240,4|8
128,32,58547,1,0
64,64,58727,1,8
32,128,58906,1,8
64,192,59086,6,0,B|144:216|192:192|216:144|192:63,2,240,4|8|0
32,256,60344,1,8
64,320,60523,1,8
128,352,60703,5,4
192,320,60882,1,0
256,288,61062,1,8
320,256,61242,1,0
384,224,61421,1,0
448,192,61601,6,0,B|480:216|488:224|506:257|488:288|480:296|448:320,2,160
416,128,62499,1,8
352,96,62679,2,0,B|304:80|256:96|256:144|256:192|208:208|159:192,1,240,0|8
96,160,63397,1,0
32,128,63577,6,0,B|48:80|91:61|128:64|160:96,2,160,4|8|0
32,192,64475,1,0
64,256,64655,1,8
96,320,64835,5,2
256,352,65194,1,2
416,320,65553,1,2
480,192,65912,2,0,C|480:32,1,160,0|4
415,32,66631,5,0
353,64,66811,1,8
291,96,66990,1,0
221,96,67170,1,0
159,64,67349,1,0
97,32,67529,1,8
32,32,67709,6,0,C|32:272,1,240,4|8
32,336,68427,2,0,C|192:336,1,160
256,352,68966,1,8
320,336,69146,6,0,B|400:336|480:289|480:192,1,240,4|8
480,32,70044,1,0
416,32,70224,1,8
352,32,70403,1,8
288,32,70583,6,0,B|192:32|185:96|192:160|288:160,1,240,4|8
352,160,71302,2,0,C|352:240,1,80,8|0
288,240,71661,2,0,C|288:320,1,80,8|8
224,320,72020,1,8
208,320,72110,1,8
192,320,72200,6,0,C|64:320,2,120,4|0|0
192,256,72918,2,0,C|32:256,1,160,0|8
32,192,73457,1,0
96,160,73637,6,0,B|96:103|32:64,2,120,4|0|0
160,160,74355,2,0,B|160:103|224:64,2,120,8|0|0
224,192,75074,6,0,C|384:192,2,160,4|8|8
176,240,75972,1,0
176,304,76152,1,8
224,352,76332,6,0,C|384:352,1,160
448,320,77050,1,0
480,256,77230,1,0
480,192,77409,2,0,C|480:32,1,160
416,32,77948,6,0,C|256:32,3,160,4|8|0|8
192,32,79206,1,4
320,128,79565,5,0
368,176,79745,2,0,C|368:256,1,80,8|0
320,304,80104,2,0,B|312:320|275:366|208:352|176:352,1,160,0|8
112,352,80643,1,4
32,208,81002,5,0
32,144,81182,2,0,B|32:107|64:72,1,80,8|0
128,72,81541,2,0,B|160:109|160:144,1,80,0|8
160,208,81900,1,8
96,208,82080,1,4
256,256,82439,5,0
256,192,82619,2,0,C|256:112,1,80,8|0
256,48,82978,2,0,C|416:48,1,160,0|8
464,96,83517,1,8
416,144,83697,6,0,B|384:152|368:168|352:200|368:232|384:248|416:256,1,160,4|8
480,288,84236,1,0
416,320,84415,2,0,B|408:344|392:360|353:369|312:360|296:344|288:320,1,160,0|8
256,256,84954,1,4
128,352,85314,6,0,C|32:352,1,80,0|8
128,288,85673,2,0,C|48:288,1,80
128,224,86032,2,0,C|48:224,1,80,0|8
128,160,86391,1,4
32,32,86751,6,0,C|112:32,1,80
128,96,87110,2,0,C|208:96,1,80,0|8
224,32,87469,1,8
288,32,87649,1,8
352,32,87829,6,0,B|376:64|384:72|414:90|448:72|456:64|480:32,1,160,4|0
