osu file format v7

[General]
AudioFilename: Errand (TV Size).mp3
AudioLeadIn: 0
PreviewTime: 54954
Countdown: 0
SampleSet: Normal
StackLeniency: 0.4
Mode: 0
LetterboxInBreaks: 1

[Editor]
Bookmarks: 6092,11841,17589,20463,26212,31960,37709,43457,49206,54954,60703,66451,72200,77948,83697,87829
DistanceSpacing: 0.800000011920929
BeatDivisor: 4
GridSize: 32

[Metadata]
Title:Errand (TV Size)
Artist:Faylan
Creator:DJPop
Version:Easy Dan
Source:Seikon no Qwaser
Tags:Dangaard

[Difficulty]
HPDrainRate:1
CircleSize:3
OverallDifficulty:1
SliderMultiplier:0.64
SliderTickRate:2

[Events]
//Background and Video events
Video,-300,"Errand (TV Size).avi"
0,0,"Errand (TV Size).png"
//Break Periods
//Storyboard Layer 0 (Background)
//Storyboard Layer 1 (Fail)
//Storyboard Layer 2 (Pass)
//Storyboard Layer 3 (Foreground)
//Storyboard Sound Samples
//Background Colour Transformations
3,100,0,0,0

[TimingPoints]
344,359.281437125748,4,1,1,80,1,0
6361,-100,4,1,2,80,0,0
6541,-100,4,1,1,80,0,0
9236,-100,4,1,2,80,0,0
9415,-100,4,1,1,80,0,0
11212,-100,4,1,2,80,0,0
11391,-100,4,1,1,80,0,0
16960,-100,4,1,2,80,0,0
17140,-100,4,1,1,80,0,0
20823,-100,4,2,1,60,0,0
21811,-100,4,2,2,60,0,0
21990,-100,4,2,1,60,0,0
24685,-100,4,2,2,60,0,0
24864,-100,4,2,1,60,0,0
27559,-100,4,2,2,60,0,0
27739,-100,4,2,1,60,0,0
29086,-100,4,2,2,60,0,0
29176,-100,4,2,1,60,0,0
30074,-100,4,1,1,80,0,0
38338,-100,4,1,2,80,0,0
38517,-100,4,1,1,80,0,0
43817,-100,4,2,2,80,0,0
46152,-100,4,2,1,80,0,0
46691,-100,4,2,2,80,0,0
47499,-100,4,2,1,80,0,0
49385,-100,4,2,2,80,0,0
50194,-100,4,1,1,80,0,0
54954,-100,4,1,1,80,0,1
55224,-100,4,1,2,80,0,1
55403,-100,4,1,1,80,0,1
56661,-100,4,1,2,80,0,1
56841,-100,4,1,1,80,0,1
57379,-100,4,1,2,80,0,1
57559,-100,4,1,1,80,0,1
59535,-100,4,1,2,80,0,1
59715,-100,4,1,1,80,0,1
63846,-100,4,1,2,80,0,1
64026,-100,4,1,1,80,0,1
66721,-100,4,1,2,80,0,1
66900,-100,4,1,1,80,0,1
68158,-100,4,1,2,80,0,1
68338,-100,4,1,1,80,0,1
68876,-100,4,1,2,80,0,1
69056,-100,4,1,1,80,0,1
71032,-100,4,1,2,80,0,1
71212,-100,4,1,1,80,0,1
72469,-100,4,1,2,80,0,1
72649,-100,4,1,1,80,0,1
73906,-100,4,1,2,80,0,1
74086,-100,4,1,1,80,0,1
75343,-100,4,1,2,80,0,1
75523,-100,4,1,1,80,0,1
77320,-100,4,1,2,80,0,1
77589,-100,4,1,1,80,0,0
78218,-100,4,1,2,80,0,0
78397,-100,4,1,1,80,0,0
78936,-100,4,1,2,80,0,0
79116,-100,4,1,1,80,0,0
81092,-100,4,1,2,80,0,0
81272,-100,4,1,1,80,0,0
81631,-100,4,1,2,80,0,0
81990,-100,4,1,1,80,0,0
87469,-100,4,1,2,80,0,0
87739,-100,4,1,1,80,0,0

[Colours]
Combo1 : 0,255,0
Combo2 : 0,255,255
Combo3 : 255,0,255
Combo4 : 255,255,0

[HitObjects]
384,320,6092,2,0,L|432:320|432:224|384:224,1,192,4|8
288,224,7888,2,0,L|144:224,1,128,8|8
112,224,8966,6,0,L|64:224|64:128|112:128,1,192,4|8
208,128,10763,2,0,L|336:128,1,128,8|8
384,128,11841,6,0,L|400:192,1,64,4|8
336,272,12918,1,8
304,176,13637,2,0,L|176:176,1,128,8|8
128,176,14715,6,0,L|112:240,1,64,4|8
176,320,15792,1,8
208,224,16511,2,0,L|336:224,1,128,8|8
256,192,17589,12,4,20463
136,80,21182,6,0,B|193:29|334:29|387:91,1,256
376,288,24056,2,0,B|319:339|178:339|125:277,1,256
48,64,26930,6,0,L|32:128|48:144|48:224|64:240|47:308,1,256
128,320,28906,2,0,L|304:320,1,160
336,256,30343,2,0,L|384:192|336:128,1,160,6|2
432,112,31960,6,0,L|385:54,1,64,4|8
288,64,33038,2,0,L|144:64,2,128,8|8|8
320,112,34835,6,0,L|367:170,1,64,0|8
320,256,35913,2,0,L|176:256,2,128,8|8|8
416,176,38068,6,0,L|352:176|294:125,1,128,8|8
209,133,39505,2,0,L|160:176|96:176,1,128,8|8
48,176,40583,5,4
80,256,41122,2,0,L|224:256,1,128,0|4
404,120,43457,5,4
456,208,44176,1,0
352,208,44894,2,0,L|160:208,1,192
112,208,46332,5,4
48,128,47050,2,0,L|80:96|144:96,1,96,0|8
256,96,48487,1,0
256,192,49206,6,0,L|256:320,1,128,4|0
336,320,50463,2,0,L|384:288|384:192,1,128,12|8
320,112,52080,6,0,L|176:112,2,128,4|12|12
160,320,54954,6,0,L|96:208,1,128,4|0
192,208,56212,2,0,L|320:208,2,128,4|0|4
32,208,58547,1,0
80,128,59086,2,0,L|128:44|181:134,1,192,4|0
240,64,60703,6,0,L|288:144,1,64,4|8
368,208,61781,2,0,L|240:208,2,128,8|8|8
416,256,63577,6,0,L|384:288|288:288,1,128,4|0
240,208,64835,2,0,L|160:208|120:245,1,128,2|2
16,128,66451,6,0,L|144:128,1,128,4|0
240,96,67709,2,0,L|272:128|368:128,2,128,4|0|4
144,224,70044,1,0
192,304,70583,2,0,L|384:304,1,192,4|8
480,272,72200,6,0,L|496:224|416:224,1,128,4|0
288,224,73637,2,0,L|272:176|352:176,1,128,4|8
448,96,75074,6,0,L|304:96,1,128,4|8
224,96,76332,2,0,L|176:96|176:192|224:192,1,192
176,272,77948,6,0,L|241:272|296:304|400:304,1,224,4|4
448,160,80104,1,0
368,96,80643,2,0,L|303:95|248:64|112:64,1,256,4|4
80,224,82978,1,0
256,192,83697,12,4,86391
256,240,87290,6,0,L|256:128,1,96,8|4
