osu file format v12

[General]
AudioFilename: Dead END.mp3
AudioLeadIn: 0
PreviewTime: 58006
Countdown: 1
SampleSet: None
StackLeniency: 0.7
Mode: 0
LetterboxInBreaks: 1

[Editor]
DistanceSpacing: 0.8
BeatDivisor: 4
GridSize: 4

[Metadata]
Title:Dead END
TitleUnicode:Dead END
Artist:Faylan
ArtistUnicode:Faylan
Creator:murasaki_sk
Version:Jumping END
Source:
Tags:
BeatmapID:249321
BeatmapSetID:91892

[Difficulty]
HPDrainRate:6
CircleSize:4
OverallDifficulty:8
ApproachRate:9
SliderMultiplier:1.92
SliderTickRate:1

[Events]
//Background and Video events
0,0,"BG.jpg",1,1
//Break Periods
//Storyboard Layer 0 (Background)
//Storyboard Layer 1 (Fail)
//Storyboard Layer 2 (Pass)
//Storyboard Layer 3 (Foreground)
//Storyboard Sound Samples
//Background Colour Transformations
3,100,0,0,0

[TimingPoints]
2761,327.868852459016,4,1,3,100,1,0
32760,2622.95081967213,4,1,0,100,1,0
32760,-200,4,1,1,100,0,0
35220,327.868852459016,4,1,3,100,1,0
35220,-200,4,1,3,100,0,0
35465,-200,4,1,2,100,0,0
35547,327.868852459016,4,1,3,100,1,0
35547,-100,4,1,3,100,0,0
56530,-100,4,1,3,100,0,0
57022,-83.3333333333333,4,1,3,100,0,0
57514,-71.4285714285714,4,1,3,100,0,0
58989,-66.6666666666667,4,1,3,100,0,1
81448,-66.6666666666667,4,1,3,100,0,0
88497,-200,4,1,3,100,0,0
88825,-200,4,1,2,100,0,0

[HitObjects]
208,232,2761,5,0,0:0:0:0:
256,152,2924,1,0,0:0:0:0:
304,232,3088,2,0,P|264:320|176:336,1,192
208,152,3580,2,0,P|248:64|336:48,1,192
376,312,4072,6,0,B|280:336|280:336|208:272,1,192
72,88,4564,2,0,P|160:88|264:112,1,192
392,224,5056,1,0,0:0:0:0:
336,40,5220,1,0,0:0:0:0:
192,180,5383,5,0,0:0:0:0:
306,130,5547,1,0,0:0:0:0:
290,254,5711,2,0,P|360:313|455:308,1,192
371,61,6203,2,0,P|275:46|211:109,1,192
256,352,6695,1,0,0:0:0:0:
256,352,7023,5,0,0:0:0:0:
160,272,7187,1,0,0:0:0:0:
360,192,7351,1,0,0:0:0:0:
160,112,7515,1,0,0:0:0:0:
256,32,7679,1,0,0:0:0:0:
256,352,7842,1,0,0:0:0:0:
360,192,8006,5,0,0:0:0:0:
207,92,8170,2,0,P|223:140|263:164,1,96
360,192,8498,5,0,0:0:0:0:
115,70,8662,2,0,P|157:88|206:92,1,96
360,192,8990,5,0,0:0:0:0:
61,146,9154,2,0,P|97:113|115:71,1,96
360,192,9482,5,0,0:0:0:0:
70,259,9646,1,0,0:0:0:0:
360,192,9810,2,0,P|422:131|412:32,1,192
505,201,10301,1,0,0:0:0:0:
324,92,10465,1,0,0:0:0:0:
271,297,10629,5,0,0:0:0:0:
427,250,10793,1,0,0:0:0:0:
127,183,10957,1,0,0:0:0:0:
127,183,11285,5,0,0:0:0:0:
427,118,11449,1,0,0:0:0:0:
427,118,11777,6,0,P|336:104|256:48,1,192
256,48,12269,1,0,0:0:0:0:
256,272,12433,1,0,0:0:0:0:
352,192,12597,6,0,L|352:240,1,48
160,192,12760,2,0,L|160:144,1,48
360,184,12924,6,0,L|380:227,1,48
152,200,13088,2,0,L|131:156,1,48
368,176,13252,6,0,L|404:206,1,48
144,208,13416,2,0,L|107:177,1,48
376,168,13580,6,0,L|422:180,1,48
136,216,13744,2,0,L|89:203,1,48
384,160,13908,6,0,L|431:151,1,48
128,224,14072,2,0,L|80:232,1,48
392,152,14236,5,0,0:0:0:0:
120,232,14400,1,0,0:0:0:0:
336,280,14564,2,0,B|384:232|384:232|384:104,1,192,0|8,0:0|0:0,0:0:0:0:
256,40,15056,1,0,0:0:0:0:
424,296,15220,2,0,B|456:256|456:256|456:208,1,96
168,80,15547,2,0,L|168:176,1,96,8|0,0:0|0:0,0:0:0:0:
336,280,15875,6,0,P|249:279|186:355,1,192,0|8,0:0|0:0,0:0:0:0:
39,128,16367,2,0,P|96:193|195:189,1,192
295,59,16859,1,8,0:0:0:0:
295,59,17023,1,0,0:0:0:0:
319,201,17187,5,0,0:0:0:0:
184,151,17351,1,0,0:0:0:0:
208,293,17515,1,8,0:0:0:0:
430,109,17679,1,0,0:0:0:0:
147,68,17842,2,0,P|97:160|134:229,1,192,0|8,0:0|0:0,0:0:0:0:
481,265,18334,2,0,P|455:184|359:164,1,192
72,303,18826,6,0,P|111:325|160:322,1,96,8|0,0:0|0:0,0:0:0:0:
380,64,19154,2,0,P|328:66|290:85,1,96
129,253,19482,5,8,0:0:0:0:
160,199,19564,1,0,0:0:0:0:
146,138,19646,1,0,0:0:0:0:
97,99,19728,1,0,0:0:0:0:
35,108,19810,6,0,P|86:176|182:161,1,192,0|8,0:0|0:0,0:0:0:0:
315,69,20301,1,0,0:0:0:0:
338,240,20465,2,0,P|375:271|420:281,1,96
482,98,20793,2,0,L|428:177,1,96,8|0,0:0|0:0,0:0:0:0:
244,319,21121,2,0,P|231:213|270:141,1,192,0|8,0:0|0:0,0:0:0:0:
511,264,21613,2,0,L|321:238,1,192
139,212,22105,1,8,0:0:0:0:
139,212,22433,5,0,0:0:0:0:
348,182,22597,6,0,P|346:266|257:308,1,192,12|0,0:0|0:0,0:0:0:0:
207,98,23088,6,4,P|253:175|347:182,1,192,8|0,0:0|0:0,0:0:0:0:
486,8,23580,6,0,P|398:27|317:86,1,192,12|0,0:0|0:0,0:0:0:0:
205,244,24072,1,0,0:0:0:0:
390,191,24236,1,0,0:0:0:0:
175,140,24400,5,0,0:0:0:0:
76,348,24564,1,0,0:0:0:0:
292,268,24728,1,0,0:0:0:0:
106,87,24892,6,0,P|100:181|176:223,1,192,0|0,0:0|0:0,0:0:0:0:
382,118,25383,1,8,0:0:0:0:
177,223,25547,2,0,P|92:250|22:188,1,192,0|0,0:0|0:0,0:0:0:0:
382,118,26039,1,8,0:0:0:0:
295,331,26203,2,0,P|210:314|177:223,1,192,0|0,0:0|0:0,0:0:0:0:
382,118,26695,5,8,0:0:0:0:
373,155,26777,1,0,0:0:0:0:
350,186,26859,1,0,0:0:0:0:
314,200,26941,1,0,0:0:0:0:
275,196,27023,1,0,0:0:0:0:
150,77,27187,1,0,0:0:0:0:
326,1,27351,1,8,0:0:0:0:
150,77,27515,6,0,P|77:128|8:203,1,192
389,251,28006,2,0,P|421:214|444:173,1,96,8|0,0:0|0:0,0:0:0:0:
226,132,28334,1,0,0:0:0:0:
291,271,28498,1,0,0:0:0:0:
423,70,28662,1,8,0:0:0:0:
226,132,28826,2,0,P|134:163|64:110,1,192
310,24,29318,5,8,0:0:0:0:
320,60,29400,1,0,0:0:0:0:
332,96,29482,1,0,0:0:0:0:
344,132,29564,1,0,0:0:0:0:
356,168,29646,1,0,0:0:0:0:
225,321,29810,1,0,0:0:0:0:
201,291,29892,1,0,0:0:0:0:
207,253,29974,1,8,0:0:0:0:
456,181,30138,6,0,P|416:260|320:271,1,192,4|0,0:0|0:0,0:0:0:0:
419,63,30629,1,8,0:0:0:0:
177,310,30793,2,0,P|182:211|247:150,1,192
419,63,31285,1,8,0:0:0:0:
65,28,31449,2,0,P|144:60|163:157,1,192
89,336,31941,1,8,0:0:0:0:
74,125,32105,1,0,0:0:0:0:
296,217,32269,1,0,0:0:0:0:
47,230,32433,1,0,0:0:0:0:
237,40,32597,5,8,0:0:0:0:
307,298,32760,6,0,P|262:292|233:269,1,84,4|0,0:0|0:0,0:0:0:0:
194,233,35138,5,0,0:0:0:0:
194,233,35220,2,0,L|184:304,1,72
183,304,35547,6,0,P|104:312|40:231,1,192,0|8,0:0|0:0,0:0:0:0:
39,230,36038,1,0,0:0:0:0:
241,83,36202,6,0,P|320:75|384:156,1,192,0|8,0:0|0:0,0:0:0:0:
384,156,36694,1,0,0:0:0:0:
165,234,36858,5,0,0:0:0:0:
291,165,37022,1,0,0:0:0:0:
347,298,37186,1,8,0:0:0:0:
459,119,37350,2,0,P|358:111|290:167,1,192
187,351,37842,1,8,0:0:0:0:
402,244,38006,1,0,0:0:0:0:
112,184,38169,6,0,B|24:224|24:224|112:264,1,192,0|8,0:0|0:0,0:0:0:0:
400,200,38661,2,0,B|488:160|488:160|400:120,1,192,0|0,0:0|0:0,0:0:0:0:
231,290,39153,6,0,B|277:337|277:337|342:344|401:324,1,192,8|0,0:0|0:0,0:0:0:0:
281,94,39645,2,0,B|235:47|235:47|170:40|111:60,1,192,8|0,0:0|0:0,0:0:0:0:
74,279,40137,5,0,0:0:0:0:
111,257,40219,1,0,0:0:0:0:
139,224,40301,1,0,0:0:0:0:
17,76,40465,1,0,0:0:0:0:
34,115,40546,1,0,0:0:0:0:
66,144,40628,1,0,0:0:0:0:
107,157,40710,1,0,0:0:0:0:
150,157,40792,6,0,P|197:138|241:129,1,96
474,194,41120,2,0,P|427:213|383:222,1,96,8|0,0:0|0:0,0:0:0:0:
45,217,41448,2,0,P|34:134|108:66,1,192,0|8,0:0|0:0,0:0:0:0:
108,65,41940,1,0,0:0:0:0:
193,238,42104,5,0,0:0:0:0:
424,121,42268,1,0,0:0:0:0:
217,44,42432,1,8,0:0:0:0:
211,332,42596,2,0,P|277:275|264:179,1,192
116,136,43087,1,8,0:0:0:0:
116,136,43251,1,0,0:0:0:0:
339,251,43415,6,0,P|381:222|402:184,1,96,8|0,0:0|0:0,0:0:0:0:
256,108,43743,1,0,0:0:0:0:
175,293,43907,2,0,P|218:304|267:291,1,96,8|0,0:0|0:0,0:0:0:0:
256,108,44235,1,0,0:0:0:0:
43,196,44399,2,0,P|66:241|102:268,1,96,8|0,0:0|0:0,0:0:0:0:
256,108,44727,1,0,0:0:0:0:
28,32,44891,6,0,P|123:112|279:98,1,288,8|0,0:0|0:0,0:0:0:0:
309,74,45465,1,0,0:0:0:0:
309,74,45546,1,0,0:0:0:0:
141,32,45710,1,0,0:0:0:0:
208,212,45874,1,0,0:0:0:0:
394,165,46038,1,0,0:0:0:0:
394,165,46366,6,0,P|319:228|307:317,1,192,8|0,0:0|0:0,0:0:0:0:
492,260,46858,1,0,0:0:0:0:
412,54,47022,1,0,0:0:0:0:
208,212,47186,2,0,P|113:216|51:150,1,192,8|0,0:0|0:0,0:0:0:0:
293,66,47678,2,0,P|286:156|209:212,1,192,8|8,0:0|0:0,0:0:0:0:
55,40,48169,1,0,0:0:0:0:
293,66,48333,5,0,0:0:0:0:
304,112,48415,1,0,0:0:0:0:
320,156,48497,1,0,0:0:0:0:
336,200,48579,1,0,0:0:0:0:
352,244,48661,1,0,0:0:0:0:
352,244,48989,6,0,P|280:184|184:192,1,192,8|0,0:0|0:0,0:0:0:0:
116,360,49481,1,0,0:0:0:0:
8,156,49645,1,0,0:0:0:0:
264,24,49809,2,0,P|352:44|392:132,1,192,8|0,0:0|0:0,0:0:0:0:
228,320,50301,2,0,P|196:232|108:208,1,192,8|8,0:0|0:0,0:0:0:0:
96,352,50792,5,0,0:0:0:0:
304,252,50956,1,0,0:0:0:0:
124,108,51120,2,0,B|108:208|108:208|144:292,1,192,4|0,0:0|0:0,0:0:0:0:
332,156,51612,2,0,L|348:60,1,96,8|0,0:0|0:0,0:0:0:0:
52,100,51940,2,0,L|36:196,1,96
408,136,52268,2,0,P|380:92|340:76,1,96,8|0,0:0|0:0,0:0:0:0:
152,296,52596,6,0,L|128:153,1,144
120,92,52924,2,0,P|76:72|32:84,1,96,8|0,0:0|0:0,0:0:0:0:
164,372,53251,2,0,P|208:348|228:308,1,96
28,60,53579,1,8,0:0:0:0:
38,98,53661,1,0,0:0:0:0:
48,137,53743,1,0,0:0:0:0:
59,175,53825,1,0,0:0:0:0:
69,214,53907,5,12,0:0:0:0:
236,260,54071,1,0,0:0:0:0:
312,84,54235,1,0,0:0:0:0:
92,268,54399,5,12,0:0:0:0:
298,287,54563,1,0,0:0:0:0:
352,63,54727,1,0,0:0:0:0:
116,320,54891,5,12,0:0:0:0:
363,299,55055,1,0,0:0:0:0:
380,23,55219,1,0,0:0:0:0:
116,320,55383,5,12,0:0:0:0:
380,23,55546,1,0,0:0:0:0:
116,320,55710,1,0,0:0:0:0:
468,224,55874,2,0,P|444:176|408:152,1,96,8|0,0:0|0:0,0:0:0:0:
108,88,56202,1,0,0:0:0:0:
81,139,56284,1,0,0:0:0:0:
88,196,56366,1,0,0:0:0:0:
135,229,56448,1,0,0:0:0:0:
190,212,56530,6,0,P|220:135|151:153,1,192,12|0,0:0|0:0,0:0:0:0:
174,302,57022,6,0,P|277:266|317:160,1,230.39999296875,12|0,0:0|0:0,0:0:0:0:
31,78,57514,6,0,P|74:127|137:153,1,134.399995898438,12|0,0:0|0:0,0:0:0:0:
136,152,58006,5,0,0:0:0:0:
340,25,58169,1,0,0:0:0:0:
237,273,58333,1,0,0:0:0:0:
190,8,58497,1,0,0:0:0:0:
401,174,58661,5,8,0:0:0:0:
424,244,58743,1,0,0:0:0:0:
404,315,58825,1,0,0:0:0:0:
341,354,58907,1,0,0:0:0:0:
262,346,58989,2,0,P|168:250|238:138,1,288.000010986329,12|0,0:0|0:0,0:0:0:0:
494,34,59481,2,0,P|443:158|314:232,1,288.000010986329,8|0,0:0|0:0,0:0:0:0:
40,68,59973,2,0,P|96:32|168:48,1,144.000005493164,8|0,0:0|0:0,0:0:0:0:
420,192,60301,6,0,P|292:164|224:284,1,288.000010986329,0|8,0:0|0:0,0:0:0:0:
432,340,60792,1,0,0:0:0:0:
400,68,60956,1,0,0:0:0:0:
144,256,61120,2,0,P|156:332|212:364,2,144.000005493164,0|8|0,0:0|0:0|0:0,0:0:0:0:
364,16,61612,6,0,P|400:144|308:256,1,288.000010986329,4|0,0:0|0:0,0:0:0:0:
20,136,62104,2,0,B|104:64|104:64|272:120,1,288.000010986329,8|0,0:0|0:0,0:0:0:0:
376,344,62596,1,8,0:0:0:0:
108,240,62760,1,0,0:0:0:0:
360,52,62924,2,0,P|348:196|224:220,1,288.000010986329,0|8,0:0|0:0,0:0:0:0:
64,20,63415,1,0,0:0:0:0:
272,120,63579,1,0,0:0:0:0:
140,344,63743,5,4,0:0:0:0:
66,315,63825,1,0,0:0:0:0:
43,239,63907,1,0,0:0:0:0:
58,161,63989,1,0,0:0:0:0:
131,191,64071,1,0,0:0:0:0:
209,203,64153,1,0,0:0:0:0:
284,177,64235,1,0,0:0:0:0:
335,116,64317,1,0,0:0:0:0:
342,37,64399,6,0,P|204:73|131:190,1,288.000010986329,0|8,0:0|0:0,0:0:0:0:
298,352,64891,1,0,0:0:0:0:
488,198,65055,1,0,0:0:0:0:
128,50,65219,1,8,0:0:0:0:
128,50,65546,6,0,B|270:50|270:50|408:100,1,288.000010986329
238,350,66037,2,0,B|123:309|123:309|115:289,1,144.000005493164,8|0,0:0|0:0,0:0:0:0:
362,162,66366,2,0,B|477:203|477:203|485:223,1,144.000005493164
197,251,66694,1,8,0:0:0:0:
149,197,66776,1,0,0:0:0:0:
138,125,66858,1,0,0:0:0:0:
171,61,66940,1,0,0:0:0:0:
228,17,67022,6,0,P|298:18|364:47,1,144.000005493164
458,275,67350,1,8,0:0:0:0:
256,90,67514,2,0,P|122:150|128:273,1,288.000010986329
375,261,68006,1,8,0:0:0:0:
95,62,68169,2,0,P|115:189|252:237,1,288.000010986329
421,19,68661,5,8,0:0:0:0:
349,12,68743,1,0,0:0:0:0:
283,41,68825,1,0,0:0:0:0:
245,102,68907,1,0,0:0:0:0:
235,173,68989,2,0,P|230:244|247:314,1,144.000005493164,0|4,0:0|0:0,0:0:0:0:
247,314,69481,6,0,P|283:215|226:49,1,288.000010986329,4|0,0:0|0:0,0:0:0:0:
25,228,69973,2,0,P|43:300|89:351,1,144.000005493164,8|0,0:0|0:0,0:0:0:0:
354,279,70301,1,0,0:0:0:0:
129,124,70465,2,0,P|106:192|123:260,1,144.000005493164,0|8,0:0|0:0,0:0:0:0:
468,288,70792,2,0,P|433:165|296:180,1,288.000010986329
60,347,71284,2,0,B|23:274|23:274|45:151|148:127,1,288.000010986329,8|0,0:0|0:0,0:0:0:0:
148,126,71940,5,8,0:0:0:0:
374,252,72104,1,0,0:0:0:0:
491,21,72268,2,0,P|417:19|361:56,1,144.000005493164
278,337,72596,2,0,P|346:315|374:253,1,144.000005493164,8|0,0:0|0:0,0:0:0:0:
155,21,72924,2,0,P|160:156|276:238,1,288.000010986329,0|8,0:0|0:0,0:0:0:0:
489,43,73415,2,0,P|349:7|259:101,1,288.000010986329
242,179,73825,1,0,0:0:0:0:
254,257,73907,1,0,0:0:0:0:
316,306,73989,1,0,0:0:0:0:
347,233,74071,1,0,0:0:0:0:
316,160,74153,1,0,0:0:0:0:
259,103,74235,5,4,0:0:0:0:
114,352,74399,1,0,0:0:0:0:
397,298,74563,1,0,0:0:0:0:
237,25,74727,1,0,0:0:0:0:
21,194,74891,6,0,B|162:236|162:236|222:363,1,288.000010986329,12|0,0:0|0:0,0:0:0:0:
491,190,75383,2,0,B|350:148|350:148|290:21,1,288.000010986329,12|0,0:0|0:0,0:0:0:0:
462,35,75874,5,8,0:0:0:0:
50,349,76038,1,0,0:0:0:0:
104,66,76202,2,0,P|174:74|234:115,1,144.000005493164,12|0,0:0|0:0,0:0:0:0:
449,287,76530,1,0,0:0:0:0:
343,51,76694,2,0,P|315:176|176:224,1,288.000010986329,12|0,0:0|0:0,0:0:0:0:
7,45,77186,1,8,0:0:0:0:
254,126,77350,1,0,0:0:0:0:
118,346,77514,6,0,P|101:277|136:216,1,144.000005493164,12|0,0:0|0:0,0:0:0:0:
497,191,77842,1,0,0:0:0:0:
56,320,78006,6,0,P|75:251|136:216,1,144.000005493164,12|0,0:0|0:0,0:0:0:0:
497,191,78333,1,0,0:0:0:0:
15,266,78497,6,0,P|66:216|136:216,1,144.000005493164,12|0,0:0|0:0,0:0:0:0:
497,191,78825,1,0,0:0:0:0:
372,368,78989,5,8,0:0:0:0:
64,128,79153,1,12,0:0:0:0:
64,128,79481,5,8,0:0:0:0:
448,128,79645,1,12,0:0:0:0:
448,128,79973,5,8,0:0:0:0:
140,368,80137,1,12,0:0:0:0:
140,368,80465,5,0,0:0:0:0:
256,32,80628,1,12,0:0:0:0:
372,368,80792,1,0,0:0:0:0:
204,100,80956,5,0,0:0:0:0:
127,80,81038,1,0,0:0:0:0:
75,140,81120,1,0,0:0:0:0:
97,216,81202,1,0,0:0:0:0:
174,234,81284,1,0,0:0:0:0:
227,175,81366,1,0,0:0:0:0:
150,156,81448,6,0,P|98:210|84:277,1,144.000005493164
373,261,81776,2,0,P|425:207|439:140,1,144.000005493164,8|0,0:0|0:0,0:0:0:0:
182,25,82104,1,0,0:0:0:0:
21,199,82268,1,0,0:0:0:0:
253,251,82432,1,8,0:0:0:0:
134,22,82596,1,0,0:0:0:0:
42,241,82760,1,0,0:0:0:0:
278,210,82924,1,0,0:0:0:0:
100,31,83087,5,8,0:0:0:0:
68,266,83251,2,0,P|162:294|289:175,1,288.000010986329
30,139,83743,2,0,B|23:213|23:213|68:265,1,144.000005493164,8|0,0:0|0:0,0:0:0:0:
328,291,84071,5,0,0:0:0:0:
399,41,84235,1,0,0:0:0:0:
160,226,84399,2,0,P|230:239|291:205,1,144.000005493164,8|0,0:0|0:0,0:0:0:0:
38,64,84727,2,0,P|36:136|84:183,2,144.000005493164,0|0|8,0:0|0:0|0:0,0:0:0:0:
427,110,85219,6,0,B|462:164|462:164|388:254|260:214,1,288.000010986329,0|0,0:0|0:0,0:0:0:0:
192,187,85628,1,0,0:0:0:0:
134,144,85710,1,8,0:0:0:0:
94,84,85792,1,0,0:0:0:0:
81,13,85874,2,0,P|220:24|274:147,1,288.000010986329
132,349,86366,1,8,0:0:0:0:
372,61,86530,1,0,0:0:0:0:
372,61,86858,5,0,0:0:0:0:
186,86,87022,1,4,0:0:0:0:
301,234,87186,1,0,0:0:0:0:
444,113,87350,5,4,0:0:0:0:
186,86,87514,1,0,0:0:0:0:
35,296,87678,1,0,0:0:0:0:
186,86,87842,1,0,0:0:0:0:
320,324,88006,1,4,0:0:0:0:
320,324,88497,6,0,B|324:332|324:332|320:344|320:344|336:332|336:332|332:344|332:344|356:380,1,96,4|0,0:0|0:0,0:0:0:0:
