osu file format v9

[General]
AudioFilename: 01 - Dead END ~TV size~.mp3
AudioLeadIn: 0
PreviewTime: 58002
Countdown: 0
SampleSet: Soft
StackLeniency: 0.7
Mode: 0
LetterboxInBreaks: 0

[Editor]
Bookmarks: 36199,47838
DistanceSpacing: 1
BeatDivisor: 4
GridSize: 8

[Metadata]
Title:Dead END (TV Size)
Artist:Faylan
Creator:Weezy
Version:Hard
Source:Mirai Nikki
Tags:future diary climbb65588 nyquill saten-san kiddo-kun

[Difficulty]
HPDrainRate:6
CircleSize:4
OverallDifficulty:6
ApproachRate:7
SliderMultiplier:1.6
SliderTickRate:2

[Events]
//Background and Video events
0,0,"yuno.jpg"
Video,0,"op.avi"
//Break Periods
//Storyboard Layer 0 (Background)
//Storyboard Layer 1 (Fail)
//Storyboard Layer 2 (Pass)
//Storyboard Layer 3 (Foreground)
//Storyboard Sound Samples
//Background Colour Transformations
3,100,163,162,255

[TimingPoints]
2761,327.868852459016,4,2,1,65,1,0
58990,-100,4,2,1,65,0,1
86695,-100,4,2,1,65,0,0

[Colours]
Combo1 : 149,0,0
Combo2 : 89,89,255
Combo3 : 192,192,192
Combo4 : 255,128,255

[HitObjects]
320,104,2761,1,4
256,56,2924,1,0
191,102,3088,2,0,B|240:184|167:244,1,160,2|0
176,328,3580,2,0,B|256:296|344:336,1,160,0|0
344,244,4072,2,0,B|272:184|320:102,1,160,0|2
320,102,4564,6,0,B|304:62|256:46|208:62|192:102,1,160
120,136,5056,1,2
112,216,5220,2,0,B|80:304|192:352,1,160
256,336,5711,6,0,B|256:176,1,160,2|0
320,128,6203,2,0,B|272:48|176:48,1,160
192,128,6695,2,0,B|240:48|336:48,1,160,0|2
400,72,7187,5,0
448,136,7351,1,0
392,192,7515,1,0
448,248,7679,1,2
392,304,7842,1,0
312,288,8006,6,0,B|248:352,1,80,4|0
176,344,8334,2,0,B|94:393|34:320,1,160,8|0
16,240,8826,1,0
88,208,8990,2,0,B|160:136,1,80,8|0
176,72,9318,2,0,B|94:23|34:96,1,160,0|8
40,176,9810,6,0,B|174:262,1,160
208,336,10301,1,8
248,272,10465,1,0
256,192,10629,5,4
256,192,10793,1,0
256,192,10957,2,0,B|344:176|376:96,1,160,8|0
312,40,11449,1,0
240,72,11613,1,8
160,88,11777,6,0,B|72:104|40:184,1,160,0|0
56,264,12269,1,8
56,264,12433,2,0,B|32:344|136:384,1,160
192,328,12924,1,8
256,192,13088,12,0,14072
256,56,14236,5,0
256,136,14400,1,0
184,176,14564,2,0,B|208:224|176:272,1,80,4|0
186,252,14892,1,8
328,176,15220,2,0,B|304:224|336:272,1,80
326,252,15547,1,8
256,136,15875,2,0,B|200:72|80:72,1,160,0|8
56,128,16367,2,0,B|55:234|119:290,1,160
184,280,16859,5,8
256,320,17023,1,0
304,256,17187,2,0,B|280:192|232:192,1,80
184,168,17515,1,8
248,120,17679,1,0
248,120,17842,2,0,B|304:56|424:56,1,160,0|8
448,112,18334,38,0,B|472:208|432:296,1,160,2|2
384,328,18826,1,8
304,344,18990,2,0,B|216:296|176:200,1,160,2|2
256,192,19482,5,8
312,136,19646,1,0
336,56,19810,2,0,B|408:112,2,80,0|0|8
256,80,20301,1,0
200,136,20465,2,0,B|128:80,2,80,0|0|8
256,192,20957,1,0
176,208,21121,38,0,B|216:296|336:296,1,160,0|8
382,279,21613,2,0,B|342:191|222:191,1,160
256,192,22105,1,8
128,104,22433,5,0
64,56,22597,1,4
384,104,22924,37,0
448,56,23088,1,4
256,288,23416,5,0
256,368,23580,2,0,B|160:368|112:296,1,160,4|4
48,256,24072,2,0,B|8:176,2,80,4|0|0
112,208,24564,1,0
80,136,24728,37,0
80,136,24892,2,0,B|136:64|216:56,1,160,4|0
256,128,25383,1,8
298,56,25547,2,0,B|376:64|432:136,1,160
432,216,26039,1,8
440,296,26203,2,0,B|440:344|400:344|400:344|296:344,1,160
256,288,26695,1,8
200,344,26859,2,0,B|112:344|112:344|72:344|72:296,1,160
128,232,27351,5,8
168,168,27515,2,0,B|168:96|168:96|168:48|192:32|224:32,1,160
296,32,28006,2,0,B|318:31|342:47|342:95|342:95|342:167,2,160,8|0|8
256,104,28826,2,0,B|256:272,1,160
192,304,29318,2,0,B|184:368|224:384,1,80,8|0
296,376,29646,2,0,B|324:366|316:302,1,80
352,232,29974,37,8
360,152,30138,2,0,B|376:96|376:96|368:48|288:32,1,160,0|0
256,104,30629,1,8
210,35,30793,2,0,B|144:48|136:96|136:96|152:152,1,160
160,232,31285,1,8
80,248,31449,2,0,B|88:336|184:368,1,160
256,344,31941,5,8
336,364,32105,2,0,B|424:336|432:248,1,160
440,168,32597,1,0
440,88,32760,38,0,B|392:16|304:16,1,160,4|0
256,80,33252,1,2
112,144,33580,1,2
112,144,33744,1,0
256,192,34072,12,0,34892
256,192,35056,6,0,B|208:192,2,40,0|0|8
216,344,35547,38,0,B|296:344,1,80,4|0
360,296,35875,2,0,B|432:232,1,80,8|0
496,232,36203,2,0,B|496:136,1,80
424,120,36531,2,0,B|364:66,1,80,8|0
296,112,36859,6,0,B|216:112,1,80,0|0
147,66,37187,2,0,B|88:120,1,80,8|0
16,152,37515,2,0,B|16:232,1,80
88,264,37842,2,0,B|147:317,1,80,8|0
224,328,38170,38,0,B|320:344|376:264,1,160,0|8
440,240,38662,2,0,B|403:161|317:148,1,160
320,64,39154,2,0,B|218:52|161:120,1,160,8|0
240,144,39646,1,0
176,192,39810,2,0,B|104:152,1,80,8|0
48,96,40138,5,0
16,168,40301,1,0
0,248,40465,1,8
0,248,40629,1,0
72,256,40793,38,0,B|72:304|128:304|128:304|232:304,1,160,4|8
256,240,41285,1,0
304,304,41449,2,0,B|392:264,1,80
400,192,41777,6,0,B|360:112,1,80,8|0
304,64,42105,1,0
256,128,42269,1,0
208,64,42433,1,8
208,64,42597,1,0
147,120,42760,2,0,B|112:192,1,80,0|0
32,200,43088,37,8
40,280,43252,1,0
40,280,43416,2,0,B|120:328|192:272,1,160,4|0
256,320,43908,2,0,B|336:272|408:328,1,160,4|0
440,256,44400,2,0,B|392:184|392:184|360:168|320:168,1,160,4|0
256,192,44892,12,0,46039
184,200,46367,1,4
256,160,46531,1,0
328,200,46695,1,0
360,128,46859,1,0
432,160,47023,37,8
424,80,47187,2,0,B|424:32|368:32|368:32|272:32,1,160
220,32,47679,2,0,B|144:32|144:32|88:32|88:80,1,160,8|0
144,136,48170,5,0
216,168,48334,1,8
296,168,48498,1,0
368,136,48662,1,0
424,192,48826,37,0
424,192,48908,1,0
424,192,48990,2,0,B|456:280|376:336,1,160,12|0
304,328,49482,2,0,B|248:328|208:296,1,80,0|8
152,272,49810,2,0,B|152:112,1,160
224,72,50301,2,0,B|224:232,1,160,8|0
216,312,50793,5,0
136,328,50957,1,8
136,328,51121,2,0,B|45:328|0:226,1,160,4|0
56,176,51613,1,8
24,104,51777,1,0
96,64,51941,1,0
96,64,52105,1,0
176,56,52269,37,8
256,192,52597,1,0
336,56,52924,1,8
256,192,53252,1,0
256,352,53580,1,8
152,232,53908,6,0,B|152:160|152:160|152:112|224:112,1,160,4|0
296,112,54400,2,0,B|357:111|357:159|357:159|357:231,1,160,4|0
424,280,54892,2,0,B|424:328|368:328|368:328|272:328,1,160,4|0
220,328,55383,2,0,B|144:328|144:328|88:328|88:280,1,160,4|0
160,248,55875,37,2
216,192,56039,1,0
296,192,56203,1,2
352,248,56367,1,0
400,184,56531,6,0,B|360:104|360:104|344:72|288:88,1,160,4|0
216,88,57023,2,0,B|169:75|153:107|153:107|113:187,1,160,4|0
48,144,57515,2,0,B|24:240|80:304,1,160,4|0
152,272,58006,38,0,B|192:312,2,40,8|0|0
224,240,58334,2,0,B|280:264,2,40,8|0|0
256,168,58662,2,0,B|320:176,2,40,8|0|0
256,88,58990,6,0,B|344:48|408:104,1,160,4|0
480,72,59482,2,0,B|496:152|392:208,1,160,8|0
328,216,59974,1,0
328,216,60138,1,8
328,216,60301,2,0,B|360:296|288:368,1,160
216,360,60793,1,8
136,352,60957,37,0
96,280,61121,1,0
112,200,61285,1,0
184,224,61449,1,8
256,192,61613,2,0,B|208:112|232:40,1,160,0|0
312,48,62105,2,0,B|360:128|336:200,1,160,8|0
416,192,62597,1,0
376,264,62760,1,8
296,264,62924,2,0,B|288:336|168:360,2,160
256,192,63744,5,0
256,112,63908,1,0
184,152,64072,1,8
184,152,64154,1,0
184,152,64236,1,0
136,216,64400,38,0,B|136:272|192:272|192:272|264:272,1,160,4|8
416,280,65056,1,0
416,280,65220,2,0,B|416:207|416:207|416:167|360:160,2,80,0|8|4
368,344,65711,2,0,B|280:344,1,80,0|0
208,320,66039,1,8
256,160,66367,1,0
256,160,66695,1,8
112,96,67023,5,4
176,48,67187,1,0
256,32,67351,1,8
336,56,67515,1,0
256,192,67842,2,0,B|336:144|408:208,1,160
448,360,68498,37,0
376,320,68662,1,8
224,264,68990,5,0
144,256,69154,2,0,B|80:224,3,40,0|0|8|0
112,200,69482,2,0,B|176:144|264:144,1,160,4|0
328,184,69974,37,8
368,256,70138,1,0
424,200,70301,1,0
432,120,70465,2,0,B|415:59|344:49,1,80,0|8
382,60,70793,1,0
248,144,71121,1,0
248,144,71285,2,0,B|160:120|88:176,1,160,8|0
104,328,71941,6,0,B|40:336|16:272,2,80,8|0|4
256,280,72597,1,8
408,312,72924,2,0,B|408:256|408:256|408:208|384:184|352:184,1,160,0|8
288,128,73416,1,4
128,96,73744,38,0,B|152:144|144:184,1,80,0|8
80,224,74072,2,0,B|104:264|104:264|128:296|160:304|208:280,1,160,4|0
256,344,74564,1,8
312,288,74728,2,0,B|360:288|360:240|360:240|360:144,1,160,0|0
360,157,75220,1,8
360,157,75383,1,0
152,40,75875,5,8
152,40,76039,2,0,B|216:40|216:40|256:40|272:48|272:104,1,160,4|0
280,176,76531,1,8
360,157,76695,2,0,B|416:96|512:112,1,160
496,192,77187,38,0,B|424:224,1,80,2|0
432,304,77515,2,0,B|432:344|360:344|360:344|288:344,1,160,4|2
208,344,78006,2,0,B|139:344|139:344|67:344|67:304,1,160,4|2
40,232,78498,2,0,B|40:184|88:184|88:184|176:184,1,160,4|2
256,192,78990,5,4
256,192,79154,1,2
120,112,79482,37,4
120,112,79646,1,2
256,32,79974,5,4
256,32,80138,1,2
392,112,80465,37,4
392,112,80629,1,2
256,192,80957,2,0,B|256:248,5,40,0|0|0|0|0|0
296,232,81449,5,4
376,208,81613,1,0
432,264,81777,2,0,B|432:312|368:312|368:312|296:312,1,160,10|2
216,312,82269,2,0,B|128:312,1,80,2|8
72,264,82597,1,0
72,184,82760,6,0,B|168:184|216:248,1,160,2|8
298,244,83252,2,0,B|343:183|439:183,1,160,2|0
456,104,83744,1,8
456,104,83908,2,0,B|456:8,2,80,0|4|0
376,112,84400,6,0,B|328:192|232:192,1,160,8|0
232,272,84892,2,0,B|152:224|152:224,1,80,0|8
160,152,85220,1,0
288,56,85547,5,0
352,104,85711,2,0,B|424:160,1,80,8|0
456,312,86203,1,0
392,264,86367,2,0,B|320:208,1,80,8|0
280,152,86695,5,2
232,88,86859,2,0,B|168:168,2,80
152,104,87351,2,0,B|80:160,3,80,2|0|0|0
112,232,88006,5,4
352,192,88498,1,4
