osu file format v12

[General]
AudioFilename: Magic of 1 Second.mp3
AudioLeadIn: 1467
PreviewTime: 78891
Countdown: 1
SampleSet: Soft
StackLeniency: 0.7
Mode: 0
LetterboxInBreaks: 1
WidescreenStoryboard: 0

[Editor]
Bookmarks: 177225
DistanceSpacing: 1
BeatDivisor: 4
GridSize: 4

[Metadata]
Title:Ichibyoo no Mahou
TitleUnicode:一秒の魔法
Artist:FayeP
ArtistUnicode:フェイP
Creator:Xin_U
Version:Recollection
Source:
Tags:Hatsune Miku Junky Mizuna
BeatmapID:224898
BeatmapSetID:80904

[Difficulty]
HPDrainRate:6
CircleSize:4
OverallDifficulty:8
ApproachRate:8
SliderMultiplier:2.8
SliderTickRate:2

[Events]
//Background and Video events
Video,-502,"pv.avi"
0,0,"bg.jpg",0,0
//Break Periods
2,112187,126475
2,277901,284570
//Storyboard Layer 0 (Background)
//Storyboard Layer 1 (Fail)
//Storyboard Layer 2 (Pass)
//Storyboard Layer 3 (Foreground)
//Storyboard Sound Samples
//Background Colour Transformations
3,100,163,162,255

[TimingPoints]
1511,476.190476190476,4,2,0,66,1,0
64368,-125,4,2,0,66,0,0
65082,-100,4,2,0,66,0,0
79606,-80,4,2,0,66,0,1
111988,-100,4,2,0,66,0,0
111989,-100,4,2,0,66,0,1
111990,-100,4,2,0,66,0,0
159606,-80,4,2,0,66,0,1
191987,-100,4,2,0,66,0,0
214844,-66.6666666666667,4,2,0,66,0,1
247225,-80,4,2,0,66,0,0
292820,-100,4,2,0,5,0,0

[Colours]
Combo1 : 255,255,0
Combo2 : 255,0,0
Combo3 : 0,255,0
Combo4 : 255,128,0
Combo5 : 0,0,255

[HitObjects]
256,128,558,2,0,P|176:100|120:280,1,280
180,288,1272,1,0,0:0:0:0:
268,336,1511,6,0,P|256:288|328:232,1,140
408,264,1987,2,0,P|456:232|453:135,1,140,2|0,0:0|0:0,0:0:0:0:
408,76,2463,1,0,0:0:0:0:
312,104,2701,2,0,B|272:72|248:104|224:136|184:104,1,140,0|2,0:0|0:0,0:0:0:0:
88,76,3177,1,0,0:0:0:0:
64,172,3415,6,0,L|120:328,1,140
312,360,3891,2,0,L|264:228,1,140,2|0,0:0|0:0,0:0:0:0:
111,303,4368,1,0,0:0:0:0:
264,228,4606,1,2,0:0:0:0:
65,275,4844,1,2,0:0:0:0:
310,256,5082,1,0,0:0:0:0:
244,48,5320,6,0,P|256:96|184:152,1,140
104,120,5796,2,0,P|55:151|58:248,1,140,2|0,0:0|0:0,0:0:0:0:
104,308,6272,1,0,0:0:0:0:
200,280,6510,2,0,B|240:312|264:280|288:248|328:280,1,140,0|2,0:0|0:0,0:0:0:0:
424,308,6986,1,2,0:0:0:0:
448,212,7224,6,0,L|392:56,1,140,2|0,0:0|0:0,0:0:0:0:
200,24,7700,2,0,L|247:155,1,140,2|0,0:0|0:0,0:0:0:0:
400,80,8177,1,0,0:0:0:0:
247,155,8415,1,2,0:0:0:0:
446,108,8653,1,2,0:0:0:0:
201,127,8891,1,0,0:0:0:0:
48,344,9130,6,0,B|80:300|128:292|216:320,1,140
272,324,9606,1,2,0:0:0:0:
320,240,9844,2,0,B|308:160|304:120|420:124,1,140
456,228,10320,2,0,B|468:308|472:348|356:344,1,140,0|2,0:0|0:0,0:0:0:0:
436,152,10796,1,0,0:0:0:0:
468,44,11034,5,0,0:0:0:0:
364,180,11272,1,0,0:0:0:0:
360,68,11510,1,2,0:0:0:0:
312,240,11749,1,0,0:0:0:0:
272,136,11987,1,0,0:0:0:0:
272,308,12225,1,0,0:0:0:0:
200,224,12463,2,0,P|172:288|100:296,1,140,2|0,0:0|0:0,0:0:0:0:
262,359,12939,6,0,B|300:224|300:224|316:152|252:88|168:80|119:164,1,420,2|0,0:0|0:0,0:0:0:0:
56,88,13891,1,2,0:0:0:0:
192,48,14130,1,0,0:0:0:0:
288,168,14368,1,2,0:0:0:0:
388,32,14606,1,0,0:0:0:0:
264,336,14844,6,0,P|389:250|393:133,2,280,2|0|0,0:0|0:0|0:0,0:0:0:0:
256,192,16034,1,2,0:0:0:0:
248,48,16272,6,0,P|122:133|118:250,2,280,2|0|0,0:0|0:0|0:0,0:0:0:0:
256,192,17463,1,2,0:0:0:0:
324,82,17701,1,2,0:0:0:0:
365,260,17939,1,0,0:0:0:0:
187,301,18177,1,2,0:0:0:0:
146,123,18415,1,0,0:0:0:0:
256,192,18653,6,0,P|324:160|352:84,1,140
256,192,19130,2,0,P|188:224|160:300,1,140,2|0,0:0|0:0,0:0:0:0:
256,296,19606,1,0,0:0:0:0:
336,240,19844,1,0,0:0:0:0:
336,144,20082,1,2,0:0:0:0:
256,88,20320,1,0,0:0:0:0:
176,144,20558,5,0,0:0:0:0:
80,124,20796,2,0,P|44:200|104:276,1,140,0|2,0:0|0:0,0:0:0:0:
272,164,21272,2,0,P|308:88|248:12,1,140
204,92,21749,1,2,0:0:0:0:
272,164,21987,1,2,0:0:0:0:
352,220,22225,1,0,0:0:0:0:
256,192,22463,6,0,P|188:224|160:300,1,140
256,192,22940,2,0,P|324:160|352:84,1,140,2|0,0:0|0:0,0:0:0:0:
256,88,23416,1,0,0:0:0:0:
176,144,23654,1,0,0:0:0:0:
176,240,23892,1,2,0:0:0:0:
256,296,24130,1,0,0:0:0:0:
336,240,24368,5,0,0:0:0:0:
432,264,24606,2,0,P|468:184|408:108,1,140,2|0,0:0|0:0,0:0:0:0:
240,220,25082,2,0,P|204:296|264:372,1,140,2|0,0:0|0:0,0:0:0:0:
308,292,25559,1,2,0:0:0:0:
240,220,25797,1,2,0:0:0:0:
164,156,26035,1,0,0:0:0:0:
128,64,26272,6,0,P|256:112|384:64,2,280,2|0|2,0:0|0:0|0:0,0:0:0:0:
168,152,27463,1,0,0:0:0:0:
256,192,27701,1,0,0:0:0:0:
344,232,27939,1,0,0:0:0:0:
384,320,28177,6,0,P|256:272|128:320,1,280,2|0,0:0|0:0,0:0:0:0:
80,236,28891,2,0,L|168:104,1,140,0|2,0:0|0:0,0:0:0:0:
176,216,29368,2,0,L|312:116,1,140,0|2,0:0|0:0,0:0:0:0:
276,228,29844,2,0,L|432:184,2,140
476,300,30558,5,2,0:0:0:0:
444,208,30796,1,0,0:0:0:0:
388,128,31034,1,2,0:0:0:0:
304,76,31272,1,0,0:0:0:0:
220,128,31510,1,2,0:0:0:0:
164,208,31748,1,0,0:0:0:0:
132,300,31987,6,0,B|179:158|19:175|26:27,1,280,2|0,0:0|0:0,0:0:0:0:
124,76,32701,1,2,0:0:0:0:
151,55,32820,1,0,0:0:0:0:
185,54,32939,1,2,0:0:0:0:
212,75,33058,1,2,0:0:0:0:
222,108,33177,1,0,0:0:0:0:
290,276,33415,1,2,0:0:0:0:
472,36,33891,6,0,B|484:116|440:204|300:224,1,280,4|2,0:0|0:0,0:0:0:0:
288,128,34606,1,0,0:0:0:0:
332,104,34725,1,0,0:0:0:0:
376,124,34844,1,0,0:0:0:0:
432,252,35082,2,0,P|428:328|376:344,1,140,0|2,0:0|0:0,0:0:0:0:
216,344,35558,2,0,P|164:328|160:252,1,140
160,120,36034,6,0,P|156:44|104:28,1,140,0|2,0:0|0:0,0:0:0:0:
60,116,36510,1,0,0:0:0:0:
160,120,36749,1,0,0:0:0:0:
196,152,36868,1,2,0:0:0:0:
212,200,36987,2,0,P|208:272|140:304,1,140,0|2,0:0|0:0,0:0:0:0:
256,196,37463,1,2,0:0:0:0:
357,79,37701,6,0,P|304:112|300:184,1,140
432,232,38177,2,0,B|440:268|488:292|488:292|440:312|380:372,1,210,2|0,0:0|0:0,0:0:0:0:
344,344,38653,1,2,0:0:0:0:
220,328,38891,1,0,0:0:0:0:
192,204,39130,1,2,0:0:0:0:
68,188,39368,1,0,0:0:0:0:
40,64,39606,6,0,P|118:43|142:84,1,140
176,128,39963,1,0,0:0:0:0:
212,172,40082,2,0,P|207:235|278:267,1,140,2|0,0:0|0:0,0:0:0:0:
324,280,40439,1,0,0:0:0:0:
368,244,40558,2,0,L|348:84,1,140,2|0,0:0|0:0,0:0:0:0:
144,136,41034,2,0,L|164:300,1,140,2|0,0:0|0:0,0:0:0:0:
368,244,41510,6,0,P|436:108|316:40,1,280,0|2,0:0|0:0,0:0:0:0:
340,144,42225,1,0,0:0:0:0:
340,144,42344,1,0,0:0:0:0:
340,144,42463,2,0,L|184:168,2,140,0|0|2,0:0|0:0|0:0,0:0:0:0:
284,224,43177,1,0,0:0:0:0:
216,92,43415,5,0,0:0:0:0:
196,236,43653,1,2,0:0:0:0:
128,104,43891,1,0,0:0:0:0:
108,248,44130,2,0,P|212:280|263:270,1,140,2|0,0:0|0:0,0:0:0:0:
271,106,44606,2,0,P|299:103|404:136,2,140,2|2|0,0:0|0:0|0:0,0:0:0:0:
403,135,45320,6,0,B|436:176|444:216|392:284,1,140
224,324,45796,1,2,0:0:0:0:
320,312,46034,1,0,0:0:0:0:
132,288,46272,2,0,B|88:264|56:224|68:152,1,140
224,60,46749,1,2,0:0:0:0:
288,60,46987,1,0,0:0:0:0:
208,120,47225,5,0,0:0:0:0:
304,120,47463,1,0,0:0:0:0:
192,180,47701,1,2,0:0:0:0:
320,180,47939,1,0,0:0:0:0:
280,200,48058,2,0,P|185:272|188:372,1,210,2|0,0:0|0:0,0:0:0:0:
329,356,48653,1,2,0:0:0:0:
334,304,48772,1,0,0:0:0:0:
317,255,48891,1,0,0:0:0:0:
280,218,49010,1,0,0:0:0:0:
232,200,49130,6,0,P|286:117|332:102,1,140
190,279,49606,2,0,P|225:266|280:184,1,140,2|0,0:0|0:0,0:0:0:0:
276,128,49963,1,0,0:0:0:0:
232,92,50082,1,0,0:0:0:0:
92,140,50320,1,0,0:0:0:0:
96,196,50439,1,0,0:0:0:0:
132,240,50558,1,2,0:0:0:0:
280,184,50796,1,0,0:0:0:0:
388,300,51034,6,0,P|416:136|300:36,1,280,0|2,0:0|0:0,0:0:0:0:
256,224,51749,1,0,0:0:0:0:
162,56,51987,2,0,P|96:136|124:300,1,280,0|2,0:0|0:0,0:0:0:0:
256,316,52701,1,0,0:0:0:0:
280,184,52939,6,0,P|225:266|179:281,1,140
321,104,53415,2,0,P|286:117|232:200,1,140,2|0,0:0|0:0,0:0:0:0:
372,160,53891,1,0,0:0:0:0:
456,288,54130,1,2,0:0:0:0:
312,236,54368,1,2,0:0:0:0:
460,192,54606,1,0,0:0:0:0:
364,312,54844,5,0,0:0:0:0:
296,156,55083,1,0,0:0:0:0:
460,192,55320,2,0,P|428:124|352:104,1,140,2|2,0:0|0:0,0:0:0:0:
232,220,55796,2,0,P|195:288|227:362,1,140,0|2,0:0|0:0,0:0:0:0:
128,184,56272,2,0,P|81:121|0:119,1,140,0|2,0:0|0:0,0:0:0:0:
60,68,56630,1,0,0:0:0:0:
84,20,56749,5,0,0:0:0:0:
160,84,56987,1,0,0:0:0:0:
256,108,57225,2,0,P|308:172|360:144,2,140,2|0|0,0:0|0:0|0:0,0:0:0:0:
228,16,57939,1,0,0:0:0:0:
160,84,58177,1,2,0:0:0:0:
80,140,58415,1,0,0:0:0:0:
140,216,58653,5,0,0:0:0:0:
180,244,58772,1,0,0:0:0:0:
228,252,58891,1,2,0:0:0:0:
320,220,59130,1,2,0:0:0:0:
336,120,59368,2,0,P|296:168|116:80,2,280,2|0|2,0:0|0:0|0:0,0:0:0:0:
432,304,60558,5,0,0:0:0:0:
272,288,60796,2,0,L|416:240,1,140,2|0,0:0|0:0,0:0:0:0:
216,228,61272,2,0,L|376:200,1,140,2|0,0:0|0:0,0:0:0:0:
176,156,61749,2,0,L|332:152,2,140,0|0|2,0:0|0:0|0:0,0:0:0:0:
296,216,62463,6,0,L|152:188,1,140,0|2,0:0|0:0,0:0:0:0:
352,152,62939,2,0,L|192:144,1,140,0|2,0:0|0:0,0:0:0:0:
412,84,63415,2,0,L|252:96,1,140,0|2,0:0|0:0,0:0:0:0:
224,88,63772,1,0,0:0:0:0:
184,68,63891,1,2,0:0:0:0:
148,100,64010,1,0,0:0:0:0:
148,148,64130,1,2,0:0:0:0:
168,188,64249,1,2,0:0:0:0:
192,232,64368,6,0,B|272:209|300:172|300:172|336:116|300:88|260:108,1,224
352,236,65082,2,0,P|312:312|388:372,1,140,0|2,0:0|0:0,0:0:0:0:
160,236,65558,2,0,P|200:312|124:372,1,140,0|2,0:0|0:0,0:0:0:0:
256,192,66034,1,2,0:0:0:0:
116,120,66272,6,0,P|136:64|220:40,1,140,2|0,0:0|0:0,0:0:0:0:
228,80,66630,2,0,P|272:88|336:164,1,140
300,192,66987,2,0,P|336:256|308:324,1,140,0|2,0:0|0:0,0:0:0:0:
212,192,67463,2,0,P|176:128|204:60,1,140,0|2,0:0|0:0,0:0:0:0:
384,168,67939,1,2,0:0:0:0:
396,264,68177,6,0,P|376:320|292:344,1,140,2|0,0:0|0:0,0:0:0:0:
284,304,68535,2,0,P|240:296|176:220,1,140
212,192,68891,2,0,P|176:128|204:60,1,140,2|2,0:0|0:0,0:0:0:0:
300,191,69368,2,0,P|336:256|308:324,1,140
128,216,69844,1,2,0:0:0:0:
84,88,70082,6,0,P|203:65|256:192,1,280,2|0,0:0|0:0,0:0:0:0:
428,296,70796,2,0,P|309:319|256:192,1,280,2|0,0:0|0:0,0:0:0:0:
149,263,71510,1,2,0:0:0:0:
161,303,71629,1,0,0:0:0:0:
202,307,71748,1,0,0:0:0:0:
217,267,71867,1,0,0:0:0:0:
184,240,71987,6,0,P|108:168|104:124,1,140,2|0,0:0|0:0,0:0:0:0:
200,144,72463,2,0,P|200:56|247:36,1,140,2|0,0:0|0:0,0:0:0:0:
288,44,72820,1,0,0:0:0:0:
336,44,72939,1,2,0:0:0:0:
412,192,73177,1,0,0:0:0:0:
288,304,73415,1,2,0:0:0:0:
120,324,73653,2,0,P|52:308|8:164,2,210,2|0|2,0:0|0:0|0:0,0:0:0:0:
144,156,74606,6,0,P|196:64|256:28,1,140,2|2,0:0|0:0,0:0:0:0:
368,228,75082,1,2,0:0:0:0:
352,271,75201,1,0,0:0:0:0:
325,310,75320,1,2,0:0:0:0:
290,339,75439,1,0,0:0:0:0:
325,310,75558,1,2,0:0:0:0:
352,271,75677,1,0,0:0:0:0:
368,228,75796,6,0,P|340:140|296:120,1,140,2|0,0:0|0:0,0:0:0:0:
144,156,76272,2,0,P|172:244|216:264,1,140,2|2,0:0|0:0,0:0:0:0:
302,121,76749,1,0,0:0:0:0:
272,96,76868,1,2,0:0:0:0:
236,76,76987,1,0,0:0:0:0:
209,262,77225,1,2,0:0:0:0:
240,288,77344,1,0,0:0:0:0:
276,308,77463,1,2,0:0:0:0:
316,312,77582,1,2,0:0:0:0:
356,300,77701,5,2,0:0:0:0:
273,153,77939,1,2,0:0:0:0:
425,223,78177,1,2,0:0:0:0:
261,255,78415,1,2,0:0:0:0:
375,133,78653,2,0,L|264:44,1,140,2|0,0:0|0:0,0:0:0:0:
252,52,79130,1,0,0:0:0:0:
244,60,79368,1,0,0:0:0:0:
240,76,79606,6,0,B|218:105|218:105|224:138|224:138|144:248,1,175
349,160,80082,2,0,B|287:245|287:245|293:278|293:278|272:308,1,175,2|0,0:0|0:0,0:0:0:0:
440,176,80558,1,0,0:0:0:0:
364,56,80796,1,0,0:0:0:0:
488,120,81034,1,2,0:0:0:0:
348,128,81272,1,0,0:0:0:0:
212,156,81510,6,0,P|120:136|72:44,1,175
212,156,81987,2,0,P|304:176|352:268,2,175,2|0|0,0:0|0:0|0:0,0:0:0:0:
96,232,82701,1,2,0:0:0:0:
52,364,82939,1,2,0:0:0:0:
172,292,83177,1,0,0:0:0:0:
272,308,83415,6,0,B|293:278|293:278|287:245|287:245|367:135,1,175
162,223,83891,2,0,B|224:138|224:138|218:105|218:105|240:76,1,175,2|0,0:0|0:0,0:0:0:0:
72,208,84367,1,0,0:0:0:0:
148,328,84605,1,0,0:0:0:0:
24,264,84843,1,2,0:0:0:0:
164,256,85081,1,0,0:0:0:0:
292,316,85320,6,0,P|380:296|356:216,1,175
380,168,85677,1,0,0:0:0:0:
368,108,85796,2,0,P|312:52|212:40,1,175,2|0,0:0|0:0,0:0:0:0:
176,84,86153,1,0,0:0:0:0:
148,140,86272,2,0,P|96:248|88:336,1,175
364,244,86749,2,0,P|416:136|424:48,1,175,2|2,0:0|0:0,0:0:0:0:
125,313,87225,6,0,L|148:140,1,175,0|0,0:0|0:0,0:0:0:0:
377,322,87701,2,0,L|204:300,1,175,2|0,0:0|0:0,0:0:0:0:
386,70,88177,2,0,L|364:244,1,175,2|0,0:0|0:0,0:0:0:0:
484,220,88653,1,2,0:0:0:0:
480,96,88891,1,2,0:0:0:0:
364,140,89130,6,0,L|392:352,1,175
204,84,89606,2,0,L|416:56,1,175,2|0,0:0|0:0,0:0:0:0:
148,244,90082,2,0,L|120:32,2,175,0|2|0,0:0|0:0|0:0,0:0:0:0:
208,332,90796,1,0,0:0:0:0:
260,240,91034,6,0,P|252:152|464:24,1,350,0|2,0:0|0:0,0:0:0:0:
368,128,91749,1,0,0:0:0:0:
439,287,91987,1,0,0:0:0:0:
267,322,92225,1,0,0:0:0:0:
272,147,92463,1,2,0:0:0:0:
442,190,92701,1,0,0:0:0:0:
362,346,92939,6,0,B|348:264|424:222|392:132|328:196|296:252|220:240|196:148,1,350,2|0,0:0|0:0,0:0:0:0:
72,104,93653,1,2,0:0:0:0:
244,72,93891,1,2,0:0:0:0:
244,72,94010,1,0,0:0:0:0:
244,72,94130,1,0,0:0:0:0:
388,172,94368,1,0,0:0:0:0:
440,340,94606,1,0,0:0:0:0:
272,308,94844,6,0,B|294:279|294:279|288:246|288:246|368:136,1,175
163,223,95320,2,0,B|225:139|225:139|219:106|219:106|240:76,1,175,2|0,0:0|0:0,0:0:0:0:
72,208,95796,1,0,0:0:0:0:
148,328,96034,1,0,0:0:0:0:
24,264,96272,1,2,0:0:0:0:
164,256,96510,1,0,0:0:0:0:
300,228,96748,6,0,P|392:248|440:340,1,175
300,228,97225,2,0,P|208:208|160:116,2,175,2|0|0,0:0|0:0|0:0,0:0:0:0:
416,152,97939,1,2,0:0:0:0:
460,20,98177,1,2,0:0:0:0:
340,92,98415,1,0,0:0:0:0:
240,76,98653,6,0,B|219:106|219:106|225:139|225:139|145:249,1,175
350,161,99129,2,0,B|288:246|288:246|294:279|294:279|272:308,1,175,2|0,0:0|0:0,0:0:0:0:
440,176,99605,1,0,0:0:0:0:
364,56,99843,1,0,0:0:0:0:
488,120,100081,1,2,0:0:0:0:
348,128,100319,1,0,0:0:0:0:
220,68,100558,6,0,P|132:88|156:168,1,175,2|0,0:0|0:0,0:0:0:0:
132,216,100915,1,0,0:0:0:0:
144,276,101034,2,0,P|200:332|300:344,1,175,2|0,0:0|0:0,0:0:0:0:
336,300,101391,1,0,0:0:0:0:
364,244,101510,2,0,P|416:136|424:48,2,175,2|2|2,0:0|0:0|0:0,0:0:0:0:
232,292,102225,1,0,0:0:0:0:
200,156,102463,6,0,P|180:116|272:120,1,175
242,279,102939,2,0,P|332:268|312:228,1,175,2|0,0:0|0:0,0:0:0:0:
176,232,103415,2,0,P|114:176|109:83,1,175
336,152,103891,2,0,P|397:207|403:295,1,175,2|0,0:0|0:0,0:0:0:0:
256,360,104368,6,0,B|256:176,1,175
256,124,104725,1,0,0:0:0:0:
256,64,104844,2,0,P|158:67|174:158,1,175,2|0,0:0|0:0,0:0:0:0:
384,192,105320,2,0,P|381:94|290:110,1,175,2|0,0:0|0:0,0:0:0:0:
255,320,105796,2,0,P|354:316|338:226,1,175,2|0,0:0|0:0,0:0:0:0:
128,191,106272,6,0,P|131:290|222:274,2,175,0|0|2,0:0|0:0|0:0,0:0:0:0:
142,52,106987,1,0,0:0:0:0:
256,132,107225,1,0,0:0:0:0:
370,52,107463,1,0,0:0:0:0:
384,191,107701,2,0,P|424:280|404:368,1,175,2|0,0:0|0:0,0:0:0:0:
264,364,108177,6,0,P|333:307|258:234,1,175,2|2,0:0|0:0,0:0:0:0:
312,68,108653,2,0,P|243:125|318:198,1,175,2|0,0:0|0:0,0:0:0:0:
112,252,109130,2,0,P|143:316|72:372,1,175,2|2,0:0|0:0,0:0:0:0:
52,200,109606,2,0,P|19:135|87:77,1,175,2|0,0:0|0:0,0:0:0:0:
262,77,110082,5,2,2:0:0:0:
318,288,110320,1,2,2:0:0:0:
148,150,110558,1,2,2:0:0:0:
367,162,110796,1,2,2:0:0:0:
183,281,111034,2,0,P|203:216|120:175,1,175,2|0,0:0|0:0,0:0:0:0:
328,102,111510,2,0,P|308:167|391:208,1,175,2|0,0:0|0:0,0:0:0:0:
256,192,111987,5,2,0:0:0:0:
124,48,127225,6,0,P|64:136|72:208,1,140,2|0,0:0|0:0,0:0:0:0:
116,176,127582,2,0,P|148:280|192:308,1,140,2|0,0:0|0:0,0:0:0:0:
204,252,127939,1,2,0:0:0:0:
244,148,128177,2,0,L|376:68,1,140
504,68,128653,2,0,L|384:140,1,140,2|0,0:0|0:0,0:0:0:0:
408,252,129130,6,0,P|257:373|104:252,1,420,0|2,0:0|0:0,0:0:0:0:
208,288,130082,2,0,P|276:300|288:136,1,280,2|0,0:0|0:0,0:0:0:0:
404,160,130796,2,0,P|360:96|304:68,1,140
416,44,131272,5,0,0:0:0:0:
328,112,131510,2,0,L|404:240,1,140,2|0,0:0|0:0,0:0:0:0:
248,88,131987,2,0,L|296:256,1,140
176,44,132463,2,0,L|184:228,1,140,2|0,0:0|0:0,0:0:0:0:
68,360,132939,6,0,B|168:344|168:344|124:264|180:196|244:188,1,280,0|2,0:0|0:0,0:0:0:0:
244,288,133653,1,0,0:0:0:0:
312,216,133891,2,0,L|448:284,2,140,0|2|2,0:0|0:0|0:0,0:0:0:0:
280,124,134606,1,0,0:0:0:0:
188,76,134844,6,0,B|237:223|68:174|117:322,1,280,0|2,0:0|0:0,0:0:0:0:
256,192,135558,1,0,0:0:0:0:
394,61,135796,2,0,B|443:209|274:160|324:308,1,280,0|2,0:0|0:0,0:0:0:0:
412,268,136510,1,2,0:0:0:0:
364,184,136749,5,2,0:0:0:0:
268,208,136987,1,0,0:0:0:0:
264,304,137225,1,2,0:0:0:0:
168,324,137463,1,2,0:0:0:0:
120,240,137701,2,0,P|44:196|44:128,1,140,0|2,0:0|0:0,0:0:0:0:
136,52,138177,2,0,P|212:96|212:164,1,140,2|2,0:0|0:0,0:0:0:0:
293,242,138653,6,0,P|300:288|376:332,1,140
474,233,139129,2,0,P|468:188|392:144,1,140,2|0,0:0|0:0,0:0:0:0:
348,120,139487,1,2,0:0:0:0:
300,104,139606,1,0,0:0:0:0:
176,164,139844,1,0,0:0:0:0:
144,300,140082,1,2,0:0:0:0:
280,324,140320,2,0,P|240:240|300:204,1,140
304,188,140677,5,0,0:0:0:0:
352,180,140796,1,2,0:0:0:0:
456,252,141034,2,0,P|374:304|429:371,2,140,2|0|0,0:0|0:0|0:0,0:0:0:0:
472,204,141630,1,0,0:0:0:0:
468,156,141749,1,2,0:0:0:0:
440,116,141868,1,0,0:0:0:0:
400,88,141987,1,2,0:0:0:0:
352,100,142106,1,0,0:0:0:0:
344,148,142225,1,2,0:0:0:0:
296,144,142344,1,0,0:0:0:0:
272,188,142463,6,0,B|272:264|352:304|424:296,2,210,2|2|0,0:0|0:0|0:0,0:0:0:0:
256,112,143415,1,0,0:0:0:0:
256,272,143653,1,0,0:0:0:0:
315,88,143891,1,2,0:0:0:0:
195,295,144129,1,0,0:0:0:0:
88,88,144368,6,0,B|160:80|240:120|240:196,2,210,2|2|0,0:0|0:0|0:0,0:0:0:0:
256,272,145320,1,0,0:0:0:0:
256,112,145558,1,2,0:0:0:0:
315,295,145796,1,2,0:0:0:0:
196,88,146034,1,0,0:0:0:0:
382,318,146272,5,2,0:0:0:0:
83,238,146630,1,2,0:0:0:0:
302,19,146987,1,2,0:0:0:0:
336,44,147106,1,0,0:0:0:0:
352,84,147225,1,0,0:0:0:0:
352,124,147344,1,0,0:0:0:0:
328,160,147463,1,2,0:0:0:0:
296,184,147582,1,0,0:0:0:0:
256,192,147701,1,0,0:0:0:0:
216,200,147820,1,0,0:0:0:0:
184,224,147939,1,2,0:0:0:0:
160,260,148058,1,0,0:0:0:0:
160,300,148177,6,0,P|288:344|340:204,1,280,2|0,0:0|0:0,0:0:0:0:
161,146,148891,2,0,P|224:40|352:84,2,280,2|0|0,0:0|0:0|0:0,0:0:0:0:
20,252,150082,6,0,P|104:332|200:360,1,210
260,364,150558,2,0,P|360:308|372:252,1,140,2|0,0:0|0:0,0:0:0:0:
380,224,150915,1,2,0:0:0:0:
368,156,151034,1,0,0:0:0:0:
208,81,151272,1,2,0:0:0:0:
134,240,151510,1,2,0:0:0:0:
292,314,151749,1,2,0:0:0:0:
368,156,151987,6,0,P|312:36|232:20,2,210,0|0|2,0:0|0:0|0:0,0:0:0:0:
144,228,152939,1,2,0:0:0:0:
147,279,153058,1,0,0:0:0:0:
172,325,153177,1,2,0:0:0:0:
215,355,153296,1,2,0:0:0:0:
266,365,153415,1,2,0:0:0:0:
215,355,153534,1,0,0:0:0:0:
172,325,153653,1,2,0:0:0:0:
147,279,153772,1,0,0:0:0:0:
144,228,153891,6,0,P|172:140|216:120,1,140,2|0,0:0|0:0,0:0:0:0:
368,156,154367,2,0,P|340:244|296:264,1,140,2|0,0:0|0:0,0:0:0:0:
210,121,154844,1,2,0:0:0:0:
240,96,154963,1,2,0:0:0:0:
276,76,155082,1,0,0:0:0:0:
303,262,155320,1,2,0:0:0:0:
272,288,155439,1,2,0:0:0:0:
236,308,155558,1,0,0:0:0:0:
196,312,155677,1,0,0:0:0:0:
156,300,155796,5,2,0:0:0:0:
206,110,156034,1,2,0:0:0:0:
53,234,156272,1,2,0:0:0:0:
249,223,156510,1,2,0:0:0:0:
85,117,156748,1,2,0:0:0:0:
156,300,156987,1,0,0:0:0:0:
184,332,157106,1,2,0:0:0:0:
220,356,157225,1,0,0:0:0:0:
256,376,157344,1,2,0:0:0:0:
292,356,157463,1,0,0:0:0:0:
328,332,157582,1,0,0:0:0:0:
356,300,157701,5,2,0:0:0:0:
427,117,157940,1,2,0:0:0:0:
263,223,158178,1,2,0:0:0:0:
459,234,158416,1,2,0:0:0:0:
306,110,158654,1,2,0:0:0:0:
284,128,159130,1,2,0:0:0:0:
272,132,159368,1,0,0:0:0:0:
256,136,159606,6,0,P|184:156|160:256,1,175
355,139,160082,2,0,P|328:228|256:248,1,175,2|0,0:0|0:0,0:0:0:0:
420,188,160558,1,0,0:0:0:0:
400,68,160796,1,0,0:0:0:0:
492,152,161034,1,2,0:0:0:0:
472,32,161272,1,0,0:0:0:0:
324,36,161510,6,0,P|240:124|164:120,1,175
352,140,161987,2,0,P|256:200|128:184,1,175,2|0,0:0|0:0,0:0:0:0:
348,240,162463,2,0,P|264:272|20:172,1,350,0|2,0:0|0:0,0:0:0:0:
172,112,163177,1,2,0:0:0:0:
256,248,163415,6,0,P|328:228|352:128,1,175
156,244,163891,2,0,P|184:156|256:136,1,175,2|0,0:0|0:0,0:0:0:0:
92,196,164367,1,0,0:0:0:0:
112,316,164605,1,0,0:0:0:0:
20,232,164843,1,2,0:0:0:0:
40,352,165081,1,0,0:0:0:0:
188,348,165320,6,0,P|272:260|348:264,1,175
160,244,165797,2,0,P|256:184|384:200,1,175,2|0,0:0|0:0,0:0:0:0:
164,144,166273,2,0,P|248:112|336:108,1,175,0|2,0:0|0:0,0:0:0:0:
332,107,166749,1,2,0:0:0:0:
428,208,166987,1,0,0:0:0:0:
436,348,167225,6,0,P|340:272|372:196,1,175
167,149,167701,2,0,P|172:112|76:36,1,175,2|0,0:0|0:0,0:0:0:0:
128,224,168177,2,0,P|191:307|384:224,1,350,2|0,0:0|0:0,0:0:0:0:
256,16,168891,1,2,0:0:0:0:
220,116,169130,6,0,P|196:216|132:272,1,175
308,196,169606,2,0,P|344:280|432:320,2,175,2|0|2,0:0|0:0|0:0,0:0:0:0:
436,76,170320,2,0,P|348:52|272:84,1,175,0|2,0:0|0:0,0:0:0:0:
392,212,170796,1,0,0:0:0:0:
200,296,171034,6,0,P|88:252|56:172,1,175,2|0,0:0|0:0,0:0:0:0:
128,176,171391,2,0,P|161:67|241:42,1,175,0|0,0:0|0:0,0:0:0:0:
244,108,171749,2,0,P|291:99|311:143,1,87.5,2|0,0:0|0:0,0:0:0:0:
264,180,171987,1,2,0:0:0:0:
300,180,172106,1,0,0:0:0:0:
332,196,172225,1,0,0:0:0:0:
352,224,172344,1,0,0:0:0:0:
356,260,172463,1,2,0:0:0:0:
360,296,172582,1,0,0:0:0:0:
380,324,172701,1,0,0:0:0:0:
412,340,172820,1,0,0:0:0:0:
448,340,172939,5,2,0:0:0:0:
478,171,173177,1,2,0:0:0:0:
366,43,173415,1,2,0:0:0:0:
195,50,173654,1,0,0:0:0:0:
95,189,173892,1,2,0:0:0:0:
95,189,174010,1,2,0:0:0:0:
95,189,174130,1,2,0:0:0:0:
256,192,174368,1,2,0:0:0:0:
395,194,174606,1,0,0:0:0:0:
476,108,174844,6,0,P|368:107|335:191,1,175
476,276,175320,2,0,P|368:276|335:192,1,175,2|0,0:0|0:0,0:0:0:0:
260,156,175796,1,0,0:0:0:0:
124,196,176034,1,0,0:0:0:0:
40,84,176272,1,2,0:0:0:0:
176,44,176510,1,0,0:0:0:0:
260,156,176749,6,0,P|312:228|428:216,1,175
260,156,177225,2,0,P|208:84|80:248,1,350,2|0,0:0|0:0,0:0:0:0:
192,300,177939,1,2,0:0:0:0:
348,320,178177,1,2,0:0:0:0:
192,300,178415,1,0,0:0:0:0:
36,276,178653,6,0,P|143:276|176:192,1,175
36,108,179129,2,0,P|143:107|176:191,1,175,2|0,0:0|0:0,0:0:0:0:
252,228,179605,1,0,0:0:0:0:
388,188,179843,1,0,0:0:0:0:
472,300,180081,1,2,0:0:0:0:
336,340,180319,1,0,0:0:0:0:
388,188,180558,6,0,P|385:86|312:40,1,175,0|2,0:0|0:0,0:0:0:0:
124,195,181034,2,0,P|126:297|199:343,1,175,0|2,0:0|0:0,0:0:0:0:
388,188,181510,1,0,0:0:0:0:
297,58,181749,1,2,0:0:0:0:
168,149,181987,1,2,0:0:0:0:
258,278,182225,1,0,0:0:0:0:
388,188,182463,6,0,P|272:184|256:264,1,175
412,116,182939,2,0,P|316:88|220:136,1,175,2|0,0:0|0:0,0:0:0:0:
428,44,183415,2,0,P|332:18|232:40,1,175
120,8,183891,1,2,0:0:0:0:
16,104,184130,1,0,0:0:0:0:
124,195,184368,6,0,P|240:200|256:120,1,175
100,268,184844,2,0,P|196:296|292:248,1,175,2|0,0:0|0:0,0:0:0:0:
460,364,185320,1,2,0:0:0:0:
464,224,185558,1,2,0:0:0:0:
392,104,185796,1,2,0:0:0:0:
256,80,186034,1,0,0:0:0:0:
120,116,186272,6,0,P|176:228|156:96,1,350,0|2,0:0|0:0,0:0:0:0:
32,240,186987,1,0,0:0:0:0:
156,308,187225,1,2,0:0:0:0:
296,320,187463,1,0,0:0:0:0:
428,276,187701,1,2,0:0:0:0:
500,156,187939,1,0,0:0:0:0:
384,80,188177,6,0,P|261:180|128:80,2,350,2|0|2,0:0|0:0|0:0,0:0:0:0:
256,24,189368,1,2,0:0:0:0:
256,164,189606,1,0,0:0:0:0:
256,200,189725,1,0,0:0:0:0:
256,236,189844,1,2,0:0:0:0:
256,272,189963,1,2,0:0:0:0:
256,308,190082,5,2,0:0:0:0:
196,125,190320,1,2,0:0:0:0:
351,238,190558,1,2,0:0:0:0:
160,238,190796,1,2,0:0:0:0:
315,125,191034,1,2,0:0:0:0:
120,336,191510,1,0,0:0:0:0:
256,192,191749,1,0,0:0:0:0:
392,336,191987,6,0,P|428:276|392:200,1,140,2|0,0:0|0:0,0:0:0:0:
336,212,192344,2,0,P|300:152|336:76,1,140,2|0,0:0|0:0,0:0:0:0:
392,88,192701,1,2,0:0:0:0:
392,88,192820,1,2,0:0:0:0:
224,32,193058,1,2,0:0:0:0:
199,59,193177,1,2,0:0:0:0:
183,91,193296,1,2,0:0:0:0:
177,124,193415,1,2,0:0:0:0:
183,160,193534,1,2,0:0:0:0:
189,195,193653,1,2,0:0:0:0:
112,328,193891,6,0,P|172:364|248:328,1,140,2|0,0:0|0:0,0:0:0:0:
236,272,194248,2,0,P|296:236|372:272,1,140,2|0,0:0|0:0,0:0:0:0:
360,328,194605,1,2,0:0:0:0:
360,328,194724,1,2,0:0:0:0:
460,228,194963,1,2,0:0:0:0:
460,228,195082,1,2,0:0:0:0:
324,192,195320,1,2,0:0:0:0:
324,192,195439,1,2,0:0:0:0:
324,192,195558,1,2,0:0:0:0:
400,56,195796,6,0,P|340:20|264:56,1,140,2|0,0:0|0:0,0:0:0:0:
276,112,196153,2,0,P|216:148|140:112,1,140,2|0,0:0|0:0,0:0:0:0:
152,56,196510,2,0,P|92:20|16:56,1,140,0|2,0:0|0:0,0:0:0:0:
24,84,196868,1,2,0:0:0:0:
26,126,196987,1,2,0:0:0:0:
48,163,197106,1,0,0:0:0:0:
75,197,197225,1,2,0:0:0:0:
108,225,197344,1,0,0:0:0:0:
145,241,197463,1,0,0:0:0:0:
188,248,197582,1,0,0:0:0:0:
228,240,197701,6,0,B|160:104|160:104|256:12,1,280,2|0,0:0|0:0,0:0:0:0:
284,144,198415,2,0,B|352:280|352:280|256:372,1,280,2|0,0:0|0:0,0:0:0:0:
220,352,199010,1,0,0:0:0:0:
192,320,199130,5,2,0:0:0:0:
320,64,199606,2,0,B|324:88|324:88|328:108|328:200|476:188|428:24|348:84|324:88|324:88|300:92,1,280,0|2,0:0|0:0,0:0:0:0:
211,252,200439,1,0,0:0:0:0:
233,277,200559,1,0,0:0:0:0:
341,214,200796,1,0,0:0:0:0:
278,106,201034,1,2,0:0:0:0:
170,169,201272,6,0,P|208:268|336:312,2,210,0|0|2,0:0|0:0|0:0,0:0:0:0:
279,277,202225,1,2,0:0:0:0:
319,244,202344,1,0,0:0:0:0:
344,199,202463,1,2,0:0:0:0:
352,147,202582,1,0,0:0:0:0:
340,96,202701,1,0,0:0:0:0:
131,166,202939,1,2,0:0:0:0:
169,131,203058,1,0,0:0:0:0:
217,111,203177,1,2,0:0:0:0:
269,111,203296,1,0,0:0:0:0:
318,129,203415,6,0,P|384:256|248:336,1,280,2|0,0:0|0:0,0:0:0:0:
440,320,204130,2,0,P|296:236|308:164,1,210,2|0,0:0|0:0,0:0:0:0:
292,180,204606,1,2,0:0:0:0:
168,272,204844,1,0,0:0:0:0:
132,268,204963,1,0,0:0:0:0:
104,248,205082,1,2,0:0:0:0:
88,216,205201,1,2,0:0:0:0:
88,180,205320,6,0,P|193:119|237:148,1,140,2|0,0:0|0:0,0:0:0:0:
424,204,205796,2,0,P|318:264|274:235,1,140,2|0,0:0|0:0,0:0:0:0:
352,128,206272,1,2,0:0:0:0:
332,92,206391,1,0,0:0:0:0:
296,68,206510,1,0,0:0:0:0:
228,200,206749,1,2,0:0:0:0:
236,160,206868,1,0,0:0:0:0:
228,120,206987,1,0,0:0:0:0:
192,96,207106,1,0,0:0:0:0:
152,92,207225,5,2,0:0:0:0:
128,260,207463,1,0,0:0:0:0:
281,334,207701,1,2,0:0:0:0:
398,211,207939,1,0,0:0:0:0:
318,62,208177,1,2,0:0:0:0:
318,62,208296,1,0,0:0:0:0:
318,62,208415,1,2,0:0:0:0:
152,92,208653,1,2,0:0:0:0:
172,260,208891,2,0,P|324:292|368:168,1,280,2|0,0:0|0:0,0:0:0:0:
373,201,209606,5,2,0:0:0:0:
306,298,209844,1,2,0:0:0:0:
189,288,210082,1,2,0:0:0:0:
138,182,210320,1,0,0:0:0:0:
205,85,210558,1,2,0:0:0:0:
322,95,210796,5,2,0:0:0:0:
368,225,211034,1,2,0:0:0:0:
258,309,211272,1,0,0:0:0:0:
145,230,211510,1,2,0:0:0:0:
184,98,211748,5,2,0:0:0:0:
349,120,211987,1,2,0:0:0:0:
327,285,212225,1,2,0:0:0:0:
162,263,212464,5,2,0:0:0:0:
240,75,212701,1,2,0:0:0:0:
364,237,212939,1,2,0:0:0:0:
256,192,213058,8,0,213891,0:0:0:0:
256,192,214368,5,0,0:0:0:0:
256,192,214606,1,0,0:0:0:0:
336,68,214844,6,0,P|396:204|352:252,1,210.000008010865
140,145,215320,2,0,P|116:180|176:316,1,210.000008010865,2|0,0:0|0:0,0:0:0:0:
175,315,215796,1,0,0:0:0:0:
371,238,216034,1,0,0:0:0:0:
140,145,216272,1,2,0:0:0:0:
336,68,216510,1,0,0:0:0:0:
444,168,216749,6,0,P|428:308|364:340,1,210.000008010865,0|2,0:0|0:0,0:0:0:0:
332,296,217106,1,0,0:0:0:0:
284,252,217225,2,0,P|160:304|40:184,1,315.000012016297,2|0,0:0|0:0,0:0:0:0:
100,168,217701,1,0,0:0:0:0:
92,104,217820,1,0,0:0:0:0:
132,56,217939,1,2,0:0:0:0:
152,236,218177,1,2,0:0:0:0:
224,40,218415,1,0,0:0:0:0:
176,316,218653,6,0,P|116:180|160:132,1,210.000008010865
371,238,219129,2,0,P|396:203|336:68,1,210.000008010865,2|0,0:0|0:0,0:0:0:0:
336,68,219605,1,0,0:0:0:0:
140,145,219843,1,0,0:0:0:0:
371,238,220081,1,2,0:0:0:0:
176,316,220319,1,0,0:0:0:0:
404,344,220558,6,0,P|444:228|400:104,1,210.000008010865
111,249,221034,2,0,P|67:140|108:40,1,210.000008010865,2|0,0:0|0:0,0:0:0:0:
256,320,221510,2,0,L|300:216,1,105.000004005432,0|2,0:0|0:0,0:0:0:0:
404,212,221749,1,0,0:0:0:0:
256,64,221987,2,0,L|212:168,1,105.000004005432,2|0,0:0|0:0,2:0:0:0:
108,172,222225,1,2,0:0:0:0:
372,312,222463,6,0,P|440:216|400:112,1,210.000008010865
332,296,222939,1,2,0:0:0:0:
388,120,223177,1,0,0:0:0:0:
220,200,223415,1,2,0:0:0:0:
372,312,223653,1,0,0:0:0:0:
418,133,223891,1,2,0:0:0:0:
256,44,224130,1,0,0:0:0:0:
93,133,224368,6,0,P|80:300|108:356,1,210.000008010865
164,160,224844,2,0,B|124:244|184:340|184:340|304:300,1,315.000012016297,2|0,0:0|0:0,0:0:0:0:
352,264,225320,1,2,0:0:0:0:
328,96,225558,1,0,0:0:0:0:
160,120,225796,1,2,0:0:0:0:
184,288,226034,1,0,0:0:0:0:
352,264,226272,6,0,P|160:120|372:160,1,630.000024032594,2|2,0:0|0:0,0:0:0:0:
292,376,227225,2,0,P|416:288|424:228,1,210.000008010865,0|2,0:0|0:0,0:0:0:0:
220,8,227701,2,0,P|84:76|69:121,1,210.000008010865,2|0,0:0|0:0,0:0:0:0:
200,292,228177,5,2,0:0:0:0:
312,92,228415,1,2,0:0:0:0:
300,324,228653,1,2,0:0:0:0:
212,60,228891,1,2,0:0:0:0:
272,208,229130,1,2,0:0:0:0:
272,208,229249,1,2,0:0:0:0:
272,208,229368,1,2,0:0:0:0:
272,208,229487,1,0,0:0:0:0:
272,208,229606,1,2,0:0:0:0:
272,208,229725,1,0,0:0:0:0:
272,208,229844,1,0,0:0:0:0:
272,208,229963,1,0,0:0:0:0:
272,208,230082,6,0,P|376:164|312:84,1,210.000008010865
163,287,230558,2,0,P|136:220|240:176,1,210.000008010865,2|0,0:0|0:0,0:0:0:0:
328,264,231034,1,0,0:0:0:0:
376,148,231272,1,0,0:0:0:0:
300,48,231510,1,2,0:0:0:0:
176,68,231749,1,0,0:0:0:0:
120,180,231987,6,0,P|236:112|312:128,1,210.000008010865
144,260,232463,2,0,B|228:128|344:228|344:228|380:120,1,315.000012016297,2|0,0:0|0:0,0:0:0:0:
416,116,232939,1,2,0:0:0:0:
288,24,233177,1,0,0:0:0:0:
472,136,233415,1,2,0:0:0:0:
232,4,233653,1,0,0:0:0:0:
240,176,233891,6,0,P|136:220|200:300,1,210.000008010865
348,96,234367,2,0,P|376:164|272:208,1,210.000008010865,2|0,0:0|0:0,0:0:0:0:
184,120,234843,1,0,0:0:0:0:
136,236,235081,1,0,0:0:0:0:
212,336,235319,1,2,0:0:0:0:
336,316,235558,1,0,0:0:0:0:
456,352,235796,5,2,0:0:0:0:
56,32,236272,1,2,0:0:0:0:
348,282,236749,1,2,0:0:0:0:
163,101,236987,1,0,0:0:0:0:
268,256,237225,1,0,0:0:0:0:
256,192,237344,1,0,0:0:0:0:
244,128,237463,1,2,0:0:0:0:
352,64,237701,6,0,P|432:164|372:344,1,315.000012016297
324,344,238177,2,0,P|280:296|208:320,1,105.000004005432,2|0,0:0|0:0,0:0:0:0:
184,312,238415,1,2,0:0:0:0:
184,312,238534,1,0,0:0:0:0:
184,312,238653,1,2,0:0:0:0:
164,188,238891,1,0,0:0:0:0:
108,360,239130,1,2,0:0:0:0:
80,144,239368,1,0,0:0:0:0:
276,68,239606,5,0,0:0:0:0:
276,68,239725,1,0,0:0:0:0:
276,68,239844,1,0,0:0:0:0:
408,232,240082,1,2,0:0:0:0:
200,264,240320,1,0,0:0:0:0:
200,264,240439,1,0,0:0:0:0:
200,264,240558,2,0,P|356:236|392:160,1,210.000008010865,0|2,0:0|0:0,0:0:0:0:
132,181,241034,2,0,P|156:148|312:120,2,210.000008010865,2|0|0,0:0|0:0|0:0,0:0:0:0:
512,0,241987,5,2,0:0:0:0:
0,384,242463,1,0,0:0:0:0:
20,336,242582,1,0,0:0:0:0:
64,308,242701,1,0,0:0:0:0:
116,312,242820,1,0,0:0:0:0:
168,312,242939,1,2,0:0:0:0:
216,296,243058,1,0,0:0:0:0:
260,268,243177,1,0,0:0:0:0:
304,236,243296,1,0,0:0:0:0:
340,200,243415,5,2,0:0:0:0:
264,108,243653,1,2,0:0:0:0:
172,184,243891,1,2,0:0:0:0:
248,276,244130,1,0,0:0:0:0:
395,141,244368,5,2,0:0:0:0:
142,95,244606,1,2,0:0:0:0:
228,338,244844,1,2,0:0:0:0:
228,338,244963,1,0,0:0:0:0:
228,338,245082,1,0,0:0:0:0:
228,338,245201,1,0,0:0:0:0:
228,338,245320,5,2,0:0:0:0:
191,58,245558,1,2,0:0:0:0:
385,262,245796,1,2,0:0:0:0:
108,211,246034,1,2,0:0:0:0:
362,89,246272,2,0,P|472:143|455:212,1,210.000008010865,2|0,0:0|0:0,0:0:0:0:
149,294,246749,2,0,P|39:240|56:171,1,210.000008010865,2|0,0:0|0:0,0:0:0:0:
256,192,247225,5,2,0:0:0:0:
256,192,247701,2,0,P|276:84|324:32,1,175
432,80,248177,1,0,0:0:0:0:
396,196,248415,1,0,0:0:0:0:
432,312,248653,1,2,0:0:0:0:
312,284,248891,1,0,0:0:0:0:
192,312,249130,6,0,P|80:256|56:208,1,175
120,112,249606,2,0,P|132:212|288:128,2,350,2|0|2,0:0|0:0|0:0,0:0:0:0:
220,44,250796,1,0,0:0:0:0:
200,164,251034,6,0,P|196:292|240:320,1,175
312,220,251510,2,0,P|316:92|272:64,1,175,2|0,0:0|0:0,0:0:0:0:
176,116,251987,1,0,0:0:0:0:
176,240,252225,1,0,0:0:0:0:
284,300,252463,1,2,0:0:0:0:
356,200,252701,1,0,0:0:0:0:
320,72,252939,6,0,P|432:128|456:176,1,175
392,272,253415,2,0,P|380:172|224:256,2,350,2|0|2,0:0|0:0|0:0,0:0:0:0:
276,312,254606,1,0,0:0:0:0:
152,320,254844,6,0,P|36:256|20:184,1,175
164,240,255320,2,0,P|120:172|128:60,1,175,2|0,0:0|0:0,0:0:0:0:
216,184,255796,2,0,P|236:60|256:8,1,175,0|0,0:0|0:0,0:0:0:0:
292,148,256272,1,2,0:0:0:0:
228,272,256510,1,2,0:0:0:0:
360,320,256749,6,0,P|476:256|492:184,1,175
348,240,257225,2,0,P|392:172|384:60,1,175,2|0,0:0|0:0,0:0:0:0:
296,184,257701,2,0,P|276:60|256:8,2,175,0|0|2,0:0|0:0|0:0,0:0:0:0:
204,80,258415,1,2,0:0:0:0:
88,156,258653,6,0,P|152:320|352:304,1,350,0|2,0:0|0:0,0:0:0:0:
256,192,259368,1,2,0:0:0:0:
204,49,259606,1,0,0:0:0:0:
318,43,259844,1,2,0:0:0:0:
406,115,260082,1,2,0:0:0:0:
424,228,260320,1,0,0:0:0:0:
333,303,260558,5,2,0:0:0:0:
144,269,260796,1,2,0:0:0:0:
178,80,261034,1,2,0:0:0:0:
367,114,261272,1,2,0:0:0:0:
292,272,261510,2,0,P|236:312|188:236,1,175,2|0,0:0|0:0,0:0:0:0:
220,112,261987,2,0,P|276:72|324:148,1,175
256,192,262463,5,0,0:0:0:0:
256,192,262939,2,0,P|236:300|188:352,1,175,2|0,0:0|0:0,0:0:0:0:
80,304,263415,1,0,0:0:0:0:
116,188,263653,1,0,0:0:0:0:
80,71,263891,1,2,0:0:0:0:
200,100,264129,1,0,0:0:0:0:
320,72,264368,6,0,P|432:128|456:176,1,175
392,272,264844,2,0,P|380:172|224:256,2,350,2|0|2,0:0|0:0|0:0,0:0:0:0:
292,340,266034,1,0,0:0:0:0:
312,220,266272,6,0,P|316:92|272:64,1,175
200,164,266748,2,0,P|196:292|240:320,1,175,2|0,0:0|0:0,0:0:0:0:
336,268,267225,1,0,0:0:0:0:
336,144,267463,1,0,0:0:0:0:
228,84,267701,1,2,0:0:0:0:
156,184,267939,1,0,0:0:0:0:
192,312,268177,6,0,P|80:256|56:208,1,175
120,112,268653,2,0,P|132:212|288:128,2,350,2|0|2,0:0|0:0|0:0,0:0:0:0:
236,72,269844,1,0,0:0:0:0:
360,64,270082,6,0,P|476:128|492:200,1,175
348,144,270558,2,0,P|392:212|384:324,1,175,2|0,0:0|0:0,0:0:0:0:
296,200,271034,2,0,P|276:324|256:376,1,175,2|0,0:0|0:0,0:0:0:0:
220,236,271510,1,2,0:0:0:0:
284,112,271748,1,0,0:0:0:0:
152,64,271987,6,0,P|36:128|20:200,1,175
164,144,272463,2,0,P|120:212|128:324,1,175,2|0,0:0|0:0,0:0:0:0:
216,200,272939,2,0,P|236:324|256:376,2,175,0|2|2,0:0|0:0|0:0,0:0:0:0:
308,304,273653,1,2,0:0:0:0:
424,228,273891,6,0,P|360:64|160:80,1,350,0|0,0:0|0:0,0:0:0:0:
256,192,274606,1,2,0:0:0:0:
307,334,274844,1,2,0:0:0:0:
193,340,275082,1,0,0:0:0:0:
105,268,275320,1,2,0:0:0:0:
88,156,275558,1,2,0:0:0:0:
178,80,275796,5,2,0:0:0:0:
367,114,276034,1,2,0:0:0:0:
333,303,276272,1,2,0:0:0:0:
144,269,276510,1,2,0:0:0:0:
220,112,276748,2,0,P|276:72|324:148,1,175,2|0,0:0|0:0,0:0:0:0:
292,272,277225,2,2,P|236:312|188:236,1,175,2|2,0:0|0:0,0:0:0:0:
256,192,277701,5,2,0:0:0:0:
36,148,285320,6,0,L|164:24,1,175,2|0,0:0|0:0,0:0:0:0:
72,216,285796,2,0,L|200:92,1,175,2|0,0:0|0:0,0:0:0:0:
196,200,286153,2,0,L|292:108,1,87.5,2|0,0:0|0:0,0:0:0:0:
360,116,286391,2,0,L|296:176,1,87.5,2|0,0:0|0:0,0:0:0:0:
160,68,286749,1,2,0:0:0:0:
332,48,286987,1,0,0:0:0:0:
476,148,287225,6,0,L|348:24,1,175,2|0,0:0|0:0,0:0:0:0:
440,216,287701,2,0,L|312:92,1,175,2|0,0:0|0:0,0:0:0:0:
316,200,288058,2,0,L|220:108,1,87.5,2|0,0:0|0:0,0:0:0:0:
152,116,288296,2,0,L|215:176,1,87.5,2|0,0:0|0:0,0:0:0:0:
328,44,288653,1,2,0:0:0:0:
504,60,288891,1,0,0:0:0:0:
476,236,289130,6,0,L|348:360,1,175,2|0,0:0|0:0,0:0:0:0:
440,168,289606,2,0,L|312:292,1,175,2|0,0:0|0:0,0:0:0:0:
316,184,289963,2,0,L|220:276,1,87.5,2|0,0:0|0:0,0:0:0:0:
152,268,290201,2,0,L|215:207,1,87.5,2|0,0:0|0:0,0:0:0:0:
352,316,290559,1,2,0:0:0:0:
180,336,290797,1,0,0:0:0:0:
36,236,291035,6,0,L|164:360,1,175,2|0,0:0|0:0,0:0:0:0:
72,168,291511,2,0,L|200:292,1,175,2|0,0:0|0:0,0:0:0:0:
196,184,291868,2,0,L|292:276,1,87.5,2|0,0:0|0:0,0:0:0:0:
360,268,292106,2,0,L|296:207,1,87.5,2|0,0:0|0:0,0:0:0:0:
184,340,292463,1,2,0:0:0:0:
8,324,292701,1,2,0:0:0:0:
256,192,292731,12,0,295796,0:0:0:0:
