osu file format v12

[General]
AudioFilename: Magic of 1 Second.mp3
AudioLeadIn: 1467
PreviewTime: 78891
Countdown: 1
SampleSet: Soft
StackLeniency: 0.7
Mode: 0
LetterboxInBreaks: 1
WidescreenStoryboard: 0

[Editor]
Bookmarks: 177225
DistanceSpacing: 1.1
BeatDivisor: 2
GridSize: 4

[Metadata]
Title:Ichibyoo no Mahou
TitleUnicode:一秒の魔法
Artist:FayeP
ArtistUnicode:フェイP
Creator:Xin_U
Version:Hard
Source:
Tags:Hatsune Miku Junky Mizuna
BeatmapID:228023
BeatmapSetID:80904

[Difficulty]
HPDrainRate:5
CircleSize:4
OverallDifficulty:5
ApproachRate:7
SliderMultiplier:1.8
SliderTickRate:2

[Events]
//Background and Video events
Video,-502,"pv.avi"
0,0,"bg.jpg",0,0
//Break Periods
2,112187,126325
//Storyboard Layer 0 (Background)
//Storyboard Layer 1 (Fail)
//Storyboard Layer 2 (Pass)
//Storyboard Layer 3 (Foreground)
//Storyboard Sound Samples
//Background Colour Transformations
3,100,163,162,255

[TimingPoints]
1511,476.190476190476,4,2,0,66,1,0
65082,-100,4,2,0,66,0,0
79606,-100,4,2,0,66,0,1
111988,-100,4,2,0,66,0,0
111989,-100,4,2,0,66,0,1
111990,-100,4,2,0,66,0,0
159606,-100,4,2,0,66,0,1
191987,-100,4,2,0,66,0,0
214844,-83.3333333333333,4,2,0,66,0,1
247225,-100,4,2,0,66,0,0

[Colours]
Combo1 : 255,255,0
Combo2 : 255,0,0
Combo3 : 0,255,0
Combo4 : 255,128,0
Combo5 : 0,0,255

[HitObjects]
256,44,558,1,0,0:0:0:0:
212,220,1034,1,0,0:0:0:0:
300,220,1272,1,0,0:0:0:0:
384,188,1511,6,0,P|400:256|392:308,1,90
460,340,1987,1,0,0:0:0:0:
472,252,2225,1,0,0:0:0:0:
460,164,2463,2,0,P|408:112|368:112,1,90
312,76,2939,2,0,P|260:128|260:168,1,90
212,220,3415,5,0,0:0:0:0:
124,236,3653,1,0,0:0:0:0:
48,188,3891,2,0,L|16:296,2,90
88,108,4606,1,0,0:0:0:0:
176,96,4844,1,0,0:0:0:0:
216,176,5082,1,0,0:0:0:0:
128,188,5320,6,0,P|112:256|120:308,1,90
52,340,5796,1,0,0:0:0:0:
40,252,6034,1,0,0:0:0:0:
52,164,6272,2,0,P|104:112|144:112,1,90
200,76,6748,2,0,P|252:128|252:168,1,90
300,220,7224,5,0,0:0:0:0:
388,236,7462,1,0,0:0:0:0:
464,188,7700,2,0,L|496:296,2,90
424,108,8415,1,0,0:0:0:0:
336,96,8653,1,0,0:0:0:0:
296,176,8891,1,0,0:0:0:0:
228,232,9130,6,0,L|140:212,1,90
52,172,9606,2,0,L|140:152,1,90
228,112,10082,2,0,L|140:92,1,90
216,44,10558,2,0,L|128:24,1,90
52,72,11034,6,0,P|104:228|144:256,1,180
180,288,11749,2,0,P|200:216|240:184,1,90
256,284,12225,2,0,P|284:240|352:216,1,90
364,296,12701,1,0,0:0:0:0:
364,296,12939,6,0,P|408:192|416:108,1,180
336,88,13653,1,0,0:0:0:0:
256,128,13891,2,0,P|219:61|189:37,2,90
268,216,14606,1,0,0:0:0:0:
184,248,14844,6,0,P|104:200|140:112,2,180
256,192,16034,1,0,0:0:0:0:
328,136,16272,6,0,P|408:183|372:272,2,180
256,192,17463,1,0,0:0:0:0:
176,232,17701,6,0,L|304:216,1,90,0|0,0:0|0:0,0:0:0:0:
336,152,18177,2,0,L|208:168,1,90,0|0,0:0|0:0,0:0:0:0:
160,144,18653,6,0,P|80:176|80:208,1,90
76,76,19130,2,0,P|24:124|24:252,1,180
104,220,19844,1,0,0:0:0:0:
180,268,20082,1,0,0:0:0:0:
264,240,20320,1,0,0:0:0:0:
340,288,20558,5,0,0:0:0:0:
424,260,20796,1,0,0:0:0:0:
428,172,21034,2,0,P|340:80|284:64,2,180
340,152,22225,1,0,0:0:0:0:
352,240,22463,6,0,P|432:208|432:176,1,90
436,308,22940,2,0,P|488:260|488:132,1,180
408,164,23654,1,0,0:0:0:0:
332,116,23892,1,0,0:0:0:0:
248,144,24130,1,0,0:0:0:0:
188,208,24368,6,0,P|237:276|246:274,1,90
303,242,24844,2,0,P|338:165|331:159,1,90
276,125,25320,2,0,P|191:133|189:142,2,90
347,179,26034,1,0,0:0:0:0:
432,208,26272,6,0,P|412:264|380:296,1,90
316,224,26749,2,0,P|332:278|318:341,1,90
236,284,27225,2,0,P|275:335|280:379,2,90
156,224,27939,1,0,0:0:0:0:
80,176,28177,6,0,P|100:120|132:88,1,90
196,160,28654,2,0,P|179:105|193:42,1,90
276,100,29130,2,0,P|236:48|231:4,2,90
356,160,29844,1,0,0:0:0:0:
432,208,30082,6,0,P|336:276|288:220,1,180
256,172,30796,1,0,0:0:0:0:
188,112,31034,1,0,0:0:0:0:
100,108,31272,1,0,0:0:0:0:
52,184,31510,1,0,0:0:0:0:
72,272,31749,1,0,0:0:0:0:
152,312,31987,6,0,P|224:340|240:236,1,180
256,172,32701,1,0,0:0:0:0:
324,112,32939,1,0,0:0:0:0:
412,108,33177,1,0,0:0:0:0:
460,184,33415,1,0,0:0:0:0:
352,328,33891,6,0,P|364:224|420:152,1,180
448,84,34606,1,0,0:0:0:0:
360,60,34844,2,0,P|336:112|332:172,1,90
280,220,35320,2,0,P|256:168|252:108,1,90
268,48,35796,6,0,P|132:84|104:160,1,180
136,196,36510,1,0,0:0:0:0:
160,284,36749,2,0,P|143:309|7:345,2,180
336,248,38177,6,0,P|372:212|364:144,1,90
312,112,38653,2,0,P|276:76|208:84,1,90
176,136,39130,2,0,P|140:172|148:240,1,90
200,272,39606,6,0,P|272:316|340:192,1,180
408,208,40320,1,0,0:0:0:0:
488,172,40558,1,0,0:0:0:0:
408,132,40796,2,0,L|488:92,1,90
424,28,41272,1,0,0:0:0:0:
344,68,41510,6,0,P|232:164|224:200,1,180
316,200,42225,2,0,P|309:224|197:320,1,180
124,268,42939,1,0,0:0:0:0:
112,180,43177,1,0,0:0:0:0:
184,124,43415,5,0,0:0:0:0:
184,124,43653,1,0,0:0:0:0:
184,124,43891,1,0,0:0:0:0:
184,124,44130,2,0,L|296:116,1,90
350,163,44606,2,0,L|301:264,1,90
233,288,45082,2,0,L|170:195,2,90
324,288,45796,6,0,L|380:200,1,90
352,124,46272,2,0,L|264:68,1,90
188,96,46749,2,0,L|132:184,1,90
160,260,47225,6,0,L|248:316,2,90
76,232,47939,2,0,L|38:207,2,45
112,316,48415,2,0,L|149:340,2,45
120,136,49130,6,0,P|212:56|304:48,1,180
348,80,49844,1,0,0:0:0:0:
396,156,50082,1,0,0:0:0:0:
391,247,50320,2,0,P|337:258|245:338,1,180
200,264,51034,6,0,P|156:176|72:152,1,180
160,100,51749,1,0,0:0:0:0:
96,36,51987,2,0,P|192:32|256:104,1,180
328,132,52701,1,0,0:0:0:0:
388,200,52939,6,0,P|344:216|400:240,1,90
444,260,53415,2,0,P|488:276|432:300,1,90
392,328,53891,1,0,0:0:0:0:
304,348,54130,1,0,0:0:0:0:
232,296,54368,1,0,0:0:0:0:
164,356,54606,1,0,0:0:0:0:
132,272,54844,6,0,P|176:256|120:231,1,90
75,211,55320,2,0,P|31:194|87:171,1,90
108,100,55796,1,0,0:0:0:0:
196,80,56035,1,0,0:0:0:0:
276,120,56273,1,0,0:0:0:0:
324,196,56511,1,0,0:0:0:0:
324,284,56749,5,0,0:0:0:0:
264,112,57225,1,0,0:0:0:0:
180,84,57463,1,0,0:0:0:0:
92,108,57701,1,0,0:0:0:0:
32,176,57939,2,0,L|132:228,2,90
64,260,58653,6,0,P|210:236|236:184,1,180
290,162,59368,2,0,P|301:147|448:124,1,180
440,212,60082,2,0,L|416:316,1,90
364,232,60558,6,0,L|340:336,1,90,0|0,0:0|0:0,0:0:0:0:
288,252,61034,2,0,L|264:356,2,90
308,164,61749,1,0,0:0:0:0:
380,108,61987,1,0,0:0:0:0:
452,52,62225,1,0,0:0:0:0:
364,76,62463,5,0,0:0:0:0:
284,32,62701,2,0,P|232:84|188:80,1,90
228,176,63177,2,0,P|280:228|324:224,1,90
284,320,63653,2,0,P|232:372|188:368,2,90
368,284,64368,6,0,L|440:156,2,135
292,240,65320,1,0,0:0:0:0:
220,184,65558,1,0,0:0:0:0:
288,124,65796,1,0,0:0:0:0:
224,60,66034,1,0,0:0:0:0:
144,100,66272,6,0,L|72:228,2,135
220,144,67225,1,0,0:0:0:0:
292,200,67463,1,0,0:0:0:0:
224,260,67701,1,0,0:0:0:0:
288,324,67939,1,0,0:0:0:0:
376,348,68177,6,0,P|416:248|280:196,1,270
204,200,69130,2,0,P|148:196|104:144,1,90
96,92,69606,2,0,P|124:44|180:24,1,90
228,76,70082,6,0,P|199:192|241:275,1,180
284,308,70796,2,0,P|312:191|270:108,2,180
196,284,71987,6,0,P|168:340|116:336,1,90
72,296,72463,1,0,0:0:0:0:
124,224,72701,2,0,P|146:218|174:162,1,90
132,84,73177,1,0,0:0:0:0:
212,44,73415,1,0,0:0:0:0:
300,44,73653,1,0,0:0:0:0:
380,84,73891,6,0,P|340:184|416:252,1,180
468,228,74606,2,0,P|460:284|412:312,1,90
348,316,75082,1,0,0:0:0:0:
348,316,75320,1,0,0:0:0:0:
348,316,75558,1,0,0:0:0:0:
276,260,75796,6,0,P|160:184|148:140,1,180
236,124,76510,2,0,P|352:200|364:244,2,180
152,92,77701,5,0,0:0:0:0:
152,92,77939,1,0,0:0:0:0:
152,92,78177,1,0,0:0:0:0:
152,92,78415,1,0,0:0:0:0:
152,92,78653,1,0,0:0:0:0:
152,92,78891,2,0,P|104:144|148:128,1,180
180,216,79606,6,0,L|100:272,1,90
204,284,80082,2,0,L|124:340,1,90
228,352,80558,1,0,0:0:0:0:
300,284,80796,1,0,0:0:0:0:
372,216,81034,1,0,0:0:0:0:
440,144,81272,1,0,0:0:0:0:
444,44,81510,6,0,P|356:52|344:79,1,90
292,116,81987,2,0,P|176:128|96:100,1,180
64,192,82701,2,0,P|180:204|260:176,1,180
332,216,83415,6,0,L|412:272,1,90
308,284,83891,2,0,L|388:340,1,90
284,352,84367,1,0,0:0:0:0:
212,284,84605,1,0,0:0:0:0:
140,216,84843,1,0,0:0:0:0:
72,144,85081,1,0,0:0:0:0:
68,44,85320,6,0,P|155:52|167:79,1,90
220,116,85797,2,0,P|336:128|416:100,1,180
448,192,86511,2,0,P|332:204|252:176,1,180
196,248,87225,5,0,0:0:0:0:
340,112,87701,1,0,0:0:0:0:
252,288,88177,1,0,0:0:0:0:
272,92,88653,1,0,0:0:0:0:
272,92,88891,1,0,0:0:0:0:
272,92,89130,6,0,P|192:82|126:162,1,180
152,246,89844,1,0,0:0:0:0:
193,335,90082,1,0,0:0:0:0:
104,377,90320,1,0,0:0:0:0:
62,287,90558,1,0,0:0:0:0:
152,246,90796,1,0,0:0:0:0:
240,292,91034,6,0,P|319:301|385:221,1,180
360,138,91748,1,0,0:0:0:0:
319,49,91986,1,0,0:0:0:0:
407,7,92224,1,0,0:0:0:0:
450,97,92462,1,0,0:0:0:0:
360,138,92700,1,0,0:0:0:0:
264,108,92939,5,0,0:0:0:0:
179,157,93177,1,0,0:0:0:0:
199,254,93415,1,0,0:0:0:0:
298,264,93653,1,0,0:0:0:0:
338,174,93891,1,0,0:0:0:0:
437,184,94130,2,0,P|428:276|360:228,1,180
332,168,94844,6,0,L|412:112,1,90
308,100,95320,2,0,L|388:44,1,90
284,32,95796,1,0,0:0:0:0:
212,100,96034,1,0,0:0:0:0:
140,168,96272,1,0,0:0:0:0:
72,240,96510,1,0,0:0:0:0:
68,340,96748,6,0,P|156:332|168:305,1,90
220,268,97225,2,0,P|336:256|416:284,1,180
448,192,97939,2,0,P|332:180|252:208,1,180
180,168,98653,6,0,L|100:112,1,90
203,100,99129,2,0,L|124:44,1,90
228,32,99605,1,0,0:0:0:0:
300,100,99843,1,0,0:0:0:0:
372,168,100081,1,0,0:0:0:0:
440,240,100319,1,0,0:0:0:0:
444,340,100558,6,0,P|357:332|345:305,1,90
292,268,101035,2,0,P|176:256|96:284,1,180
64,192,101749,2,0,P|180:180|260:208,1,180
260,100,102463,6,0,L|360:172,1,90
400,224,102939,2,0,L|412:101,1,90
440,40,103415,2,0,L|327:90,1,90
260,100,103891,1,0,0:0:0:0:
220,191,104130,1,0,0:0:0:0:
252,284,104368,6,0,L|152:212,1,90
112,160,104844,2,0,L|99:282,1,90
72,344,105320,2,0,L|184:293,1,90
252,284,105796,2,0,L|139:334,1,90
84,372,106272,6,0,P|32:232|32:168,1,180
92,124,106987,1,0,0:0:0:0:
131,33,107225,1,0,0:0:0:0:
148,128,107463,1,0,0:0:0:0:
212,52,107701,1,0,0:0:0:0:
196,148,107939,1,0,0:0:0:0:
280,96,108177,6,0,P|351:20|435:70,2,180
256,192,109368,1,0,0:0:0:0:
232,288,109606,6,0,P|160:363|76:313,2,180
256,192,110796,1,0,0:0:0:0:
280,96,111034,5,0,0:0:0:0:
379,90,111272,1,0,0:0:0:0:
415,181,111511,1,0,0:0:0:0:
340,245,111749,1,0,0:0:0:0:
256,192,111987,1,0,0:0:0:0:
204,68,127225,6,0,P|160:180|188:272,1,180
256,208,127939,1,0,0:0:0:0:
264,296,128177,2,0,P|328:248|331:240,1,90
340,152,128653,2,0,P|343:144|407:96,1,90
496,92,129130,6,0,P|404:216|280:204,1,270
212,169,130082,2,0,P|112:168|36:224,1,180
24,296,130796,1,0,0:0:0:0:
112,324,131034,6,0,L|200:360,1,90
164,272,131510,2,0,L|252:308,2,90
244,232,132225,2,0,L|160:197,2,90
216,148,132939,6,0,B|144:120|184:64|316:68,1,180
376,40,133653,1,0,0:0:0:0:
360,128,133891,1,0,0:0:0:0:
432,184,134130,1,0,0:0:0:0:
416,272,134368,1,0,0:0:0:0:
488,328,134607,1,0,0:0:0:0:
400,332,134844,6,0,P|324:320|308:328,1,90
228,296,135320,1,0,0:0:0:0:
268,216,135558,1,0,0:0:0:0:
192,168,135796,2,0,P|224:112|220:88,1,90
148,36,136272,1,0,0:0:0:0:
76,92,136510,1,0,0:0:0:0:
60,180,136749,6,0,P|80:232|104:268,1,90
144,340,137225,1,0,0:0:0:0:
188,260,137463,2,0,P|220:188|332:108,1,180
336,40,138177,1,0,0:0:0:0:
424,64,138415,1,0,0:0:0:0:
484,132,138653,6,0,P|496:48|508:20,2,90
508,220,139368,1,0,0:0:0:0:
432,268,139606,1,0,0:0:0:0:
360,320,139844,2,0,P|440:348|456:372,2,90
272,340,140558,5,0,0:0:0:0:
188,312,140796,1,0,0:0:0:0:
120,252,141034,1,0,0:0:0:0:
112,164,141272,2,0,P|52:144|156:68,1,270
324,96,142463,6,0,P|412:124|460:176,2,135
236,112,143415,1,0,0:0:0:0:
152,144,143653,1,0,0:0:0:0:
216,204,143891,1,0,0:0:0:0:
276,272,144130,1,0,0:0:0:0:
188,288,144368,6,0,P|100:260|52:208,2,135
276,272,145320,1,0,0:0:0:0:
360,240,145558,1,0,0:0:0:0:
296,180,145796,1,0,0:0:0:0:
236,112,146035,1,0,0:0:0:0:
148,96,146272,6,0,P|112:168|144:236,1,135
228,308,146987,1,0,0:0:0:0:
240,220,147225,1,0,0:0:0:0:
304,284,147463,1,0,0:0:0:0:
316,196,147701,1,0,0:0:0:0:
380,260,147939,1,0,0:0:0:0:
388,172,148177,6,0,P|284:112|228:128,1,180
160,180,148891,2,0,P|108:193|4:133,2,180
232,125,150082,6,0,P|284:112|388:172,1,180
388,260,150796,2,0,L|420:300,2,45
300,240,151272,2,0,L|268:200,2,45
328,328,151749,6,0,P|232:332|152:260,2,180
388,260,152939,1,0,0:0:0:0:
424,176,153177,1,0,0:0:0:0:
400,88,153415,1,0,0:0:0:0:
320,52,153653,1,0,0:0:0:0:
232,60,153891,6,0,P|276:108|204:180,1,180
299,203,154606,2,0,P|236:276|280:324,1,180
192,308,155320,2,0,P|129:280|101:302,1,90
64,216,155796,5,0,0:0:0:0:
64,216,156034,1,0,0:0:0:0:
64,216,156272,1,0,0:0:0:0:
64,216,156510,1,0,0:0:0:0:
64,216,156749,1,0,0:0:0:0:
64,216,156987,2,0,P|152:140|240:132,1,180
211,129,157701,5,0,0:0:0:0:
211,129,157939,1,0,0:0:0:0:
211,129,158177,1,0,0:0:0:0:
211,129,158415,1,0,0:0:0:0:
211,129,158653,2,0,P|256:72|256:148,1,180
296,228,159368,1,0,0:0:0:0:
212,256,159606,6,0,P|236:292|192:320,1,90
136,252,160082,2,0,P|112:216|156:188,1,90
240,188,160558,1,0,0:0:0:0:
330,147,160796,1,0,0:0:0:0:
320,49,161034,1,0,0:0:0:0:
223,28,161272,1,0,0:0:0:0:
172,112,161510,6,0,L|51:166,1,90
184,176,161987,2,0,L|19:249,1,180
112,280,162701,1,0,0:0:0:0:
212,284,162939,1,0,0:0:0:0:
296,228,163177,1,0,0:0:0:0:
300,128,163415,6,0,P|276:92|320:64,1,90
376,132,163891,2,0,P|400:167|356:196,1,90
272,196,164367,1,0,0:0:0:0:
182,237,164605,1,0,0:0:0:0:
192,335,164843,1,0,0:0:0:0:
289,356,165081,1,0,0:0:0:0:
340,272,165319,6,0,L|461:218,1,90
452,140,165796,2,0,L|287:213,1,180
320,120,166510,2,0,L|402:83,2,90
228,80,167225,6,0,P|248:128|212:196,1,90
328,212,167701,2,0,P|348:260|252:332,1,180
168,308,168415,1,0,0:0:0:0:
108,228,168653,2,0,P|88:180|124:112,1,90
184,100,169130,6,0,P|256:64|260:16,1,90
344,112,169606,1,0,0:0:0:0:
352,212,169844,1,0,0:0:0:0:
412,292,170082,2,0,P|380:312|376:364,1,90
292,308,170558,2,0,P|256:256|212:264,1,90
284,168,171034,6,0,P|360:160|452:40,1,180
492,12,171749,1,0,0:0:0:0:
392,20,171987,1,0,0:0:0:0:
300,60,172225,1,0,0:0:0:0:
228,128,172463,1,0,0:0:0:0:
196,220,172701,1,0,0:0:0:0:
196,320,172939,6,0,P|88:308|24:368,1,180
52,252,173653,1,0,0:0:0:0:
112,176,173891,2,0,L|92:132,2,45
212,176,174368,2,0,L|232:220,2,45
300,128,174844,6,0,P|276:92|320:64,1,90
376,132,175320,2,0,P|400:168|356:196,1,90
272,196,175796,1,0,0:0:0:0:
182,237,176034,1,0,0:0:0:0:
192,335,176272,1,0,0:0:0:0:
289,356,176510,1,0,0:0:0:0:
340,272,176748,6,0,L|461:218,1,90
328,208,177225,2,0,L|492:134,1,180
400,104,177939,1,0,0:0:0:0:
300,100,178177,1,0,0:0:0:0:
216,156,178415,1,0,0:0:0:0:
212,256,178653,6,0,P|236:292|192:320,1,90
136,252,179129,2,0,P|112:217|156:187,1,90
240,188,179605,1,0,0:0:0:0:
330,147,179843,1,0,0:0:0:0:
320,49,180081,1,0,0:0:0:0:
223,28,180319,1,0,0:0:0:0:
172,112,180557,6,0,L|51:165,1,90
60,244,181034,2,0,L|224:170,1,180
192,264,181748,2,0,L|109:300,2,90
288,240,182463,6,0,P|404:204|418:123,1,180
224,144,183415,2,0,P|107:179|93:260,1,180
164,292,184130,1,0,0:0:0:0:
264,304,184368,6,0,L|380:296,1,90
444,336,184844,1,0,0:0:0:0:
400,248,185082,1,0,0:0:0:0:
380,152,185320,2,0,P|324:152|296:84,1,90
224,68,185796,2,0,P|201:46|145:46,1,90
48,56,186272,6,0,P|72:160|172:200,1,180
228,176,186987,2,0,L|264:280,1,90
160,268,187463,2,0,L|196:372,2,90
76,320,188177,6,0,P|96:140|252:52,1,360
337,55,189368,1,0,0:0:0:0:
436,64,189606,6,0,P|416:244|260:332,1,360
175,329,190796,1,0,0:0:0:0:
188,232,191034,6,0,P|201:177|255:141,1,90
324,152,191510,2,0,P|310:206|256:242,2,90
128,336,192701,5,0,0:0:0:0:
180,263,192939,1,0,0:0:0:0:
128,190,193177,1,0,0:0:0:0:
42,218,193415,1,0,0:0:0:0:
42,308,193653,1,0,0:0:0:0:
128,336,193891,1,0,0:0:0:0:
396,380,194606,5,0,0:0:0:0:
310,352,194844,1,0,0:0:0:0:
310,262,195082,1,0,0:0:0:0:
396,234,195320,1,0,0:0:0:0:
448,307,195558,1,0,0:0:0:0:
396,380,195796,1,0,0:0:0:0:
228,168,196510,5,0,0:0:0:0:
317,160,196748,1,0,0:0:0:0:
339,74,196986,1,0,0:0:0:0:
263,26,197224,1,0,0:0:0:0:
194,84,197462,1,0,0:0:0:0:
228,168,197701,6,0,P|145:237|237:272,1,180
249,228,198415,2,0,P|350:265|334:167,1,180
290,179,199130,2,0,P|272:73|195:135,1,180
164,248,200082,5,0,0:0:0:0:
296,272,200439,2,0,L|328:340,1,45
388,264,200796,1,0,0:0:0:0:
440,192,201034,1,0,0:0:0:0:
440,104,201272,2,0,P|327:80|246:119,1,180
248,280,202225,5,0,0:0:0:0:
160,268,202463,1,0,0:0:0:0:
96,204,202701,1,0,0:0:0:0:
120,116,202939,1,0,0:0:0:0:
188,56,203177,1,0,0:0:0:0:
264,100,203415,6,0,P|339:155|274:214,1,180
248,284,204130,2,0,P|172:228|237:169,2,180
312,224,205320,5,0,0:0:0:0:
312,224,205558,1,0,0:0:0:0:
312,224,205796,1,0,0:0:0:0:
312,224,206034,1,0,0:0:0:0:
288,136,206272,5,0,0:0:0:0:
288,136,206510,1,0,0:0:0:0:
288,136,206748,1,0,0:0:0:0:
288,136,206986,1,0,0:0:0:0:
200,159,207225,5,0,0:0:0:0:
200,159,207463,1,0,0:0:0:0:
200,159,207701,1,0,0:0:0:0:
200,159,207939,1,0,0:0:0:0:
224,248,208177,5,0,0:0:0:0:
224,248,208415,1,0,0:0:0:0:
224,248,208653,1,0,0:0:0:0:
224,248,208891,1,0,0:0:0:0:
206,283,209368,5,0,0:0:0:0:
206,283,209606,1,0,0:0:0:0:
206,283,209844,1,0,0:0:0:0:
153,210,210082,5,0,0:0:0:0:
153,210,210320,1,0,0:0:0:0:
178,123,210558,5,0,0:0:0:0:
178,123,210796,1,0,0:0:0:0:
260,88,211034,5,0,0:0:0:0:
260,88,211272,1,0,0:0:0:0:
340,131,211510,5,0,0:0:0:0:
340,131,211748,1,0,0:0:0:0:
355,219,211987,5,0,0:0:0:0:
355,219,212225,1,0,0:0:0:0:
296,287,212463,5,0,0:0:0:0:
296,287,212701,1,0,0:0:0:0:
256,192,212939,12,0,214368,0:0:0:0:
256,192,214844,6,0,P|252:120|284:76,1,107.999996704102
376,72,215320,2,0,B|451:124|405:215|405:215|347:232,1,215.999993408203
256,272,216034,1,0,0:0:0:0:
160,320,216272,1,0,0:0:0:0:
52,300,216510,1,0,0:0:0:0:
52,300,216749,6,0,L|32:160,1,107.999996704102
140,220,217225,2,0,L|120:80,1,107.999996704102
216,52,217701,2,0,L|236:192,1,107.999996704102,0|0,0:0|0:0,0:0:0:0:
328,116,218177,1,0,0:0:0:0:
360,220,218415,1,0,0:0:0:0:
256,192,218653,6,0,P|260:264|228:308,1,107.999996704102
136,312,219129,2,0,B|60:259|106:168|106:168|164:151,1,215.999993408203
256,112,219843,1,0,0:0:0:0:
352,64,220081,1,0,0:0:0:0:
460,84,220319,1,0,0:0:0:0:
388,168,220558,6,0,P|416:251|405:304,1,107.999996704102
363,364,221034,2,0,P|276:346|235:310,1,107.999996704102
205,244,221510,2,0,B|232:188|284:168|284:168|272:88|188:92,1,215.999993408203
112,84,222225,1,0,0:0:0:0:
112,84,222463,6,0,P|44:188|46:310,2,215.999993408203
216,60,223653,1,0,0:0:0:0:
316,100,223891,1,0,0:0:0:0:
360,200,224130,1,0,0:0:0:0:
400,300,224368,6,0,P|467:195|465:73,1,215.999993408203
400,28,225082,1,0,0:0:0:0:
372,132,225320,1,0,0:0:0:0:
328,232,225558,1,0,0:0:0:0:
240,292,225796,1,0,0:0:0:0:
132,292,226034,1,0,0:0:0:0:
48,228,226272,6,0,P|208:184|312:320,1,323.999990112305
392,352,227225,2,0,P|416:280|456:260,1,107.999996704102
364,188,227701,2,0,P|416:152|480:160,1,107.999996704102
476,44,228177,5,0,0:0:0:0:
388,108,228415,1,0,0:0:0:0:
300,172,228653,1,0,0:0:0:0:
212,236,228891,1,0,0:0:0:0:
124,300,229130,1,0,0:0:0:0:
20,263,229368,1,0,0:0:0:0:
56,162,229606,1,0,0:0:0:0:
158,196,229844,1,0,0:0:0:0:
124,300,230082,6,0,L|256:308,1,107.999996704102
348,328,230558,2,0,B|368:244|292:204|292:204|204:176,1,215.999993408203
148,96,231272,1,0,0:0:0:0:
264,64,231510,1,0,0:0:0:0:
360,136,231749,1,0,0:0:0:0:
348,252,231987,6,0,P|268:220|252:168,1,107.999996704102
156,264,232463,2,0,B|220:260|244:308|244:308|264:360|340:356,1,215.999993408203
452,360,233177,2,0,P|418:280|443:232,1,107.999996704102
480,160,233653,1,0,0:0:0:0:
388,84,233891,6,0,L|256:76,1,107.999996704102
164,56,234367,2,0,B|144:140|220:180|220:180|308:208,1,215.999993408203
364,288,235081,1,0,0:0:0:0:
248,320,235319,1,0,0:0:0:0:
152,248,235558,1,0,0:0:0:0:
188,136,235796,6,0,P|248:72|304:72,1,107.999996704102
338,161,236272,2,0,P|363:245|335:293,1,107.999996704102
241,278,236749,2,0,P|144:248|216:100,1,215.999993408203
240,88,237463,1,0,0:0:0:0:
360,96,237701,6,0,P|440:80|476:56,1,107.999996704102
400,168,238177,2,0,P|416:248|440:284,1,107.999996704102
328,208,238653,2,0,B|324:268|357:310|357:310|252:352,1,215.999993408203
256,232,239368,1,0,0:0:0:0:
152,288,239606,6,0,P|72:304|36:328,1,107.999996704102
112,215,240082,2,0,P|96:136|72:100,1,107.999996704102
184,176,240558,1,0,0:0:0:0:
168,60,240796,1,0,0:0:0:0:
284,44,241034,1,0,0:0:0:0:
300,160,241272,1,0,0:0:0:0:
316,276,241510,6,0,P|403:335|504:312,1,215.999993408203
489,193,242225,1,0,0:0:0:0:
373,171,242463,1,0,0:0:0:0:
256,192,242701,1,0,0:0:0:0:
139,213,242939,1,0,0:0:0:0:
23,191,243177,1,0,0:0:0:0:
100,100,243415,6,0,P|156:44|216:48,1,107.999996704102
300,56,243891,2,0,P|316:132|268:188,1,107.999996704102
207,227,244368,2,0,P|196:252|212:328,1,107.999996704102
330,343,244844,2,0,P|356:340|412:284,1,107.999996704102
357,192,245320,5,0,0:0:0:0:
287,95,245558,1,0,0:0:0:0:
174,132,245796,1,0,0:0:0:0:
174,251,246034,1,0,0:0:0:0:
287,288,246272,1,0,0:0:0:0:
216,60,246749,1,0,0:0:0:0:
364,192,247225,6,0,P|368:124|324:80,1,90
