osu file format v14

[General]
AudioFilename: 10. Favright - Taking Over (Grabbitz Remix) (feat. Cassandra Kay).mp3
AudioLeadIn: 0
PreviewTime: -1
Countdown: 0
SampleSet: Normal
StackLeniency: 0.7
Mode: 0
LetterboxInBreaks: 1
WidescreenStoryboard: 0

[Editor]
DistanceSpacing: 0.7
BeatDivisor: 4
GridSize: 4
TimelineZoom: 1

[Metadata]
Title:Taking Over (feat. Cassandra Kay) (Grabbitz Remix)
TitleUnicode:Taking Over (feat. Cassandra Kay) (Grabbitz Remix)
Artist:Favright
ArtistUnicode:Favright
Creator:Gangsterkill
Version:Insane
Source:
Tags:
BeatmapID:628611
BeatmapSetID:277403

[Difficulty]
HPDrainRate:7
CircleSize:4
OverallDifficulty:8
ApproachRate:9.2
SliderMultiplier:1.6
SliderTickRate:1

[Events]
//Background and Video events
0,0,"1748174.jpg",0,0
//Break Periods
//Storyboard Layer 0 (Background)
//Storyboard Layer 1 (Fail)
//Storyboard Layer 2 (Pass)
//Storyboard Layer 3 (Foreground)
//Storyboard Sound Samples

[TimingPoints]
-4,413.793103448276,4,1,0,59,1,0
39720,-95.2380952380952,4,1,0,100,0,0
52961,-90.9090909090909,4,1,0,100,0,0
66202,-76.9230769230769,4,1,0,100,0,0
91030,-100,4,1,0,100,0,0
92685,-90.9090909090909,4,1,0,100,0,1
119168,-90.9090909090909,4,1,0,100,0,0

[HitObjects]
108,80,2064,6,0,P|148:68|196:84,1,80
148,148,2478,2,0,L|84:320,1,160
160,340,3099,1,0,0:0:0:0:
329,215,3306,2,0,P|303:286|228:296,1,160
244,216,3927,1,0,0:0:0:0:
124,76,4133,6,0,P|132:120|164:160,1,80
204,88,4547,1,0,0:0:0:0:
320,44,4754,1,0,0:0:0:0:
368,108,4961,1,0,0:0:0:0:
316,256,5168,1,0,0:0:0:0:
268,192,5375,1,0,0:0:0:0:
88,132,5582,2,0,B|72:184|72:184|72:240|96:292,2,160,0|0|0,0:0|0:0|0:0,0:0:0:0:
224,56,6616,6,0,P|280:48|328:56,1,80
376,84,7030,1,0,0:0:0:0:
404,160,7237,1,0,0:0:0:0:
324,144,7444,1,0,0:0:0:0:
212,224,7651,2,0,P|160:228|128:224,2,80,0|0|0,0:0|0:0|0:0,0:0:0:0:
268,168,8271,6,0,P|288:236|232:300,1,160
156,320,8892,1,0,0:0:0:0:
124,200,9099,2,0,P|104:132|160:68,1,160
232,40,9720,1,0,0:0:0:0:
416,112,9927,2,0,B|380:104|340:120|340:120|300:136|256:120,1,160
192,168,10547,1,0,0:0:0:0:
140,228,10754,2,0,B|124:272|136:312|136:312|96:328,2,120,0|0|0,0:0|0:0|0:0,0:0:0:0:
116,152,11582,2,0,B|120:112|120:112|104:56,1,80
180,36,11996,2,0,B|212:59|212:59|269:73,1,80
464,108,12409,2,0,B|416:80|348:84|348:84|336:152|264:168,1,240
128,112,13237,6,0,L|116:200|116:200,1,80
112,232,13547,1,0,0:0:0:0:
228,316,13754,1,0,0:0:0:0:
268,316,13858,1,0,0:0:0:0:
400,244,14064,2,0,P|408:204|400:160,1,80
304,96,14478,2,0,P|296:136|304:180,1,80
208,288,14892,2,0,P|216:248|208:204,1,80
210,209,15306,1,0,0:0:0:0:
120,56,15513,6,0,L|88:184,1,120
88,204,15927,2,0,P|128:208|164:232,1,80
268,244,16340,1,0,0:0:0:0:
392,160,16547,1,0,0:0:0:0:
320,56,16754,2,0,P|288:84|272:128,1,80
300,320,17168,2,0,P|332:292|348:248,1,80
276,120,17582,1,0,0:0:0:0:
348,260,17789,1,0,0:0:0:0:
192,248,17996,5,0,0:0:0:0:
44,200,18409,2,0,B|77:236|81:270|81:270|88:310|117:338,2,160,0|0|0,0:0|0:0|0:0,0:0:0:0:
36,168,19340,1,0,0:0:0:0:
32,128,19443,1,0,0:0:0:0:
47,91,19546,1,0,0:0:0:0:
77,65,19650,1,0,0:0:0:0:
216,64,19858,6,0,P|256:60|316:68,1,80
408,176,20271,2,0,P|368:180|308:172,1,80
140,132,20685,1,0,0:0:0:0:
144,324,20892,1,0,0:0:0:0:
352,272,21099,2,0,P|320:248|260:240,1,80
144,324,21513,2,0,P|176:348|236:356,1,80
348,320,21927,5,0,0:0:0:0:
384,184,22134,1,0,0:0:0:0:
285,86,22341,1,0,0:0:0:0:
150,122,22548,1,0,0:0:0:0:
114,257,22755,1,0,0:0:0:0:
212,356,22961,1,0,0:0:0:0:
384,184,23168,6,0,L|344:164,3,40,0|0|0|0,0:0|0:0|0:0|0:0,0:0:0:0:
320,152,23582,2,0,L|284:169,3,40,0|0|0|0,0:0|0:0|0:0|0:0,0:0:0:0:
252,176,23996,1,0,0:0:0:0:
224,176,24099,1,0,0:0:0:0:
200,160,24202,1,0,0:0:0:0:
188,136,24306,1,0,0:0:0:0:
168,116,24409,1,0,0:0:0:0:
136,108,24513,1,0,0:0:0:0:
104,112,24616,1,0,0:0:0:0:
80,132,24720,1,0,0:0:0:0:
256,192,24823,12,0,26064,0:0:0:0:
180,312,26478,6,0,P|260:324|336:308,1,160
392,252,27099,2,0,B|376:216|376:216|384:168,1,80
368,96,27513,1,0,0:0:0:0:
144,216,27927,1,0,0:0:0:0:
380,264,28340,1,0,0:0:0:0:
60,224,28754,2,0,P|72:172|168:136,1,160
228,180,29375,1,0,0:0:0:0:
300,216,29582,1,0,0:0:0:0:
232,260,29789,6,0,P|204:304|180:320,2,80,0|0|0,0:0|0:0|0:0,0:0:0:0:
116,84,30409,2,0,P|144:40|168:24,2,80,0|0|0,0:0|0:0|0:0,0:0:0:0:
84,320,31237,1,0,0:0:0:0:
460,236,31651,1,0,0:0:0:0:
170,256,32064,1,0,0:0:0:0:
358,213,32478,1,0,0:0:0:0:
352,136,32685,2,0,P|304:160|280:196,1,80,0|0,0:0|0:0,0:0:0:0:
288,260,33099,6,0,P|236:328|168:316,1,160
208,248,33720,2,0,P|232:200|280:176,1,80
396,72,34133,2,0,P|372:120|324:144,1,80
236,94,34547,2,0,B|184:105|184:105|120:92|82:137,2,160
347,68,35582,1,0,0:0:0:0:
435,44,35789,2,0,P|438:87|415:130,1,80
347,68,36202,1,0,0:0:0:0:
271,15,36409,6,0,P|256:52|260:92,1,80
336,171,36823,1,0,0:0:0:0:
184,166,37030,2,0,P|147:150|107:154,1,80
129,278,37444,2,0,P|165:293|205:289,1,80
383,238,37858,1,0,0:0:0:0:
104,47,38271,1,0,0:0:0:0:
86,353,38685,1,0,0:0:0:0:
347,103,39099,2,0,B|312:93|312:93|283:98|283:98|252:92|252:92|220:97|220:97|188:88,1,160
93,57,39720,6,0,P|79:107|86:145,1,83.9999974365235
98,168,40030,1,0,0:0:0:0:
120,192,40133,1,0,0:0:0:0:
276,300,40340,1,0,0:0:0:0:
325,137,40547,1,0,0:0:0:0:
385,234,40754,1,0,0:0:0:0:
171,166,40961,1,0,0:0:0:0:
155,41,41168,6,0,B|189:27|238:41|238:41|268:63|319:57,1,167.999994873047
452,108,41789,1,0,0:0:0:0:
317,172,41996,2,0,B|266:166|236:188|236:188|187:202|153:187,1,167.999994873047
151,115,42616,1,0,0:0:0:0:
151,115,42823,1,0,0:0:0:0:
87,172,43030,2,0,P|67:123|125:33,1,167.999994873047,0|0,1:0|1:0,1:0:0:0:
337,106,43651,2,0,P|354:185|300:245,1,167.999994873047,0|0,1:0|1:0,1:0:0:0:
273,163,44271,1,0,0:0:0:0:
160,90,44478,6,0,L|68:72,1,83.9999974365235
323,171,44892,2,0,L|416:161,1,83.9999974365235
79,247,45306,2,0,L|162:248,1,83.9999974365235
406,309,45720,2,0,L|322:317,1,83.9999974365235
322,317,46133,1,0,0:0:0:0:
182,324,46340,6,0,P|169:282|179:242,1,83.9999974365235
178,243,46651,1,0,0:0:0:0:
178,243,46754,1,0,0:0:0:0:
159,105,46961,2,0,P|191:134|202:174,1,83.9999974365235
306,256,47375,1,0,0:0:0:0:
439,221,47582,1,0,0:0:0:0:
282,136,47789,1,0,0:0:0:0:
403,337,47996,2,0,P|449:344|492:336,1,83.9999974365235
307,255,48409,2,0,P|261:248|218:256,1,83.9999974365235
64,336,48823,2,0,P|105:341|146:334,1,83.9999974365235
222,233,49237,1,0,0:0:0:0:
58,119,49444,1,0,0:0:0:0:
208,56,49651,6,0,B|240:56|240:56|256:64|256:64|292:64,2,83.9999974365235
58,119,50271,2,0,P|48:184|60:252,1,125.999996154785
72,276,50685,1,0,0:0:0:0:
128,336,50892,1,0,0:0:0:0:
152,256,51099,2,0,B|168:216|168:216|176:164,1,83.9999974365235
252,69,51513,2,0,B|279:103|279:103|320:136,1,83.9999974365235
363,250,51927,2,0,B|320:256|320:256|271:275,1,83.9999974365235
56,100,52340,2,0,B|98:93|98:93|147:74,1,83.9999974365235
136,79,52754,1,0,0:0:0:0:
312,64,52961,5,0,0:0:0:0:
424,148,53168,1,0,0:0:0:0:
312,64,53375,2,0,B|268:64|268:64|220:80,1,88.000002685547
208,88,53685,1,0,0:0:0:0:
188,100,53789,1,0,0:0:0:0:
60,288,53996,2,0,B|101:301|101:301|145:301,1,88.000002685547
276,300,54409,1,0,0:0:0:0:
279,71,54616,5,0,0:0:0:0:
472,126,54823,1,0,0:0:0:0:
284,194,55030,1,0,0:0:0:0:
395,29,55237,1,0,0:0:0:0:
403,228,55444,1,0,0:0:0:0:
279,71,55651,2,0,P|220:64|172:72,1,88.000002685547
60,132,56064,1,0,0:0:0:0:
80,248,56271,6,0,L|124:280,1,44.0000013427735
144,296,56478,1,0,0:0:0:0:
256,92,56685,1,0,0:0:0:0:
368,296,56892,1,0,0:0:0:0:
332,144,57099,2,0,B|288:160|256:192|256:192|224:160|180:140,1,176.000005371094
92,88,57720,1,0,0:0:0:0:
60,256,57927,5,0,0:0:0:0:
84,275,58030,1,0,0:0:0:0:
112,290,58133,1,0,0:0:0:0:
142,299,58237,1,0,0:0:0:0:
173,303,58340,1,0,0:0:0:0:
204,301,58444,1,0,0:0:0:0:
234,293,58547,1,0,0:0:0:0:
263,280,58651,1,0,0:0:0:0:
292,264,58754,2,0,L|336:240,1,44.0000013427735
412,148,58961,2,0,L|368:172,1,44.0000013427735
248,176,59168,2,0,L|292:152,1,44.0000013427735
368,60,59375,2,0,L|324:84,1,44.0000013427735
296,92,59582,5,0,0:0:0:0:
264,87,59685,1,0,0:0:0:0:
235,79,59788,1,0,0:0:0:0:
208,64,59892,1,0,0:0:0:0:
177,60,59995,1,0,0:0:0:0:
147,69,60099,1,0,0:0:0:0:
124,90,60202,1,0,0:0:0:0:
115,120,60306,1,0,0:0:0:0:
114,158,60409,6,0,P|108:188|115:210,1,44.0000013427735
120,316,60616,2,0,P|143:320|172:315,1,44.0000013427735
244,232,60823,2,0,P|267:228|296:233,1,44.0000013427735
368,316,61030,2,0,P|391:320|420:315,1,44.0000013427735
425,176,61237,1,0,0:0:0:0:
416,133,61340,1,0,0:0:0:0:
393,95,61443,1,0,0:0:0:0:
358,69,61547,1,0,0:0:0:0:
316,59,61651,2,0,L|293:104,3,44.0000013427735
230,207,62065,5,0,0:0:0:0:
223,164,62168,1,0,0:0:0:0:
196,130,62271,1,0,0:0:0:0:
155,114,62375,1,0,0:0:0:0:
113,110,62478,2,0,L|64:118,3,44.0000013427735
256,192,62892,12,0,64547,0:0:0:0:
152,104,66202,5,0,0:0:0:0:
372,240,66409,1,0,0:0:0:0:
152,104,66616,1,0,0:0:0:0:
64,240,66823,1,0,0:0:0:0:
104,244,66927,1,0,0:0:0:0:
144,252,67030,2,0,L|136:344,1,51.999997619629
236,240,67237,2,0,B|276:188|256:136|256:136|216:100|224:48,1,207.999990478516
112,80,67858,5,0,0:0:0:0:
60,304,68064,1,0,0:0:0:0:
280,232,68271,1,0,0:0:0:0:
396,64,68478,1,0,0:0:0:0:
396,64,68582,1,0,0:0:0:0:
396,64,68685,2,0,L|412:172,1,103.999995239258
416,292,68996,1,0,0:0:0:0:
416,292,69099,2,0,P|344:288|280:300,1,103.999995239258
96,200,69513,6,0,L|96:312,2,103.999995239258
120,68,70133,2,0,L|180:48,1,51.999997619629
316,100,70340,2,0,L|256:120,1,51.999997619629
132,192,70547,2,0,L|224:244,1,103.999995239258
336,308,70961,1,0,0:0:0:0:
468,328,71168,6,0,P|460:272|416:216,1,103.999995239258
276,64,71582,1,0,0:0:0:0:
276,64,71685,1,0,0:0:0:0:
276,64,71789,1,0,0:0:0:0:
196,200,71996,1,0,0:0:0:0:
196,200,72099,1,0,0:0:0:0:
196,200,72203,1,0,0:0:0:0:
108,344,72409,2,0,B|160:352|208:336|208:336|260:324|324:344,1,207.999990478516
416,256,73030,5,0,0:0:0:0:
384,128,73237,1,0,0:0:0:0:
107,119,73444,1,0,0:0:0:0:
84,144,73547,1,0,0:0:0:0:
72,180,73651,2,0,P|80:256|104:304,1,103.999995239258
304,252,74064,2,0,P|256:240|200:252,1,103.999995239258
416,256,74478,6,0,P|400:192|360:160,1,103.999995239258
172,52,74892,1,0,0:0:0:0:
204,312,75099,1,0,0:0:0:0:
236,300,75202,1,0,0:0:0:0:
268,288,75306,1,0,0:0:0:0:
373,98,75513,1,0,0:0:0:0:
368,132,75616,1,0,0:0:0:0:
362,165,75720,1,0,0:0:0:0:
412,288,75927,2,0,L|460:320,2,51.999997619629
280,200,76340,1,0,0:0:0:0:
344,352,76547,1,0,0:0:0:0:
432,208,76754,1,0,0:0:0:0:
440,88,76961,2,0,B|388:64|344:72|344:72|284:88|200:64,1,207.999990478516
144,64,77582,1,0,0:0:0:0:
116,72,77685,1,0,0:0:0:0:
88,80,77789,6,0,L|96:192,1,103.999995239258
200,156,78099,2,0,L|208:268,1,103.999995239258
312,232,78409,2,0,L|320:344,1,103.999995239258
448,300,78823,2,0,B|440:272|440:272|452:232|452:232|432:184|432:184|448:136|448:136|436:96,1,207.999990478516
364,32,79444,5,0,0:0:0:0:
264,44,79651,2,0,L|248:24,1,25.9999988098145
248,76,79754,2,0,L|212:64,1,25.9999988098145
244,120,79858,2,0,L|200:124,1,25.9999988098145
256,156,79961,1,0,0:0:0:0:
292,176,80064,1,0,0:0:0:0:
424,208,80271,2,0,P|428:280|312:336,1,207.999990478516
348,252,80892,5,0,0:0:0:0:
244,120,81099,1,0,0:0:0:0:
120,44,81306,2,0,P|92:40|69:44,1,51.999997619629
88,185,81513,2,0,P|67:203|55:223,1,51.999997619629
176,301,81720,2,0,P|176:328|184:350,1,51.999997619629
321,308,81927,2,0,P|342:324|424:332,1,103.999995239258
340,192,82340,2,0,P|318:175|237:168,1,103.999995239258
88,288,82754,6,0,B|108:292|108:292|128:288|128:288|144:292|144:292|164:288|164:288|177:293|177:293|192:288|192:288|208:300,1,103.999995239258
224,276,83064,1,0,0:0:0:0:
252,248,83168,1,0,0:0:0:0:
268,212,83271,1,0,0:0:0:0:
272,172,83375,1,0,0:0:0:0:
148,40,83582,2,0,P|128:96|128:144,1,103.999995239258
384,140,83996,2,0,P|382:88|364:40,1,103.999995239258
68,20,84409,6,0,P|48:88|44:144,1,103.999995239258
88,288,84823,1,0,0:0:0:0:
112,304,84927,1,0,0:0:0:0:
144,312,85030,1,0,0:0:0:0:
424,288,85237,1,0,0:0:0:0:
400,304,85341,1,0,0:0:0:0:
368,312,85444,1,0,0:0:0:0:
225,102,85651,6,0,P|258:27|288:104,1,207.999990478516
228,296,86271,1,0,0:0:0:0:
72,64,86478,1,0,0:0:0:0:
312,192,86685,1,0,0:0:0:0:
92,228,86892,2,0,P|48:256|140:328,1,207.999990478516
126,337,87513,1,0,0:0:0:0:
348,68,87720,5,0,0:0:0:0:
464,328,87927,1,0,0:0:0:0:
348,40,88133,1,0,0:0:0:0:
272,332,88340,1,0,0:0:0:0:
348,8,88547,2,0,P|400:-4|400:112,1,207.999990478516
406,110,89168,1,0,0:0:0:0:
216,192,89375,5,0,0:0:0:0:
216,192,89478,1,0,0:0:0:0:
216,192,89582,2,0,L|105:194,1,103.999995239258
52,52,89892,1,0,0:0:0:0:
52,52,89996,2,0,L|162:49,1,103.999995239258
316,96,90306,1,0,0:0:0:0:
316,96,90410,2,0,L|373:190,1,103.999995239258
252,260,90720,1,0,0:0:0:0:
252,260,90824,2,0,L|194:165,1,103.999995239258
416,248,92478,5,0,0:0:0:0:
480,296,92685,6,0,P|408:328|340:256,1,176.000005371094
192,48,93306,1,0,0:0:0:0:
128,324,93513,1,0,0:0:0:0:
280,152,93720,1,0,0:0:0:0:
92,116,93927,1,0,0:0:0:0:
280,300,94133,2,0,B|336:272|336:272|376:264|376:264|440:228,2,176.000005371094
208,316,95168,2,0,P|152:300|120:264,1,88.000002685547
132,88,95582,2,0,P|188:104|220:140,1,88.000002685547
360,316,95996,5,0,0:0:0:0:
416,140,96202,1,0,0:0:0:0:
224,192,96409,1,0,0:0:0:0:
464,296,96616,1,0,0:0:0:0:
296,112,96823,1,0,0:0:0:0:
120,304,97030,1,0,0:0:0:0:
284,332,97237,1,0,0:0:0:0:
344,184,97444,2,0,P|272:152|240:156,1,88.000002685547
40,272,97858,2,0,P|112:304|144:300,1,88.000002685547
280,248,98271,5,0,0:0:0:0:
280,248,98375,1,0,0:0:0:0:
280,248,98478,1,0,0:0:0:0:
368,92,98685,1,0,0:0:0:0:
338,76,98788,1,0,0:0:0:0:
306,68,98891,1,0,0:0:0:0:
273,69,98995,1,0,0:0:0:0:
241,77,99098,1,0,0:0:0:0:
80,264,99306,6,0,B|116:264|116:264|132:260|132:260|168:260,1,88.000002685547
344,208,99720,1,0,0:0:0:0:
368,92,99927,2,0,P|304:64|236:80,1,132.00000402832
140,144,100340,2,0,P|80:152|36:128,1,88.000002685547
344,168,100754,5,0,0:0:0:0:
428,169,100961,1,0,0:0:0:0:
272,296,101168,1,0,0:0:0:0:
188,295,101375,1,0,0:0:0:0:
84,184,101582,2,0,B|84:116|84:116|88:80|88:80|88:8,2,176.000005371094
