osu file format v5

[General]
AudioFilename: 85076_newgrounds_happy_.mp3
AudioLeadIn: 3000
PreviewTime: -1
Countdown: 3
SampleSet: Soft
StackLeniency: 0.7
Mode: 0
LetterboxInBreaks: 1

[Metadata]
Title:Happy Again
Artist:Father-of-Death
Creator:g0m
Version:Easy
Source:Newgrounds Audio Portal
Tags:Jon, Beam, Father, of, Death, happy, again, newgrounds, audio, portal, ongaku

[Difficulty]
HPDrainRate:3
CircleSize:3
OverallDifficulty:3
SliderMultiplier:1.4
SliderTickRate:1

[Events]
//Background and Video events
//Break Periods
2,30818,45000
2,61323,75893
//Storyboard Layer 0 (Background)
//Storyboard Layer 1 (Failing)
//Storyboard Layer 2 (Passing)
//Storyboard Layer 3 (Foreground)
//Storyboard Sound Samples
//Background Colour Transformations
3,100,255,255,255

[TimingPoints]
15547.0975936476,478.490476190477,4,2,0,100,1

[Colours]
Combo1 : 255,221,170
Combo2 : 142,237,137
Combo3 : 163,181,243
Combo4 : 239,171,171

[HitObjects]
448,192,15290,5,0
320,192,16264,1,0
192,192,17221,1,2
96,256,18178,2,2,B|224:352,1,140
256,384,19135,5,0
256,256,20092,1,0
256,128,21049,1,2
192,32,22006,2,2,B|96:160,1,140
64,192,22963,5,0
192,192,23920,1,0
320,192,24877,1,2
416,128,25834,2,2,B|288:32,1,140,0|0
256,0,26791,5,0
256,128,27748,1,0
256,256,28705,1,2
320,352,29662,2,2,B|384:224,2,140
416,192,46050,6,0,B|256:192,1,140
224,192,47007,2,0,B|64:192,1,140
32,192,47964,2,0,B|192:192,1,140
288,192,48921,2,0,B|256:352,1,140
256,358,49878,6,0,B|224:192,1,140
288,192,50835,2,8,B|448:192,1,140
448,192,51792,2,0,B|288:192,1,140
262,192,52749,2,8,B|192:192,2,70
256,192,53706,5,8
384,192,54663,1,0
384,64,55620,1,8
256,64,56577,1,8
256,192,57534,5,8
128,192,58491,1,0
128,320,59448,1,8
256,320,60405,1,8
256,224,60884,1,6
480,256,76793,5,4
352,128,77750,1,0
224,64,78707,1,4
96,192,79664,1,4
32,256,80621,5,4
160,128,81578,1,0
288,64,82535,1,4
416,192,83492,1,4
448,256,84449,5,4
384,192,85406,1,0
256,64,86363,1,8
384,128,87320,1,0
480,160,88277,5,8
352,288,89234,1,0
288,288,90191,1,8
416,160,91148,1,8
256,192,92105,12,4,107536
