osu file format v5

[General]
AudioFilename: Fatboy Slim - 04 - Weapon Of Choice.mp3
AudioLeadIn: 0
PreviewTime: 38699
Countdown: 1
SampleSet: Normal
StackLeniency: 0.7
Mode: 0
LetterboxInBreaks: 1

[Editor]
DistanceSpacing: 0.800000011920929
BeatDivisor: 4
GridSize: 8

[Metadata]
Title:Weapon of Choice
Artist:Fatboy Slim
Creator:Doomsday93
Version:Normal
Source:
Tags:Fatboy Slim Weapon of Choice

[Difficulty]
HPDrainRate:5
CircleSize:4
OverallDifficulty:3
SliderMultiplier:1.4
SliderTickRate:1

[Events]
//Background and Video events
0,0,"wallpaper1.jpg"
//Break Periods
2,46858,47295
2,59103,67259
2,115430,115627
//Storyboard Layer 0 (Background)
//Storyboard Layer 1 (Fail)
//Storyboard Layer 2 (Pass)
//Storyboard Layer 3 (Foreground)
//Storyboard Sound Samples
//Background Colour Transformations
3,100,163,162,255

[TimingPoints]
9924.3873685838,306.122448979592,4,1,0,60,1,0
19567,-100,4,2,0,60,0,0
19873,-100,4,1,0,60,0,0
53929,-100,4,2,0,60,0,0
59057,-100,4,1,0,60,0,0
122500,-100,4,2,0,60,0,0

[Colours]
Combo1 : 0,150,157
Combo2 : 155,0,4
Combo3 : 0,0,130
Combo4 : 0,117,9

[HitObjects]
56,264,9924,2,0,B|104:216|160:232|208:304|352:232,1,280,4|8
408,168,10842,1,0
328,88,11148,2,0,B|280:72|240:72,1,70
144,80,11608,2,0,B|88:88|64:112,1,70,0|8
64,208,12067,1,0
80,320,12373,6,0,B|128:328|208:328|312:304|288:168,1,280,0|8
288,88,13291,1,0
184,48,13597,2,0,B|152:88|208:136,1,70
72,120,14057,2,0,B|104:160|48:208,1,70,0|8
184,200,14516,1,0
96,264,14822,6,0,B|128:304|240:336|296:312|360:256,1,280,0|8
424,176,15740,1,0
352,88,16046,1,0
352,88,16199,1,0
240,88,16506,1,0
240,88,16659,1,8
136,136,16965,1,0
72,224,17271,6,0,B|104:272|184:288|216:216|312:240|352:296,1,280,0|8
432,328,18189,1,0
480,232,18495,1,0
480,232,18648,1,0
432,128,18954,1,0
432,128,19108,1,8
336,72,19414,1,8
224,72,19720,6,0,B|152:88|112:136|128:208|168:280|256:248,1,280,4|0
336,248,20638,1,0
408,160,20944,2,0,B|456:112|456:56|416:16|352:-32|288:104,1,280
216,152,21863,1,0
136,232,22169,5,0
216,312,22475,2,0,B|248:320|296:312,1,70
368,240,22934,2,0,B|384:184|352:152,1,70
288,88,23393,2,0,B|248:80|216:88,1,70
144,176,23852,2,0,B|136:240|152:264,1,70,0|8
256,224,24312,1,8
256,112,24618,6,0,B|216:56|208:32|128:16|56:40|40:136,1,280
40,232,25536,1,0
128,304,25842,1,0
352,304,26454,2,0,B|392:320|408:352,2,70
264,232,27067,5,0
184,152,27373,2,0,B|168:104|192:64,1,70
288,40,27832,2,0,B|312:96|280:120,1,70
184,152,28291,2,0,B|160:200|200:240,1,70
288,248,28750,2,0,B|304:296|280:336,1,70,0|8
176,312,29210,1,8
112,224,29516,1,0
112,112,29822,5,0
256,32,30281,1,0
400,112,30740,1,0
400,224,31046,2,8,B|360:256|312:192|248:240,2,140
360,328,31965,1,0
256,288,32271,5,0
120,192,32730,1,0
256,96,33189,1,0
456,192,33801,2,0,B|416:152|360:160|288:208|232:240|176:176,1,280
80,192,34720,5,0
208,80,35179,1,0
376,80,35638,1,0
456,152,35944,2,0,B|472:192|456:224,2,70,8|0|8
360,208,36557,2,0,B|344:264|376:304,2,70,8|0|0
360,96,37169,5,0
256,232,37628,1,0
152,104,38087,1,0
72,312,38699,5,0
72,312,38852,1,0
72,312,39006,2,0,B|48:248|104:232|56:152,1,140,0|4
256,48,39924,5,0
256,48,40077,1,0
256,48,40230,2,0,B|320:16|336:64|408:32,1,140
448,256,41148,5,0
448,256,41301,1,0
448,256,41454,2,0,B|400:296|352:224|288:280,1,140,0|4
152,104,42373,5,0
152,104,42526,1,0
152,104,42679,2,0,B|208:72|248:128|312:88,1,140
256,320,43597,5,0
256,320,43750,1,0
256,320,43903,2,0,B|216:272|288:232|240:160,1,140,0|4
256,48,44822,5,0
256,48,44975,1,0
256,48,45128,2,0,B|224:104|280:136|248:200,1,140
288,352,45893,6,0,B|256:384|216:344,5,70
408,72,48495,5,0
408,72,48648,1,0
408,72,48801,2,0,B|344:104|352:168|440:184,2,140,0|4|8
296,72,49720,5,0
296,72,49873,1,0
296,72,50026,2,0,B|248:104|208:64|192:56|144:96,2,140,8|0|8
296,184,50944,5,0
296,184,51097,1,0
296,184,51250,2,0,B|240:224|256:280|312:304,2,140,8|4|8
392,240,52169,5,0
392,240,52322,1,0
392,240,52475,2,0,B|336:272|312:232|240:256,2,140,8|0|8
288,192,53393,6,0,B|240:168|200:208,2,70
280,304,54006,6,0,B|304:256|272:224,3,70
224,232,54618,2,0,B|200:184|232:152,3,70
280,160,55230,2,0,B|304:112|272:80,3,70
224,96,55842,2,0,B|200:48|232:16,3,70
280,32,56454,6,0,B|336:32|408:72|400:184,1,210,2|0
256,264,57373,1,2
144,264,57679,2,0,B|104:208|184:136|136:48,1,210,2|0
256,56,58444,2,0,B|344:56,3,70,0|0|0|4
168,304,68699,6,0,B|208:224|120:184|184:80,1,210,0|8
344,96,69618,1,0
456,96,69924,6,0,B|496:152|416:216|472:312,1,210,0|8
296,304,70842,1,0
184,304,71148,6,0,B|64:264|72:224|200:200,1,210,0|8
352,200,72067,1,0
464,200,72373,6,0,B|488:136|480:96|440:56|352:80,1,210,0|8
192,80,73291,1,0
80,80,73597,6,0,B|40:136|32:208|152:216|192:200,1,210,0|8
280,200,74363,2,0,B|384:200,1,70
464,200,74822,6,0,B|512:264|488:344|352:312,1,210,0|8
264,320,75587,2,0,B|192:320,1,70
112,240,76046,5,0
256,152,76506,2,0,B|240:192|264:192|248:240,3,70
432,56,78495,5,4
320,56,78801,2,0,B|296:112|352:136|312:216,3,140,8|0|8|0
320,304,80026,5,8
96,304,80638,1,8
96,80,81250,6,0,B|152:48|248:48|320:88,1,210,8|0
456,144,82169,1,0
456,256,82475,6,0,B|464:344,2,70,0|0|8
344,256,83087,2,0,B|336:344,2,70,0|0|8
344,144,83699,6,0,B|352:88|352:56|248:56,2,140,0|8|0
344,256,84618,1,0
120,256,85230,6,0,B|48:256,2,70
232,256,85842,1,0
232,144,86148,6,0,B|200:32|152:24|120:160,2,210
416,296,88291,5,0
304,296,88597,2,0,B|232:256|152:304,2,140,0|8|0
416,296,89516,5,0
416,72,90128,1,8
192,72,90740,5,0
192,184,91046,2,0,B|160:232|216:256|184:336,2,140,0|8|0
192,72,91965,5,0
416,64,92577,1,8
264,224,93189,5,0
197,314,93495,2,0,B|269:354|333:314,2,140,0|8|0
128,224,94414,1,0
224,80,94873,6,0,B|328:80,3,70,0|8|0|0
368,160,95638,1,0
432,248,95944,2,0,B|384:296|288:224|224:272,1,210
64,272,96863,5,0
64,160,97169,2,0,B|64:104|88:72|152:64,2,140
176,160,98087,5,4
400,160,98699,1,8
400,264,99006,6,0,B|344:336|280:264,2,140
344,168,99924,1,8
232,168,100230,1,8
120,168,100536,5,4
256,344,101148,1,8
256,232,101454,6,0,B|216:184|304:152|248:88,2,140
360,272,102373,1,8
416,176,102679,1,8
360,80,102985,5,4
136,80,103597,1,8
136,192,103903,6,0,B|88:240|88:280|160:328,2,140
248,192,104822,1,8
304,96,105128,1,8
360,192,105434,5,4
160,88,106046,1,4
160,312,106659,1,4
328,312,107118,2,0,B|416:312,3,70
328,224,107883,6,0,B|376:192|376:120|296:96,1,140,0|8
216,112,108495,2,0,B|216:200,2,70,0|0|8
104,112,109108,6,0,B|56:128|56:216|120:232,1,140,0|8
216,248,109720,2,0,B|216:336,2,70,0|0|8
328,248,110332,6,0,B|392:224|352:176|456:152,1,140,0|8
360,72,110944,2,0,B|416:16,2,70,0|0|8
248,72,111557,6,0,B|184:40|160:96|104:64,1,140,0|8
48,160,112169,2,0,B|32:216|56:256,2,70,0|0|8
160,160,112781,6,0,B|200:216|120:232|176:304,1,140,0|8
280,288,113393,2,0,B|272:232|288:200,2,70,0|0|8
392,288,114006,6,0,B|424:248|376:200|400:128,1,140,0|8
320,64,114618,2,0,B|264:104|248:48|176:80,2,140,0|8|4
256,304,117067,5,0
256,304,117373,1,0
160,240,117679,6,0,B|80:200|40:144|48:88|192:40,1,280,4|0
256,112,118597,1,0
352,48,118903,6,0,B|432:88|472:144|464:200|320:248,1,280,4|0
256,176,119822,1,8
256,288,120128,6,0,B|208:328|152:328|104:280|88:192|176:144,1,280,4|0
256,88,121046,1,8
344,152,121352,6,0,B|408:208|408:280|360:328|304:328|248:280,1,280,4|0
256,176,122271,1,8
256,64,122577,5,0
152,112,122883,1,0
80,192,123189,1,0
152,272,123495,1,0
256,312,123801,1,0
360,272,124108,1,0
432,192,124414,1,0
352,112,124720,1,0
256,56,125026,6,0,B|216:112|296:184|248:272,2,210
368,56,126250,6,0,B|352:120|416:160|368:264,2,210
256,56,127475,1,4
