osu file format v5

[General]
AudioFilename: Fatboy Slim - 04 - Weapon Of Choice.mp3
AudioLeadIn: 0
PreviewTime: 38699
Countdown: 1
SampleSet: Normal
StackLeniency: 0.7
Mode: 0
LetterboxInBreaks: 1

[Editor]
DistanceSpacing: 0.800000011920929
BeatDivisor: 4
GridSize: 8

[Metadata]
Title:Weapon of Choice
Artist:Fatboy Slim
Creator:Doomsday93
Version:Insane
Source:
Tags:Fatboy Slim Weapon of Choice

[Difficulty]
HPDrainRate:6
CircleSize:5
OverallDifficulty:7
SliderMultiplier:1.7
SliderTickRate:1

[Events]
//Background and Video events
0,0,"wallpaper1.jpg"
//Break Periods
2,47165,47595
2,59103,67799
2,127675,145861
2,155685,156269
//Storyboard Layer 0 (Background)
//Storyboard Layer 1 (Fail)
//Storyboard Layer 2 (Pass)
//Storyboard Layer 3 (Foreground)
//Storyboard Sound Samples
//Background Colour Transformations
3,100,163,162,255

[TimingPoints]
9924.3873685838,306.122448979592,4,1,0,60,1,0
19567,-100,4,2,0,60,0,0
19873,-100,4,1,0,60,0,0
53929,-100,4,2,0,60,0,0
59057,-100,4,1,0,60,0,0
122500,-100,4,2,0,60,0,0
146454,-100,4,1,0,60,0,0
166888,-100,4,1,0,64,0,0
181276,-100,4,2,0,63,0,0

[Colours]
Combo1 : 0,150,157
Combo2 : 155,0,4
Combo3 : 0,0,130
Combo4 : 0,117,9

[HitObjects]
80,56,9924,2,0,B|80:136|192:136|216:272,1,255,4|0
232,328,10536,1,8
328,232,10842,1,0
368,104,11148,6,0,B|304:96|272:136,1,85
328,176,11454,2,0,B|296:208|232:176,1,85
224,120,11761,2,0,B|160:120|128:160,1,85,8|0
96,192,12067,1,0
168,304,12373,6,0,B|264:304|288:240|416:224,1,255
472,200,12985,1,8
400,80,13291,1,0
264,48,13597,6,0,B|200:80|208:128,1,85
192,176,13903,2,0,B|168:248|224:280,1,85
256,296,14210,1,8
320,272,14363,1,0
280,216,14516,1,0
344,192,14669,1,0
296,144,14822,6,0,B|200:72|120:88|48:168,1,255
56,216,15434,1,8
136,320,15740,1,0
224,216,16046,6,0,B|272:240|312:192,1,85
264,144,16352,2,0,B|312:112|352:144,1,85
376,200,16659,2,0,B|456:176|448:88|360:72,1,170,8|0
248,56,17271,6,0,B|168:80|184:192|64:248,1,255
32,288,17883,1,8
152,352,18189,1,0
272,296,18495,5,0
336,272,18648,1,0
376,216,18801,1,0
336,160,18954,1,0
272,136,19108,1,8
136,136,19414,5,0
56,248,19720,2,0,B|136:296|224:248,1,170,4|0
288,136,20332,5,8
344,168,20485,1,0
344,232,20638,1,0
288,272,20791,1,0
216,272,20944,6,0,B|112:256|128:144,1,170
208,40,21557,5,8
275,40,21710,1,0
322,88,21863,1,0
323,155,22016,1,0
325,222,22169,6,0,B|333:302|309:342|213:334,1,170
168,336,22628,2,0,B|88:328|64:256|112:216,1,170
152,168,23087,2,0,B|240:120|320:176,1,170
352,224,23546,6,0,B|392:280|376:328|264:336,1,170
224,296,24006,1,8
224,160,24312,1,8
224,24,24618,6,0,B|296:48|336:120|336:160,1,170
320,208,25077,2,0,B|304:256|240:264,1,85,0|8
240,192,25383,2,0,B|192:208|176:256,1,85
48,296,25842,1,0
56,160,26148,5,0
88,96,26301,1,0
152,64,26454,1,8
220,64,26608,1,0
288,64,26761,2,0,B|344:32|392:104|472:56,1,170
456,200,27373,6,0,B|440:256|408:296|328:312,1,170,0|8
200,312,27985,2,0,B|128:288|128:232,1,85
112,200,28291,5,0
152,144,28444,1,0
200,104,28597,2,0,B|184:40|136:24,2,85,0|0|8
216,168,29057,1,0
224,200,29133,1,0
232,232,29210,1,0
320,328,29516,6,0,B|416:296|352:176|464:112,1,255
464,56,30128,1,8
400,32,30281,1,0
336,56,30434,1,0
296,112,30587,1,0
280,176,30740,6,0,B|248:296|160:304|120:168,1,255
104,112,31352,1,8
120,48,31506,1,0
184,24,31659,1,0
248,48,31812,1,0
264,112,31965,6,0,B|288:168|248:224|280:296,1,170
344,280,32424,2,0,B|320:216|360:168|328:96,1,170
400,112,32883,2,0,B|424:168|384:224|416:296,1,170
480,280,33342,2,0,B|456:216|496:168|464:96,1,170
440,48,33801,1,0
368,40,33954,1,0
336,48,34031,1,0
304,56,34108,1,8
232,56,34261,1,0
160,64,34414,5,0
96,88,34567,1,0
48,136,34720,2,0,B|24:240|48:264|144:264,1,170,0|8
176,272,35179,2,0,B|256:288|352:272,1,170
408,264,35638,2,0,B|456:256|504:232|456:128,1,170
408,88,36097,1,0
344,64,36250,1,8
280,88,36403,1,0
216,120,36557,1,0
176,248,36863,6,0,B|200:296|240:232|272:232|304:296|336:248|336:248|336:248,1,170
256,64,37628,1,0
256,264,38087,1,0
32,112,38699,5,0
88,152,38852,1,0
40,200,39006,2,0,B|56:256|144:240|176:320,1,170,0|4
368,304,39771,5,0
424,272,39924,1,0
376,224,40077,1,0
432,192,40230,2,0,B|464:136|416:80|472:16,1,170
256,24,40995,5,0
192,48,41148,1,0
240,96,41301,1,0
176,120,41454,2,0,B|128:184|160:248|96:288,1,170,0|4
312,328,42220,5,0
376,304,42373,1,0
328,256,42526,1,0
392,232,42679,2,0,B|448:184|376:112|440:64,1,170
224,40,43444,5,0
160,64,43597,1,0
216,104,43750,1,0
152,128,43903,2,0,B|112:176|168:224|96:304,1,170,0|4
312,312,44669,5,0
368,272,44822,1,0
320,224,44975,1,0
376,192,45128,2,0,B|368:128|272:104|280:48,1,170
88,128,45893,5,0
96,192,46046,1,0
104,256,46199,1,0
160,224,46352,1,0
216,192,46506,1,0
272,160,46659,2,0,B|352:120|448:160,1,170,4|0
376,272,48495,5,0
312,256,48648,1,0
336,192,48801,2,0,B|280:144|240:144,1,85
200,128,49108,2,0,B|128:120|80:176|160:240,1,170,4|8
192,280,49567,1,0
248,320,49720,6,0,B|304:344|344:328,1,85
304,272,50026,2,0,B|368:272|416:296,1,85,8|0
416,344,50332,2,0,B|464:312|472:248|392:208,1,170,0|8
336,168,50791,1,0
272,136,50944,5,0
208,160,51097,1,0
144,136,51250,1,8
80,160,51403,1,0
48,216,51557,2,0,B|32:264|96:328|184:288,1,170,4|8
232,280,52016,1,0
296,264,52169,6,0,B|352:216|336:184,1,85
272,192,52475,2,0,B|272:144|320:120,1,85,8|0
376,104,52781,2,0,B|456:88|488:152|472:208,1,170,0|8
448,264,53240,1,0
392,304,53393,1,0
336,264,53546,1,0
280,304,53699,2,0,B|216:312|176:296,1,85,8|0
136,272,54006,5,0
88,224,54159,1,0
152,208,54312,1,0
104,160,54465,1,0
168,144,54618,1,0
120,96,54771,1,0
184,80,54924,1,0
248,64,55077,1,0
304,104,55230,1,0
240,128,55383,1,0
296,168,55536,1,0
232,192,55689,1,0
288,232,55842,1,0
224,256,55995,1,0
280,296,56148,1,0
216,320,56301,1,0
160,280,56454,6,0,B|112:224|136:192|96:120,1,170,2|0
112,56,56914,2,0,B|176:32|232:64|320:24,1,170,2|0
344,40,57373,1,0
400,72,57526,1,0
424,136,57679,2,0,B|456:176|504:176,2,85,2|0|0
360,120,58138,2,0,B|272:88|168:128,1,170,2|0
136,152,58597,1,0
88,200,58750,1,0
64,264,58903,1,4
400,88,68699,6,0,B|392:176|320:160|320:264,1,170,0|8
288,288,69159,1,0
152,264,69465,1,0
96,224,69618,1,8
72,160,69771,1,0
88,96,69924,6,0,B|160:48|264:104,1,170,0|8
296,144,70383,2,0,B|336:192|344:240|296:304,1,170,0|0
240,328,70842,1,8
112,288,71148,6,0,B|80:224|96:200,1,85
112,144,71454,1,8
152,88,71608,2,0,B|224:64|288:104|352:80,1,170
388,88,72067,1,8
408,224,72373,6,0,B|384:288|336:312|264:304,1,170,0|8
272,240,72832,2,0,B|176:232|112:320,1,170
56,304,73291,1,8
48,272,73368,1,0
40,240,73444,1,0
24,176,73597,6,0,B|80:136|152:192|208:136,1,170,0|8
200,216,74057,2,0,B|256:176|328:232|384:176,1,170
424,152,74516,1,8
416,120,74592,1,0
408,88,74669,1,0
344,56,74822,5,0
272,64,74975,1,0
200,72,75128,1,8
144,112,75281,2,0,B|24:176|176:248,1,170
208,264,75740,1,8
240,280,75817,1,0
269,296,75893,1,0
328,320,76046,6,0,B|368:280|352:224,1,85
288,224,76352,2,0,B|296:168|336:144,1,85,8|0
392,136,76659,2,0,B|384:88|344:48,1,85
288,40,76965,1,8
152,40,77271,6,0,B|104:80|104:136,1,85
88,176,77577,1,8
104,240,77730,2,0,B|128:296|216:304|256:272,1,170
304,232,78189,1,8
256,104,78495,5,4
120,104,78801,2,0,B|96:160|104:240|136:280,1,170,8|0
264,264,79414,2,0,B|288:208|280:128|248:88,1,170,8|0
120,104,80026,5,8
72,152,80179,1,0
136,176,80332,1,0
88,224,80485,1,0
152,240,80638,2,0,B|192:296|256:280|304:336,1,170,8|0
360,328,81097,1,0
408,280,81250,6,0,B|432:208|376:160|408:96,1,170,8|0
360,56,81710,2,0,B|296:80|240:16|168:72,1,170
128,56,82169,1,0
64,176,82475,5,0
80,240,82628,1,0
128,192,82781,1,8
144,256,82934,1,0
192,208,83087,2,0,B|240:224|280:224,1,85
248,160,83393,2,0,B|304:160|352:176,1,85
336,240,83699,6,0,B|424:240|464:112|328:72,2,255,8|0|0
208,288,84924,1,0
144,304,85077,1,0
88,272,85230,1,8
72,208,85383,1,0
112,152,85536,2,0,B|160:112|208:96,1,85
248,88,85842,5,0
280,80,85919,1,0
312,72,85995,1,0
376,48,86148,2,0,B|416:104|392:152|440:224,1,170
344,312,86761,2,0,B|264:336|224:304|160:320,1,170
96,208,87373,5,8
144,160,87526,1,0
160,224,87679,1,8
208,176,87832,1,0
224,240,87985,1,8
360,240,88291,5,0
392,176,88444,2,0,B|464:144|464:80|352:32,1,170
321,53,88903,2,0,B|249:85|249:149|361:197,1,170,8|0
360,240,89363,1,0
360,304,89516,2,0,B|288:328|240:280|168:312,1,170
120,304,89975,1,0
80,248,90128,1,8
136,208,90281,1,0
176,264,90434,2,0,B|248:224|224:176|304:136,1,170
352,112,90893,1,0
408,80,91046,6,0,B|440:128|440:160,1,85
376,176,91352,1,8
312,192,91506,2,0,B|304:240|320:280,1,85
256,296,91812,1,0
192,312,91965,1,0
88,224,92271,5,0
144,96,92577,1,8
208,80,92730,1,0
272,64,92883,2,0,B|320:104|312:160,3,85
304,200,93495,6,0,B|272:256|208:288|136:288,2,170,0|8|0
392,96,94414,1,0
432,224,94720,1,0
480,272,94873,1,0
432,320,95026,1,8
384,272,95179,1,0
312,272,95332,2,0,B|248:248|192:320|120:256,1,170
152,136,95944,5,0
352,136,96403,1,0
256,312,96863,1,0
128,272,97169,5,0
64,248,97322,1,0
120,208,97475,1,0
56,184,97628,1,0
112,144,97781,1,0
48,120,97934,1,0
72,56,98087,6,0,B|136:56|184:80,1,85,4|0
216,88,98393,1,0
280,112,98546,1,0
344,136,98699,2,0,B|408:160|440:200,1,85
448,240,99006,1,0
416,304,99159,6,0,B|344:328|304:272|208:304,1,170
184,264,99618,1,0
120,232,99771,1,0
88,176,99924,2,0,B|96:128|136:104,1,85
192,72,100230,1,0
328,72,100536,6,0,B|344:112|328:168,1,85,4|0
264,176,100842,1,0
200,152,100995,1,0
136,128,101148,2,0,B|112:192|144:248,1,85
184,248,101454,1,0
248,280,101608,2,0,B|312:304|376:296|440:264,1,170
440,216,102067,1,0
424,152,102220,1,0
376,104,102373,2,0,B|392:56|424:32,2,85
352,168,102832,1,0
344,200,102909,1,0
336,232,102985,5,4
288,280,103138,1,0
224,296,103291,2,0,B|168:288|152:224,1,85
152,208,103521,1,0
160,176,103597,2,0,B|192:120|240:120,1,85
288,104,103903,1,0
352,112,104057,2,0,B|392:128|416:168,1,85
352,192,104363,1,0
288,216,104516,1,0
224,240,104669,1,0
160,264,104822,2,0,B|120:296|64:264,1,85
80,200,105128,2,0,B|120:168|176:200,1,85
224,192,105434,6,0,B|288:160|336:168,1,85,4|0
368,200,105740,1,0
416,248,105893,1,0
400,312,106046,2,0,B|344:328|280:312,2,85
456,272,106506,2,0,B|480:208|472:136|440:80,1,170
400,64,106965,2,0,B|336:48|288:72,1,85
280,64,107194,1,0
248,64,107271,1,0
176,64,107424,1,0
112,88,107577,2,0,B|56:136|56:184,1,85
56,224,107883,1,4
240,304,108342,5,0
304,288,108495,1,0
256,240,108648,1,0
320,224,108801,2,0,B|352:176|336:128,1,85
312,80,109108,1,0
112,120,109567,5,0
80,176,109720,1,0
144,176,109873,1,0
112,232,110026,2,0,B|184:256|224:240,1,85
264,256,110332,1,4
416,128,110791,5,0
456,184,110944,1,0
392,200,111097,1,0
440,248,111250,2,0,B|408:288|360:288,1,85
304,264,111557,1,0
200,88,112016,5,0
136,104,112169,1,0
184,152,112322,1,0
120,168,112475,1,0
168,216,112628,1,0
104,232,112781,2,0,B|80:272|88:296|168:304,1,85,4|0
192,312,113087,1,0
256,328,113240,5,0
320,320,113393,1,0
272,264,113546,1,0
336,256,113699,2,0,B|352:216|400:200,1,85
456,168,114006,1,4
472,104,114159,1,0
432,48,114312,6,0,B|368:40|328:56,1,85
360,112,114618,2,0,B|304:128|248:104,1,85
280,48,114924,2,0,B|232:40|176:56,1,85
168,112,115230,1,4
104,232,115536,5,0
160,272,115689,1,0
216,232,115842,2,0,B|288:208|320:224,1,85
368,200,116148,1,0
408,144,116301,1,0
368,88,116454,1,0
304,64,116608,5,0
272,80,116684,1,0
240,96,116761,1,8
176,64,116914,1,0
144,48,116990,1,0
112,32,117067,1,8
64,80,117220,1,0
40,144,117373,2,0,B|40:192|72:224,1,85
120,264,117679,5,4
184,288,117832,1,0
248,272,117985,2,0,B|312:256|336:200,1,85,8|0
256,200,118291,2,0,B|296:144|336:136,1,85
368,184,118597,2,0,B|416:136|416:96,1,85,8|0
368,56,118903,5,0
304,40,119057,1,0
240,56,119210,2,0,B|184:80|168:120,1,85,8|0
152,136,119439,1,0
128,160,119516,1,0
96,216,119669,1,0
104,280,119822,2,0,B|160:320|216:312,1,85,8|0
248,296,120128,5,4
304,256,120281,1,0
240,232,120434,2,0,B|184:200|224:152,1,85,8|0
280,184,120740,2,0,B|320:144|256:88,1,85
208,104,121046,2,0,B|176:56|232:24,1,85,8|0
288,24,121352,5,0
352,40,121506,1,0
416,56,121659,2,0,B|480:104|400:144,1,85,8|0
360,136,121965,2,0,B|312:176|384:224,1,85
432,208,122271,2,0,B|472:248|424:288,1,85,8|0
368,312,122577,5,0
304,288,122730,1,0
240,264,122883,1,0
176,240,123036,1,0
232,200,123189,1,0
288,168,123342,1,0
344,136,123495,1,0
400,104,123648,1,0
336,80,123801,1,0
272,56,123954,1,0
208,32,124108,1,0
152,64,124261,1,0
96,96,124414,1,0
40,128,124567,1,0
96,160,124720,1,0
152,192,124873,1,0
208,224,125026,6,0,B|288:264|392:216,1,170,2|0
368,152,125485,2,0,B|288:112|184:160,1,170,2|0
152,192,125944,1,0
120,256,126097,1,0
168,304,126250,2,0,B|136:352|80:344,2,85,2|0|2
224,264,126710,2,0,B|272:240|368:224|416:232,1,170,2|0
456,232,127169,1,2
464,200,127245,1,0
472,168,127322,1,0
488,104,127475,1,4
360,264,146761,5,0
288,256,146914,1,0
216,248,147067,2,0,B|168:232|160:168,1,85
168,120,147373,1,8
208,64,147526,2,0,B|272:72|328:128|344:192,2,170
72,88,148444,1,0
40,216,148750,1,0
160,288,149057,5,0
224,312,149210,1,0
288,288,149363,1,0
328,232,149516,2,0,B|352:176|336:112,1,85
288,104,149822,1,8
224,72,149975,1,0
160,104,150128,1,0
56,192,150434,5,0
192,192,150740,1,0
328,192,151046,1,0
376,144,151199,1,0
424,192,151352,1,0
376,240,151506,1,0
328,192,151659,2,0,B|296:128|240:104,1,85
248,192,151965,6,0,B|200:152|192:112,1,85
240,72,152271,2,0,B|208:32|152:24,1,85,8|0
112,64,152577,1,0
48,184,152883,1,0
168,240,153189,1,0
232,120,153495,1,0
352,64,153801,5,0
408,104,153954,1,0
352,144,154108,1,0
408,184,154261,2,0,B|384:248|320:232|280:304,1,170
216,296,154720,2,0,B|136:272|136:224,1,85,0|0
208,224,155026,2,0,B|176:184|120:160,1,85,8|0
80,200,155332,2,0,B|32:168|32:120,1,85
88,192,157169,6,0,B|272:192,1,170,8|0
320,160,157628,1,0
320,88,157781,1,8
264,48,157934,2,0,B|168:48,1,85
112,48,158240,1,0
64,96,158393,1,8
40,160,158546,1,0
64,224,158699,2,0,B|112:272|232:264,1,170,0|8
256,192,159312,12,4,161761
424,192,162067,6,0,B|240:192,1,170,8|0
192,224,162526,1,0
192,296,162679,1,8
248,336,162832,2,0,B|344:336,1,85
400,336,163138,1,0
448,288,163291,1,8
472,224,163444,1,0
448,160,163597,2,0,B|400:112|280:120,1,170,0|8
256,192,164210,12,4,166659
64,104,167118,5,0
128,120,167271,1,0
80,168,167424,1,0
144,184,167577,2,0,B|120:224|72:248,1,85,0|0
24,200,167883,2,0,B|8:288|48:328|152:288,1,170
176,288,168342,1,0
240,272,168495,5,0
304,256,168648,1,0
256,208,168801,1,0
320,192,168954,1,0
272,144,169108,2,0,B|312:112|384:104|392:224,1,170,4|0
368,264,169567,1,0
328,320,169720,5,0
256,328,169873,1,0
288,264,170026,1,0
216,272,170179,1,0
176,328,170332,2,0,B|128:304|128:208|216:200,1,170
264,176,170791,1,0
328,152,170944,5,0
384,120,171097,1,0
320,88,171250,1,0
376,56,171403,1,0
312,24,171557,2,0,B|248:32|224:88|240:136|272:176,1,170,4|0
280,216,172016,1,0
296,280,172169,5,0
272,344,172322,1,0
240,280,172475,1,0
216,344,172628,1,0
184,280,172781,2,0,B|152:216|200:152|120:88,1,170
104,64,173240,1,0
56,112,173393,5,0
104,160,173546,1,0
48,200,173699,1,0
96,248,173852,1,0
256,192,174006,12,4,175536
120,56,175842,5,0
184,72,175995,1,0
240,112,176148,1,0
280,168,176301,1,0
288,232,176454,2,0,B|272:296|192:296,1,85,4|0
160,296,176761,1,8
96,264,176914,5,0
72,200,177067,1,0
96,136,177220,1,0
152,104,177373,1,8
216,96,177526,1,0
280,104,177679,2,0,B|336:104|368:128,1,85,4|0
416,160,177985,1,8
456,216,178138,5,0
440,280,178291,1,0
384,320,178444,1,0
312,320,178597,1,8
248,296,178750,1,0
200,248,178903,2,0,B|184:184|216:160,1,85,4|0
248,112,179210,1,8
312,80,179363,5,0
376,104,179516,1,0
392,168,179669,1,0
368,232,179822,1,8
312,264,179975,1,0
248,248,180128,2,0,B|184:232|184:200,1,85,4|0
160,136,180434,1,8
184,72,180587,5,0
248,88,180740,1,0
312,104,180893,1,0
248,136,181046,1,8
184,160,181199,1,0
120,184,181352,5,0
144,248,181506,1,0
192,296,181659,1,0
256,320,181812,1,0
320,296,181965,1,0
368,248,182118,1,0
400,184,182271,1,0
368,120,182424,1,0
320,72,182577,1,0
256,48,182730,1,0
192,72,182883,1,0
144,120,183036,1,0
120,184,183189,1,0
184,184,183342,1,0
248,184,183495,1,0
312,184,183648,1,0
376,184,183801,6,0,B|432:240|416:296|304:280,1,170,2|0
257,283,184261,2,0,B|152:280|161:227|216:176,1,170,2|0
256,128,184720,1,0
320,128,184873,1,0
384,128,185026,6,0,B|528:160|376:216,1,170,2|0
320,216,185485,2,0,B|176:248|328:304,1,170,2|0
376,264,185944,1,0
432,224,186097,1,0
432,152,186250,6,0,B|360:88|248:168,1,170,2|0
256,216,186710,2,0,B|176:272|72:200,1,170,2|0
72,152,187169,1,0
88,88,187322,1,0
152,64,187475,6,2,B|224:48|264:56,1,85
304,72,187781,1,2
352,120,187934,2,2,B|392:208|336:240|264:216,1,170
248,216,188317,1,0
214,211,188393,1,2
146,202,188546,1,2
187,148,188699,1,4
