osu file format v14

[General]
AudioFilename: Fatal Bazooka-Canapi (www.myfreemp3.cc).mp3
AudioLeadIn: 0
PreviewTime: 22784
Countdown: 0
SampleSet: Normal
StackLeniency: 0.7
Mode: 1
LetterboxInBreaks: 0
WidescreenStoryboard: 1

[Editor]
Bookmarks: 9780
DistanceSpacing: 1
BeatDivisor: 1
GridSize: 32
TimelineZoom: 0.5999998

[Metadata]
Title:Canapi
TitleUnicode:Canapi
Artist:Fatal Bazooka
ArtistUnicode:Fatal Bazooka
Creator:Totoro le Pacha
Version:Kantan
Source:Fatal
Tags:michael youn guéridon marie antoinette _gezo_
BeatmapID:589895
BeatmapSetID:246757

[Difficulty]
HPDrainRate:3
CircleSize:4
OverallDifficulty:2
ApproachRate:3
SliderMultiplier:1.4
SliderTickRate:1

[Events]
//Background and Video events
0,0,"maxresdefault.jpg",0,0
Video,34,"Canapi_Extended.avi"
//Break Periods
//Storyboard Layer 0 (Background)
//Storyboard Layer 1 (Fail)
//Storyboard Layer 2 (Pass)
//Storyboard Layer 3 (Foreground)
//Storyboard Sound Samples

[TimingPoints]
34,500,4,1,0,60,1,0
24034,-100,4,1,0,60,0,1
40034,-100,4,1,0,60,0,0

[HitObjects]
256,192,8034,5,4,0:0:0:0:
256,192,9034,1,8,0:0:0:0:
256,192,10034,1,0,0:0:0:0:
256,192,10534,1,0,0:0:0:0:
256,192,11034,1,8,0:0:0:0:
256,192,12034,1,0,0:0:0:0:
256,192,13034,1,8,0:0:0:0:
256,192,14034,1,0,0:0:0:0:
256,192,14534,1,8,0:0:0:0:
256,192,15034,1,8,0:0:0:0:
256,192,16034,1,0,0:0:0:0:
256,192,17034,1,8,0:0:0:0:
256,192,18034,1,0,0:0:0:0:
256,192,18534,1,8,0:0:0:0:
256,192,19034,1,0,0:0:0:0:
256,192,20034,1,0,0:0:0:0:
256,192,22034,1,8,0:0:0:0:
256,192,24034,1,4,0:0:0:0:
256,192,25034,1,8,0:0:0:0:
256,192,25534,1,0,0:0:0:0:
256,192,26034,1,8,0:0:0:0:
256,192,27034,1,8,0:0:0:0:
256,192,28034,1,0,0:0:0:0:
256,192,29034,1,0,0:0:0:0:
256,192,29534,1,8,0:0:0:0:
256,192,30034,1,0,0:0:0:0:
256,192,31034,1,8,0:0:0:0:
256,192,32034,1,4,0:0:0:0:
256,192,33034,1,8,0:0:0:0:
256,192,33534,1,0,0:0:0:0:
256,192,34034,1,8,0:0:0:0:
256,192,35034,1,8,0:0:0:0:
256,192,36034,1,0,0:0:0:0:
256,192,37034,1,0,0:0:0:0:
256,192,37534,1,8,0:0:0:0:
256,192,38034,1,0,0:0:0:0:
256,192,39034,1,8,0:0:0:0:
256,192,40034,1,0,0:0:0:0:
256,192,42034,1,0,0:0:0:0:
256,192,43034,1,8,0:0:0:0:
256,192,44034,1,0,0:0:0:0:
256,192,46034,1,8,0:0:0:0:
256,192,47034,1,0,0:0:0:0:
256,192,47534,1,8,0:0:0:0:
256,192,48034,1,8,0:0:0:0:
256,192,50034,1,0,0:0:0:0:
256,192,51034,1,8,0:0:0:0:
256,192,52034,1,0,0:0:0:0:
249,189,54034,1,8,0:0:0:0:
249,189,55034,1,0,0:0:0:0:
249,189,55534,1,8,0:0:0:0:
249,189,56034,1,8,0:0:0:0:
256,192,57034,1,0,0:0:0:0:
241,187,57534,1,12,0:0:0:0:
