osu file format v9

[General]
AudioFilename: Far East Movement - Like A G6 ft. The Cataracs.mp3
AudioLeadIn: 0
PreviewTime: 77412
Countdown: 1
SampleSet: Soft
StackLeniency: 0.7
Mode: 0
LetterboxInBreaks: 1

[Editor]
DistanceSpacing: 1
BeatDivisor: 2
GridSize: 8

[Metadata]
Title:Like a G6
Artist:Far East Movement ft. The Cataracs
Creator:poisonchan
Version:Like an M12
Source:
Tags:Dev Katsuri Blue Dragon Wiinter Dragvon MathiasXII Medi-chan

[Difficulty]
HPDrainRate:3
CircleSize:3
OverallDifficulty:2
ApproachRate:2
SliderMultiplier:1.1
SliderTickRate:1

[Events]
//Background and Video events
0,0,"gsix.png"
//Break Periods
2,62252,72012
2,154412,160332
//Storyboard Layer 0 (Background)
//Storyboard Layer 1 (Fail)
//Storyboard Layer 2 (Pass)
//Storyboard Layer 3 (Foreground)
//Storyboard Sound Samples
//Background Colour Transformations
3,100,163,162,255

[TimingPoints]
15972,480,4,2,0,100,1,0

[Colours]
Combo1 : 7,170,248
Combo2 : 128,0,255
Combo3 : 255,0,128

[HitObjects]
216,105,15972,2,0,B|164:54|53:76|37:165,1,220,4|0
144,192,17412,1,2
73,276,17892,2,0,B|106:299|140:307|177:296,1,110,0|2
255,218,18852,1,0
361,192,19332,1,2
471,192,19812,6,0,B|423:144|487:80|423:16,2,165,0|0|2
416,288,21732,1,0
313,328,22212,2,0,B|193:328,1,110,2|0
100,288,23172,1,2
160,196,23652,6,0,B|224:260|288:260|352:196,1,220
256,141,25092,1,8
208,42,25572,2,0,B|232:8|280:8|304:42,2,110,0|8|0
143,131,27012,1,8
34,117,27492,6,0,B|18:133|18:157|18:157|18:181|42:205|42:229|42:229|42:253|18:277,2,165,0|0|8
144,131,29412,1,0
254,117,29892,2,0,B|254:237,2,110,8|0|12
362,137,31332,6,0,B|398:92|470:92|506:137,2,165,0|2|8
362,246,33252,2,0,B|398:291|470:291|506:246,2,165,0|2|8
264,192,35172,6,0,B|80:192,1,165,0|2
38,345,36612,1,8
147,345,37092,2,0,B|315:345,1,165,0|2
477,345,38532,1,4
480,232,39012,6,0,B|456:112|384:112|384:112|312:112,1,220,2|2
256,193,40452,1,8
181,112,40932,2,0,B|128:112|128:112|56:112|32:232,1,220,2|2
109,309,42372,1,8
210,267,42852,6,4,B|256:212|304:268,3,110
256,192,44772,12,0,46212
336,80,46692,6,4,B|160:80,1,165
91,343,48612,1,0
201,343,49092,1,8
311,343,49572,1,0
421,343,50052,1,8
355,255,50532,6,0,B|299:199|211:199|155:255,1,220,0|2
78,175,51972,1,8
157,99,52452,2,0,B|211:44|299:44|355:100,1,220,0|2
434,175,53892,1,8
434,285,54372,5,0
324,285,54852,1,8
324,175,55332,2,0,B|203:175,1,110,0|8
104,175,56292,1,0
104,65,56772,1,8
214,65,57252,2,0,B|347:65,1,110,0|12
434,65,58212,6,0,B|474:105,2,55,0|0|8
356,142,59172,1,0
258,192,59652,1,8
256,192,60132,12,4,62052
256,192,73572,12,2,75492
315,43,77412,5,4
392,120,77892,6,0,B|264:120,1,110,8|0
204,197,78852,1,8
126,274,79332,2,0,B|252:274,1,110,0|8
313,351,80292,1,0
390,273,80772,1,8
488,216,81252,6,0,B|488:152,2,55,0|0|8
397,154,82212,1,0
319,231,82692,1,8
241,153,83172,1,0
163,230,83652,2,0,B|163:342,2,110,8|0|8
30,55,85572,6,0,B|86:55|46:135|102:135,1,110,8|0
201,133,86532,1,8
311,133,87012,2,0,B|367:133|327:213|383:213,1,110,0|8
482,211,87972,1,0
482,100,88452,1,8
376,96,88932,6,0,B|248:96,1,110,0|8
208,192,89892,2,0,B|336:192,1,110,0|8
376,288,90852,2,0,B|256:288,1,110,0|8
155,288,91812,1,4
155,288,92292,1,4
152,176,92772,6,2,B|152:64|192:64,2,110
256,211,94212,1,8
366,208,94692,2,2,B|366:320|326:320,2,110
256,211,96132,1,8
256,96,96612,6,0,B|208:32|112:32|64:96,1,220,0|2
159,151,98052,1,8
65,208,98532,2,0,B|111:269|207:269|255:205,1,220,0|2
352,152,99972,1,8
408,57,100452,6,0,B|469:103|469:199|405:247,1,220,0|2
326,325,101892,1,8
301,217,102372,2,0,B|256:184|256:184|208:224,2,110
326,109,103812,1,8
256,24,104292,5,4
74,147,105252,1,4
144,355,106212,2,4,B|280:355|368:291|368:155,1,330
336,61,108132,6,2,B|168:61,1,165
390,227,110052,1,0
312,304,110532,1,8
202,304,111012,1,0
124,226,111492,1,8
13,226,111972,6,0,B|16:144|88:72|168:72,1,220
256,93,113412,1,8
363,73,113892,2,0,B|424:72|496:144|499:226,1,220
498,333,115332,1,8
391,359,115812,5,0
281,359,116292,1,8
184,305,116772,2,0,B|232:257|296:257,1,110,0|8
337,163,117732,1,0
237,116,118212,1,8
338,72,118692,2,0,B|290:24|218:24,1,110,0|8
144,72,119652,6,0,B|96:144|96:240|152:296|232:296|288:240,1,330,2|8
229,152,121572,2,0,B|271:110|351:110|407:166|407:262|359:334,1,330,2|4
248,328,123492,6,0,B|64:328,1,165,0|2
168,186,124932,1,8
278,186,125412,2,0,B|443:186,1,165,0|2
361,42,126852,1,8
251,42,127332,6,0,B|83:42,1,165,0|2
160,192,128772,1,8
270,192,129252,1,0
490,192,130212,1,4
319,331,131172,6,0,B|318:220|318:220|367:189|367:125,1,220,0|2
256,127,132612,1,8
256,16,133092,2,0,B|193:15|165:64|165:64|52:63,1,220,0|2
52,174,134532,1,12
256,93,135492,5,0
256,203,135972,1,0
256,313,136452,1,8
256,192,136932,12,8,138372
224,60,138852,6,0,B|387:223,1,220,4|0
269,215,140292,1,8
269,325,140772,2,0,B|109:165,1,220,0|2
155,67,142212,1,8
256,25,142692,5,4
366,215,143652,1,4
145,215,144612,1,4
365,215,145572,1,8
256,243,146052,1,8
311,31,147012,5,8
201,31,147492,1,0
256,128,147972,2,0,B|256:256,1,110,8|0
311,333,148932,1,8
201,333,149412,1,0
117,262,149892,1,8
89,155,150372,6,2,B|89:83|105:51|105:51|121:19|153:11|185:19|201:51|201:51|217:83|217:155,1,330,2|8
295,231,152292,2,2,B|295:303|311:335|311:335|327:367|359:375|391:367|407:335|407:335|423:303|423:231,1,330,2|8
423,122,154212,5,4
62,302,161892,6,4,B|94:358|166:358|197:302,1,165
361,303,163332,1,8
308,206,163812,2,0,B|353:137|353:137|399:206,2,165,2|2|8
197,206,165732,6,0,B|151:275|151:275|103:203,2,165,2|2|8
72,272,169572,6,2,B|40:192|72:104,1,165
219,41,171012,1,8
329,41,171492,1,0
406,118,171972,1,8
328,195,172452,1,0
218,195,172932,1,8
109,208,173412,6,0,B|141:296|295:295,1,220,0|2
256,192,174852,1,8
216,89,175332,2,0,B|371:88|403:176,1,220,0|2
324,253,176772,1,8
432,256,177252,6,4,B|427:321|384:359|329:365,2,165
434,142,179172,1,0
342,81,179652,1,8
342,191,180132,1,0
245,138,180612,1,8
137,115,181092,6,0,B|137:18|137:18|65:18|41:82,1,220,0|2
41,191,182532,1,8
41,301,183012,2,0,B|64:364|136:364|136:364|136:267,1,220,0|2
218,192,184452,1,10
295,269,184932,5,4
401,241,185412,2,0,B|425:209|425:177|401:137,1,110
295,110,186372,1,10
76,97,187332,2,0,B|76:129|92:169|124:193|124:193|92:217|76:257|76:289,1,220,2|10
172,303,188772,5,0
280,304,189252,2,0,B|344:304|380:268,1,110,2|0
280,221,190212,2,0,B|328:173|328:126,1,110,10|0
223,159,191172,2,0,B|223:47,1,110,2|2
128,104,192132,5,10
128,214,192612,2,0,B|184:310|184:310|224:310|256:286|256:246,1,220
256,136,194052,2,0,B|256:248,1,110,10|0
256,136,195012,2,0,B|256:95|288:71|328:71|328:71|384:167,1,220,0|10
200,289,196932,5,0
200,179,197412,1,0
310,179,197892,1,10
310,289,198372,1,0
408,232,198852,1,4
408,232,199332,1,4
408,232,199812,1,4
264,64,200772,6,0,B|216:56|168:64|128:96|112:144|120:192,1,220,8|8
224,168,202212,1,0
248,272,202692,2,0,B|295:259|316:231|328:201,1,110,8|0
370,101,203652,6,0,B|402:53|482:53|514:101,2,165,8|2|2
442,184,205572,1,8
442,294,206052,1,0
364,216,206532,2,0,B|324:176|324:176|284:216,1,110,12|4
208,291,207492,1,12
112,240,207972,6,0,B|96:168|136:120|208:136|224:71,1,220
256,176,209412,1,8
288,70,209892,2,0,B|298:122|358:122|377:156,1,110,0|8
400,240,210852,1,0
336,328,211332,6,0,B|304:344|288:344|288:344|272:344|240:328|224:328|224:328|208:328|176:344,2,165,8|2|2
256,256,213252,1,8
256,256,213732,1,0
345,192,214212,1,8
256,128,214692,1,2
167,192,215172,1,4
