osu file format v9

[General]
AudioFilename: Far East Movement - Like A G6 ft. The Cataracs.mp3
AudioLeadIn: 0
PreviewTime: 77412
Countdown: 1
SampleSet: Soft
StackLeniency: 0.7
Mode: 0
LetterboxInBreaks: 1

[Editor]
Bookmarks: 15962,23642,31322,46682,54362,61562,77402,85082,92762,108122,115802,123002,138842,146522,154202,161882,169562,177242,184442,200282,215162
DistanceSpacing: 0.5
BeatDivisor: 4
GridSize: 4

[Metadata]
Title:Like a G6
Artist:Far East Movement ft. The Cataracs
Creator:poisonchan
Version:Like a Blizzard
Source:
Tags:Dev Katsuri Blue Dragon Wiinter Dragvon MathiasXII Medi-chan

[Difficulty]
HPDrainRate:6
CircleSize:4
OverallDifficulty:6
ApproachRate:7
SliderMultiplier:2
SliderTickRate:2

[Events]
//Background and Video events
0,0,"gsix.png"
//Break Periods
2,154212,160992
//Storyboard Layer 0 (Background)
//Storyboard Layer 1 (Fail)
//Storyboard Layer 2 (Pass)
//Storyboard Layer 3 (Foreground)
Sprite,Foreground,Centre,"Sb\poiflash.png",320,240 M,0,15012,,235,389 F,1,15012,15492,1,0 S,1,15012,15492,1,1.39936 F,1,62052,62532,1,0 S,1,62052,62532,1,1.39936 F,1,161892,162372,1,0 S,1,161892,162372,1,1.39936 F,1,184932,185412,1,0 S,1,184932,185412,1,1.39936
Sprite,Foreground,Centre,"Sb\poi.png",320,240 M,0,15012,,234,389 F,1,15012,15492,0,1 F,0,15492,23412,1 F,0,23412,23652,1,0 F,0,62052,62532,1 F,0,62532,92532,1 F,1,92532,92772,1,0 F,1,161892,162372,0.001736111,1 F,0,162372,169332,1,0.9973823 F,1,169332,169572,0.9973823,0 F,1,184932,185412,6.926266E-05,1 F,0,185412,200052,1,0.9991631 F,1,200052,200292,0.9991631,0
Sprite,Foreground,Centre,"Sb\wiinflash.png",320,240 M,0,23652,,172,398 F,1,23652,24132,1,0 S,1,23652,24132,1,1.37888 F,1,123492,123972,1,0 S,1,123492,123972,1,1.37888 F,1,177252,177732,1,0 S,1,177252,177732,1,1.37888 F,1,200292,200772,1,0 S,1,200292,200772,1,1.37888
Sprite,Foreground,Centre,"Sb\wiin.png",320,240 M,0,23652,,173,398 F,1,23652,24132,0,1 F,0,24132,31092,1,0.9999329 F,1,31092,31332,0.9999329,0 F,1,123492,123972,0.001735995,1 F,0,123972,153972,1,0.999381 F,1,153972,154212,0.999381,0 F,1,177252,177732,0,0.999385 F,0,177732,184692,0.999385,0.9989657 F,1,184692,184932,0.9989657,0 F,1,200292,200772,1.734316E-05,1 F,0,200772,213732,1,0.9999956 F,1,213732,214212,0.9999956,0
Sprite,Foreground,Centre,"Sb\dragflash.png",320,240 M,0,31332,,203,391 F,1,31332,31812,1,0 S,1,31332,31812,1,1.28672 F,1,92772,93252,1,0 S,1,92772,93252,1,1.28672 F,1,169572,170052,1,0 S,1,169572,170052,1,1.28672
Sprite,Foreground,Centre,"Sb\drag.png",320,240 M,0,31332,,203,390 F,1,31332,31812,0,1 F,0,31812,61812,1,0.9993799 F,1,61812,62052,0.9993799,0 F,1,92772,93252,0,1 F,0,93252,123252,1,0.9996513 F,1,123252,123492,0.9996513,0 F,1,169572,170052,0,0.9996542 F,0,170052,177012,0.9996542,0.9994487 F,1,177012,177252,0.9994487,0
//Storyboard Sound Samples
//Background Colour Transformations
3,100,163,162,255

[TimingPoints]
15972,480,4,2,0,100,1,0
31202,-100,4,1,0,100,0,0
58692,-83.3333333333333,4,1,0,100,0,0
59172,-71.4285714285714,4,1,0,100,0,0
59652,-62.5,4,1,0,100,0,0
60612,-100,4,1,0,100,0,0
61212,-100,4,1,0,37,0,0
61452,-100,4,2,0,100,0,0
92642,-100,4,1,0,100,0,0
120132,-83.3333333333333,4,1,0,100,0,0
120612,-71.4285714285714,4,1,0,100,0,0
121092,-62.5,4,1,0,100,0,0
122882,-100,4,2,0,100,0,0
132362,-133.333333333333,4,2,0,100,0,0
133082,-100,4,2,0,100,0,0
137162,-80,4,2,0,100,0,0
137642,-100,4,2,0,100,0,0
154082,-100,4,1,0,100,0,0
177242,-133.333333333333,4,1,0,100,0,0
178442,-100,4,1,0,100,0,0
184322,-100,4,2,0,100,0,0
197772,-200,4,2,0,100,0,0
198492,-100,4,2,0,100,0,0
213972,-100,4,2,0,81,0,0
214692,-133.333333333333,4,2,0,100,0,0
215172,-100,4,2,0,100,0,0

[Colours]
Combo1 : 7,170,248
Combo2 : 128,0,255
Combo3 : 255,0,128

[HitObjects]
256,40,15972,1,4
104,144,16212,2,0,B|104:216|200:216,1,100,0|8
184,136,16692,1,0
324,148,16932,2,0,B|324:76|420:76,1,100
404,156,17412,1,8
144,312,17892,5,0
80,224,18132,2,0,B|96:144|184:168,1,100,0|8
240,136,18612,2,0,B|224:56|136:80,1,100
88,120,19092,1,0
88,120,19332,5,8
160,184,19572,1,0
160,208,19692,1,0
168,232,19812,2,0,B|200:272,1,50,4|0
224,280,20052,1,0
248,280,20172,1,0
272,272,20292,1,8
240,112,20532,6,0,B|288:48|352:112,1,100,0|8
312,192,21012,1,0
384,280,21252,2,0,B|336:344|272:280,1,100,8|0
312,192,21732,1,8
280,264,21972,5,0
240,256,22092,1,0
208,232,22212,1,8
192,200,22332,1,0
184,160,22452,1,0
184,120,22572,1,0
200,80,22692,1,8
272,40,22932,1,4
352,64,23172,2,0,B|408:104|368:176,1,100,8|0
352,272,23652,6,0,B|320:312|248:328,1,100,8|0
216,296,24012,1,0
168,264,24132,1,8
144,216,24252,1,0
160,160,24372,1,0
256,104,24612,2,0,B|320:176|448:176,1,200,0|8
352,248,25332,5,0
456,288,25572,1,0
464,176,25812,2,0,B|432:136|352:120,1,100,0|8
328,144,26172,1,0
280,176,26292,1,0
240,216,26412,1,0
208,264,26532,1,8
88,80,27012,5,8
96,192,27252,2,0,B|160:232,1,50
208,136,27612,1,0
248,96,27732,1,0
360,112,27972,1,8
440,184,28212,1,0
344,240,28452,2,0,B|320:280|240:280,1,100,4|0
152,240,28932,1,8
136,128,29172,2,0,B|160:168|272:176,1,100,0|0
392,128,29892,5,8
288,80,30132,1,0
288,80,30372,2,0,B|248:176|272:288,2,200,0|8|0
288,80,31452,5,0
288,80,31572,1,0
192,80,31812,2,0,B|88:80,1,100,8|0
32,160,32292,2,0,B|200:160,1,150
182,160,32772,1,8
392,336,33252,6,0,B|456:336,2,50
312,248,33732,1,8
312,248,33972,1,0
192,248,34212,2,0,B|128:248|128:176,1,100
128,128,34572,2,0,B|128:64|176:64,2,50,0|8|0
344,64,35172,5,0
440,136,35412,1,0
480,176,35532,1,0
440,216,35652,1,8
400,320,35892,1,0
352,288,36012,1,0
304,320,36132,1,0
256,224,36372,1,0
256,112,36612,6,0,B|368:112,1,100,8|0
256,112,37092,2,0,B|144:112,1,100
136,112,37452,1,0
120,112,37572,1,8
104,112,37692,1,0
88,112,37812,2,0,B|88:224,1,100
116,320,38292,5,0
140,320,38412,1,0
164,320,38532,1,8
188,320,38652,1,0
212,320,38772,1,0
236,320,38892,1,0
256,320,39012,2,0,B|360:320,1,100
456,320,39492,6,0,B|496:280|448:216,1,100,8|0
384,152,39972,1,0
384,40,40212,2,0,B|512:40,2,100,0|8|0
256,48,40932,1,0
256,168,41172,1,0
256,168,41292,1,0
256,168,41412,1,8
160,96,41652,1,0
256,168,41892,1,0
136,192,42132,2,0,B|136:304,1,100,0|8
376,336,42852,5,0
456,248,43092,2,0,B|360:184,1,100,0|8
376,72,43572,1,0
256,112,43812,1,0
152,168,44052,2,0,B|56:104,1,100,0|8
128,240,44532,1,0
256,336,44772,1,0
368,240,45012,2,0,B|408:152|328:128,1,100,0|8
256,192,45732,12,4,46692
88,80,47172,5,8
208,80,47412,2,0,B|272:80|280:160|344:144|400:144,1,200
464,264,48132,1,8
464,264,48372,2,0,B|352:264,1,100
96,192,49092,1,8
408,192,49572,1,0
408,192,49812,2,0,B|296:192,1,100,0|8
256,64,50292,5,0
352,80,50532,2,0,B|400:96|400:96|368:136,1,100
304,216,51012,2,0,B|272:264|272:264|320:280|320:280,1,100,8|0
416,280,51492,2,0,B|416:168,1,100
320,144,51972,1,8
320,144,52212,1,0
224,144,52452,2,0,B|112:144,1,100
24,144,52932,1,8
40,240,53172,2,0,B|8:272|80:312|40:328,1,100,0|0
256,312,53892,5,8
256,312,54132,1,0
304,312,54252,1,0
352,312,54372,1,8
448,312,54612,2,0,B|448:200,1,100,0|8
336,216,55092,1,0
240,216,55332,2,0,B|248:144|320:88|400:96,1,200,8|8
378,95,56052,5,0
424,120,56172,1,0
432,168,56292,1,8
432,264,56532,1,0
336,264,56772,2,0,B|224:264,1,100,8|0
136,264,57252,2,0,B|96:216|112:160,1,100,8|0
120,120,57612,2,0,B|128:96|152:80,1,50,0|8
256,40,57972,5,0
352,80,58212,2,0,B|448:160,1,100,8|0
432,200,58572,1,0
432,264,58692,2,0,B|312:320,1,120.000002861023,8|0
256,320,59052,1,0
184,320,59172,2,0,B|40:256,1,139.99999666214,8|0
40,184,59532,1,0
48,104,59652,2,0,B|208:56,1,160,8|0
256,192,60132,5,0
256,192,60372,1,0
256,192,60612,12,4,61332
256,64,61572,2,0,B|256:136|336:136,1,100
128,192,62052,2,0,B|200:192|200:112,1,100
256,320,62532,2,0,B|256:248|176:248,1,100,8|0
384,192,63012,2,0,B|312:192|312:272,1,100,8|0
184,200,63492,5,8
80,104,63732,1,0
200,32,63972,2,0,B|256:32|264:112,1,100
176,208,64452,5,8
200,240,64572,1,0
232,264,64692,1,0
264,280,64812,1,0
304,264,64932,1,8
336,240,65052,1,0
360,208,65172,1,0
464,304,65412,5,8
256,352,65652,1,0
48,296,65892,1,0
256,176,66372,5,8
256,136,66612,1,0
256,96,66852,1,0
256,56,67092,1,0
256,196,67332,5,8
256,336,67572,1,0
256,56,67812,1,0
88,80,68292,6,0,B|96:208|168:256,1,200,8|0
216,296,68892,1,0
272,320,69012,1,0
328,312,69132,1,0
376,280,69252,1,8
416,176,69492,5,0
320,72,69732,1,0
232,176,69972,1,0
144,288,70212,1,8
56,184,70452,2,0,B|56:72|184:48,1,200
232,48,71052,1,0
280,56,71172,1,8
320,72,71292,1,0
360,104,71412,1,0
384,144,71532,1,0
400,192,71652,1,8
64,48,72132,5,8
256,304,72612,1,0
448,48,73092,1,8
160,192,73572,5,0
257,122,73812,1,0
223,247,74052,1,8
178,114,74292,1,0
300,199,74532,1,0
317,357,74772,1,0
410,215,75012,1,8
245,288,75252,1,0
428,336,75492,1,0
96,288,75972,5,8
80,152,76212,1,0
216,184,76452,1,8
216,184,76572,1,8
216,184,76692,1,8
216,184,76932,1,4
424,56,77412,5,0
320,112,77652,1,0
320,112,77892,1,8
416,184,78132,1,0
416,184,78372,1,0
304,232,78612,1,0
304,232,78852,2,0,B|216:296|136:168,1,200,8|0
128,136,79452,1,0
128,96,79572,1,0
144,64,79692,1,0
176,40,79812,1,8
328,88,80292,1,8
240,224,80772,5,8
336,328,81012,1,0
336,328,81132,1,2
440,232,81372,1,0
440,232,81492,1,2
344,136,81732,5,8
256,56,81972,2,0,B|200:88|224:168,1,100
184,152,82332,1,0
152,144,82452,1,2
88,224,82692,2,0,B|120:280|200:256,1,100,8|0
260,212,83172,2,0,B|316:244|292:324,1,100,0|0
392,56,83652,5,8
152,192,84132,1,0
392,336,84612,1,8
256,88,85092,5,0
140,124,85332,1,0
256,88,85572,1,0
256,208,85812,1,0
256,88,86052,1,0
371,122,86292,1,0
400,228,86532,1,8
369,255,86652,1,0
335,227,86772,1,0
237,295,87012,5,8
336,228,87252,1,0
236,295,87492,1,8
137,226,87732,1,0
237,160,87972,1,8
336,228,88212,1,0
400,124,88452,5,8
296,188,88692,1,8
264,172,88812,1,0
232,164,88932,1,4
200,172,89052,1,0
168,188,89172,1,0
72,112,89412,5,8
192,96,89652,2,0,B|192:40,2,50,0|0|4
312,96,90132,2,0,B|368:96,2,50,0|0|4
312,216,90612,2,0,B|312:264,2,50,0|0|4
408,288,91092,5,0
288,320,91332,1,8
272,272,91452,1,0
304,232,91572,1,0
192,176,91812,1,0
145,70,92052,1,0
104,96,92172,1,0
64,72,92292,1,8
304,64,92772,6,0,B|376:64,2,50
184,64,93252,2,0,B|128:64,2,50,8|0|0
160,184,93732,2,0,B|200:232|328:232|368:160,2,200,0|8|0
160,184,94812,5,0
160,184,94932,1,0
88,280,95172,1,8
88,280,95292,1,0
88,280,95412,1,0
192,336,95652,2,0,B|243:372|366:338|386:258,2,200,0|8|0
256,232,96852,5,0
256,208,96972,1,0
256,192,97092,1,8
256,176,97212,1,0
256,160,97332,2,0,B|256:48,2,100
316,264,98052,1,8
196,264,98292,1,0
136,160,98532,2,0,B|136:56,1,100
80,32,98892,1,0
28,60,99012,2,0,B|28:164,1,100,8|0
264,192,99732,5,0
264,192,99972,1,8
264,192,100092,1,0
264,192,100212,1,0
344,104,100452,5,0
344,104,100572,1,0
344,104,100692,2,0,B|408:104|416:160,1,100,0|8
420,280,101172,1,0
312,328,101412,2,0,B|220:376|136:300|160:224,1,200,0|8
300,52,102372,2,0,B|352:52|352:52|376:92,1,100
260,124,102852,2,0,B|260:176|260:176|300:200,1,100,8|0
448,172,103332,2,0,B|421:217|421:217|375:217,2,100,0|0|8
264,324,104292,5,0
260,204,104532,1,0
140,208,104772,1,8
260,204,105012,1,0
256,84,105252,1,0
376,84,105492,2,0,B|424:84|428:84,2,50,0|0|8
376,204,105972,2,0,B|452:280,2,100
256,192,106692,1,8
256,192,106812,1,0
256,192,106932,12,4,108132
260,340,108612,5,8
188,244,108852,2,0,B|188:164|328:164|328:252,1,200
260,340,109572,1,8
256,220,109812,2,0,B|256:108,1,100
416,192,110532,1,8
96,192,111012,1,0
44,276,111252,2,0,B|156:276,1,100,0|8
220,344,111732,1,0
320,344,111972,6,0,B|320:240,1,100
392,316,112452,2,0,B|392:208,1,100,8|0
464,284,112932,2,0,B|464:180,1,100
460,84,113412,1,8
460,84,113652,1,0
360,84,113892,2,0,B|360:196,1,100
288,256,114372,1,8
216,184,114612,2,0,B|216:60,1,100,0|0
48,196,115332,5,8
112,272,115572,1,0
112,272,115692,1,0
112,272,115812,1,8
196,324,116052,2,0,B|272:320|268:224,1,100,0|8
364,260,116532,1,0
416,172,116772,2,0,B|408:100|336:44|256:52,1,200,8|8
200,112,117492,5,0
225,158,117612,1,0
273,166,117732,1,8
372,172,117972,1,0
452,232,118212,2,0,B|492:296|428:332,1,100,8|0
348,344,118692,2,0,B|286:354|245:312,1,100,8|0
220,284,119052,2,0,B|203:265|201:236,1,50,0|8
184,140,119412,5,0
252,68,119652,2,0,B|336:68|340:148,1,100,8|0
344,164,120012,1,0
348,224,120132,2,0,B|336:300|228:288,1,120.000002861023,8|0
200,280,120492,1,0
140,244,120612,2,0,B|60:192|132:84,1,139.99999666214,8|0
156,68,120972,1,0
228,36,121092,2,0,B|344:4|376:128,1,160,8|0
256,192,121572,5,0
256,192,121812,1,0
256,192,122052,12,4,122772
336,240,123012,5,8
384,136,123252,2,0,B|352:88|256:96,1,100
192,128,123732,1,0
104,192,123972,2,0,B|156:288,1,100,8|0
224,284,124452,2,2,B|436:284,1,200,2|10
400,120,125892,5,8
304,168,126132,1,0
392,240,126372,1,0
368,288,126492,1,0
312,296,126612,1,0
208,256,126852,1,8
120,184,127092,2,2,B|112:128|176:96,1,100
384,80,127812,6,0,B|328:80|288:176,1,100,8|0
400,192,128292,1,0
432,296,128532,1,0
432,296,128772,1,8
432,296,129012,2,0,B|376:336|304:256,1,100,8|0
88,64,129732,5,8
128,104,129852,1,0
176,128,129972,1,0
232,144,130092,1,0
272,184,130212,2,0,B|240:232|160:240,1,100
80,256,130692,6,0,B|80:312,4,50,8|0|0|0|0
200,256,131412,2,0,B|328:256,1,100,0|8
384,200,131892,1,0
328,72,132132,1,0
448,96,132372,2,0,B|424:144|360:152,3,74.9999977648259,0|8|0|0
160,208,133572,6,0,B|192:152|272:136,1,100,8|0
288,176,133932,1,0
264,232,134052,1,0
312,272,134172,1,0
368,272,134292,2,0,B|424:256|448:200,1,100,0|8
192,96,135492,5,8
128,184,135732,1,0
232,264,135972,1,0
376,224,136212,1,0
376,224,136452,2,0,B|328:128,2,100,8|0|0
192,104,137172,6,0,B|192:152,7,33.3333333333333
120,240,137892,1,8
176,256,138012,1,0
232,256,138132,1,0
280,232,138252,1,0
320,192,138372,1,0
336,92,138852,5,4
232,64,139092,5,0
184,104,139212,1,0
152,152,139332,1,8
264,192,139572,2,0,B|392:192,3,100,0|0|0|8
432,96,140532,6,0,B|472:144|448:224,1,100
376,280,141012,1,0
256,272,141252,2,0,B|256:176|120:104,1,200,8|0
384,96,142212,5,8
264,96,142452,2,0,B|192:128,1,50
336,152,142812,2,0,B|272:184,1,50
184,224,143172,1,8
224,264,143292,1,0
280,280,143412,1,0
400,264,143652,1,0
448,136,143892,1,0
312,56,144132,1,8
144,96,144372,1,0
88,264,144612,1,0
88,264,144852,6,0,B|208:208,1,100,0|8
280,160,145332,1,0
368,80,145572,2,0,B|432:160|424:272,1,200,0|8
304,272,146292,6,0,B|264:272,3,33.3333333333333
168,216,146772,5,0
136,168,146892,1,0
176,120,147012,1,8
288,80,147252,1,0
376,160,147492,2,0,B|384:216|320:280,1,100
296,280,147852,1,0
240,296,147972,1,8
128,264,148212,6,0,B|72:240|72:144,1,100
144,88,148692,1,0
232,168,148932,1,8
344,208,149172,1,0
392,176,149292,1,0
440,136,149412,1,0
336,72,149652,6,0,B|312:112|232:128,1,100,0|8
200,208,150132,1,0
200,208,150252,1,0
300,240,150492,1,0
300,240,150612,1,0
400,240,150852,1,8
432,200,150972,1,0
440,144,151092,1,0
352,80,151332,2,0,B|232:80,1,100
252,80,151812,2,0,B|264:176|160:272,1,200,8|0
288,288,152532,5,0
392,232,152772,1,8
344,96,153012,1,0
184,120,153252,1,0
328,224,153492,1,0
384,200,153612,1,0
424,152,153732,1,8
49,262,161892,5,0
87,169,162132,1,0
172,85,162372,1,0
304,39,162612,1,8
463,31,162852,1,0
226,199,163332,6,0,B|209:260|305:292,1,100,8|0
370,292,163812,1,0
415,202,164052,2,0,B|398:141|494:109,1,100,0|8
471,23,164532,1,8
421,28,164652,1,0
376,50,164772,1,0
318,131,165012,1,0
226,91,165252,5,0
127,72,165492,1,8
87,103,165612,1,0
98,151,165732,1,0
52,239,165972,1,0
124,307,166212,2,0,B|181:212|296:208,1,200,8|0
278,108,166932,5,0
278,108,167172,1,8
365,241,167412,1,0
365,241,167652,1,8
452,107,167892,1,0
452,107,168132,2,0,B|345:81|356:224|232:181,1,200,8|4
133,124,168852,5,0
56,264,169092,2,0,B|81:340|174:328,1,100
228,332,169572,2,0,B|296:384|384:280|268:224,1,200,8|0
216,164,170292,2,0,B|148:111|225:0|309:97,1,200
380,132,171012,1,8
380,132,171252,1,0
384,232,171492,6,0,B|416:276|416:276|344:328|344:328|308:280,2,200,0|8|0
252,80,172932,1,8
248,180,173172,1,0
128,232,173412,2,0,B|96:276|96:276|168:328|168:328|204:280,2,200,0|8|0
192,148,174612,5,0
248,64,174852,2,0,B|348:64,1,100,8|0
292,148,175332,2,0,B|396:148,1,100
400,248,175812,2,0,B|488:304|388:412|324:296,1,200,8|0
268,244,176532,1,0
180,196,176772,1,8
132,196,176892,1,0
100,160,177012,1,0
176,80,177252,6,0,B|272:120|280:208,1,149.999995529652,0|8
312,264,177972,2,0,B|224:304|136:256,1,149.999995529652
80,184,178692,1,8
176,112,178932,1,0
296,80,179172,1,0
296,80,179292,1,0
296,80,179412,1,0
408,120,179652,6,0,B|400:168|400:168|336:216,1,100,8|0
240,224,180132,1,0
152,304,180372,2,0,B|264:304,1,100,0|8
360,256,180852,1,0
400,208,180972,1,0
440,160,181092,1,0
360,72,181332,1,0
248,120,181572,1,8
192,144,181692,1,0
152,184,181812,2,0,B|112:224|88:288,1,100
216,280,182532,6,0,B|360:280,1,100,8|0
362,242,182892,1,0
405,196,183012,1,0
360,80,183252,1,0
240,112,183492,1,8
128,160,183732,1,0
64,264,183972,2,4,B|152:264,2,50
308,280,184452,6,0,B|228:280|228:212,1,100
308,280,184932,2,0,B|308:200|376:200,1,100,0|0
308,280,185412,2,0,B|388:280|388:348,1,100,8|0
385,327,185892,1,0
448,204,186132,6,0,B|376:252|352:160,1,100,0|8
340,160,186492,1,0
372,132,186612,1,0
348,100,186732,1,0
380,76,186852,1,8
88,136,187332,5,8
88,136,187452,1,0
88,136,187572,1,0
176,244,187812,1,0
176,244,187932,1,0
176,244,188052,1,0
268,140,188292,2,0,B|308:88|364:128,1,100,8|0
332,260,188772,2,0,B|380:296|432:244,1,100
448,116,189252,5,8
448,116,189492,1,0
324,184,189732,1,0
212,100,189972,1,0
344,56,190212,1,8
252,164,190452,1,0
124,224,190692,1,0
368,88,191172,6,4,B|424:176|400:304,1,200,8|0
380,316,191772,1,0
348,344,191892,1,0
212,320,192132,5,8
244,184,192372,1,0
212,320,192612,1,0
116,220,192852,1,0
244,184,193092,1,8
116,220,193332,1,0
84,84,193572,2,0,B|176:28|284:72,1,200,0|8
416,52,194292,1,0
432,192,194532,1,0
188,56,195012,5,8
164,88,195132,1,0
160,128,195252,1,0
176,164,195372,1,0
196,196,195492,1,2
220,228,195612,1,0
236,264,195732,1,0
228,304,195852,1,0
196,328,195972,1,8
292,200,196452,5,0
356,76,196692,1,0
400,208,196932,2,0,B|420:284|368:320,1,100,8|0
228,332,197412,2,0,B|156:332|120:256,1,100
84,120,197892,2,0,B|120:52|180:48,1,100,0|8
312,76,198852,5,0
376,124,199092,1,0
420,288,199332,1,8
352,244,199572,1,0
244,288,199812,1,0
252,128,200292,1,0
136,80,200532,5,0
112,112,200652,1,0
108,152,200772,1,8
184,272,201012,1,0
184,272,201252,2,0,B|312:272,2,100,0|0|8
392,84,202212,6,0,B|416:140|376:200,1,100
256,228,202692,1,8
220,212,202812,1,0
188,184,202932,1,0
168,148,203052,1,0
168,108,203172,1,0
384,288,203652,5,8
444,160,203892,1,0
432,148,204012,1,0
316,68,204252,1,0
304,80,204372,1,0
168,148,204612,5,8
96,268,204852,1,0
236,280,205092,2,0,B|380:280,1,100
436,184,205572,2,0,B|364:104|248:96,1,200,8|0
124,124,206292,5,0
84,260,206532,1,8
220,224,206772,1,0
124,124,207012,1,0
264,112,207252,2,0,B|388:112,1,100,0|8
376,252,207732,2,0,B|376:308,3,33.3333333333333
100,240,208452,5,8
212,156,208692,1,0
340,100,208932,1,0
420,216,209172,2,0,B|384:256|312:248,1,100,0|8
152,84,209892,6,0,B|108:128|128:208,1,100
232,240,210372,1,8
368,160,210852,1,0
200,72,211332,5,8
96,168,211572,2,0,B|156:204,1,50
272,156,211932,1,0
320,172,212052,1,0
256,296,212292,6,0,B|204:312|144:280,1,100,8|0
116,156,212772,1,0
236,80,213012,1,0
368,124,213252,2,0,B|428:188|360:252,2,100,8|0|0
272,228,213972,6,2,B|308:228,3,33.3333333333333
440,192,214452,1,0
404,92,214692,2,0,B|236:92,1,149.999995529652
