osu file format v9

[General]
AudioFilename: Far East Movement - Like A G6 ft. The Cataracs.mp3
AudioLeadIn: 0
PreviewTime: 77412
Countdown: 1
SampleSet: Normal
StackLeniency: 0.7
Mode: 0
LetterboxInBreaks: 1

[Editor]
Bookmarks: 15962,23642,31322,46682,54362,61562,77402,85082,92762,108122,115802,123002,138842,146522,154202,161882,169562,177242,184442,200282,207962,215162
DistanceSpacing: 1
BeatDivisor: 4
GridSize: 8

[Metadata]
Title:Like a G6
Artist:Far East Movement ft. The Cataracs
Creator:poisonchan
Version:Like a BD
Source:
Tags:Dev Dragvon Wiinter Katsuri MathiasXII Medi-chan Blue Dragon

[Difficulty]
HPDrainRate:2
CircleSize:3
OverallDifficulty:2
ApproachRate:5
SliderMultiplier:1.6
SliderTickRate:1

[Events]
//Background and Video events
0,0,"gsix.png"
//Break Periods
2,108332,114612
2,154411,160692
//Storyboard Layer 0 (Background)
//Storyboard Layer 1 (Fail)
//Storyboard Layer 2 (Pass)
//Storyboard Layer 3 (Foreground)
//Storyboard Sound Samples
//Background Colour Transformations
3,100,163,162,255

[TimingPoints]
15972,480,4,2,0,100,1,0
31202,-100,4,1,0,100,0,0
61442,-100,4,2,0,100,0,0
86162,-100,4,2,0,100,0,0
122882,-100,4,2,0,100,0,0
154082,-100,4,1,0,100,0,0
170042,-100,4,2,0,100,0,0
184322,-100,4,2,0,100,0,0

[Colours]
Combo1 : 7,170,248
Combo2 : 128,0,255
Combo3 : 255,0,128

[HitObjects]
448,48,15972,2,2,B|400:48|400:48|336:56|336:56|288:56,1,160
240,120,16692,1,0
248,200,16932,2,2,B|256:256|312:296|376:272,1,160,2|6
424,128,17892,5,2
416,208,18132,1,0
367,275,18372,2,2,B|359:331|303:371|239:347,1,160,2|6
87,350,19332,5,8
143,293,19572,2,8,B|111:261,1,40,0|8
171,208,19932,2,8,B|203:240,1,40,0|8
256,176,20292,2,2,B|304:152|304:152|304:96|304:96|352:72,1,160
408,128,21012,1,0
488,112,21252,2,2,B|512:144|512:144|512:192|512:192|504:200|504:200|512:208|512:208|512:272,2,160
432,56,22452,1,0
360,24,22692,2,2,B|296:24|296:24|288:16|288:16|288:32|288:32|280:24|280:24|264:24|264:24|224:24,1,160,2|6
184,24,23292,2,0,B|128:24,3,40,0|8|0|12
144,104,23892,5,0
88,160,24132,1,8
88,240,24372,1,0
88,320,24612,2,2,B|144:320|144:320|192:336|192:336|256:336,1,160,2|4
224,256,25332,2,0,B|196:220|224:184,1,80,0|8
296,144,25812,1,0
304,224,26052,2,2,B|464:224,1,160,2|4
464,63,27012,5,8
384,63,27252,2,0,B|384:104,1,40,0|8
304,103,27612,2,0,B|304:62,1,40,0|8
247,6,27972,2,2,B|80:88,1,160
103,156,28692,1,0
159,212,28932,1,0
314,167,29412,2,2,B|370:154|429:199|420:266,1,160
336,252,30132,1,0
357,335,30372,2,2,B|301:348|242:303|251:236,1,160,2|6
216,224,30972,2,0,B|160:208,3,40
97,213,31572,5,0
40,156,31812,1,8
40,76,32052,1,0
112,120,32292,2,2,B|272:120,1,160,2|4
408,40,33252,5,0
448,112,33492,2,0,B|440:160,2,40,0|0|8
368,112,33972,1,0
317,173,34212,2,2,B|340:194|370:191|370:191|401:243|469:229,1,160
344,344,35172,6,0,B|264:360,1,80,2|0
272,280,35652,2,8,B|184:296,1,80,8|0
144,360,36132,2,2,B|112:320|112:320|112:282|112:282|126:243|126:243|168:216|168:216,1,160
192,160,36852,1,0
272,160,37092,2,2,B|360:160|360:160|424:176|424:176|512:176,1,240
472,16,38292,6,8,B|472:64,1,40
392,56,38652,2,8,B|392:8,1,40,8|8
312,16,39012,2,0,B|216:16,1,80,2|0
192,16,39372,2,8,B|144:40|144:40|144:120,1,120
144,266,40212,2,2,B|144:176,1,80
304,186,40932,5,2
344,256,41172,1,0
384,328,41412,1,0
464,328,41652,2,8,B|464:176|464:176|464:168|464:168|456:168|456:168|472:168|472:168|464:160|464:160|464:32,1,320
383,35,42852,5,2
326,91,43092,1,2
269,147,43332,1,2
109,147,43812,2,8,B|110:332,1,160
184,344,44532,1,0
224,272,44772,6,2,B|416:272,1,160
304,136,45732,2,8,B|304:184,4,40
192,24,46692,6,2,B|72:24|72:24|40:56,1,160,2|0
104,104,47412,2,0,B|80:128|80:128|40:128|40:128|40:224,1,160,2|0
120,216,48132,2,8,B|112:256|112:256|80:288|80:288|40:296|40:296|0:288,2,160
256,128,49572,1,2
256,128,49812,1,0
256,128,50052,1,8
384,32,50532,6,0,B|472:32,1,80,8|0
440,112,51012,2,0,B|352:112,1,80,2|0
384,192,51492,2,0,B|472:192,1,80,8|0
440,272,51972,2,0,B|352:272,1,80,2|0
384,352,52452,2,0,B|296:352,1,80,2|0
280,272,52932,2,0,B|368:272,1,80,2|0
384,192,53412,2,0,B|384:32,1,160,8|2
304,32,54132,1,2
224,32,54372,6,2,B|160:32|160:32|112:40|112:40|40:40,1,160
40,120,55092,1,0
120,120,55332,2,8,B|120:232|120:232|80:264,1,160
48,336,56052,1,0
128,336,56292,2,8,B|176:296|176:296|205:296|205:296|205:63,2,320
200,376,58452,2,0,B|288:376,1,80,0|2
288,296,58932,2,0,B|288:209,1,80,0|8
368,240,59412,2,0,B|368:153,1,80,0|8
448,184,59892,2,0,B|448:97,1,80,0|8
256,192,60252,12,4,62052
256,32,62532,5,8
256,192,63012,1,0
256,352,63492,1,8
256,192,63972,6,0,B|80:192,1,160,2|8
96,112,64692,1,0
176,112,64932,2,2,B|264:112,1,80
336,112,65412,1,8
336,272,65892,1,0
176,272,66372,6,2,B|8:272,1,160
32,192,67092,1,0
48,112,67332,2,0,B|208:112,2,160,2|8|2
64,32,68532,2,0,B|152:32,2,80,0|2|0
16,96,69252,6,0,B|16:144|16:144|-8:184,2,80,2|0|2
16,96,70212,2,0,B|44:111|44:111|176:112,1,160,2|8
248,80,70932,2,0,B|344:80,1,80,0|2
352,160,71412,2,0,B|272:160,1,80,0|8
392,264,72132,5,8
256,352,72612,1,10
120,264,73092,1,12
256,176,73572,1,0
416,176,74052,6,2,B|408:48|256:-50|104:48|96:176,1,480
256,192,75612,12,4,77412
440,288,77892,6,8,B|344:288,1,80,8|0
280,288,78372,2,2,B|280:232|280:232|288:184|288:184|288:128,2,160
200,288,79572,1,0
160,216,79812,2,2,B|120:216|88:216|88:256|56:256|8:256,1,160
0,96,80772,5,8
80,96,81012,2,0,B|136:96,1,40,0|8
200,96,81372,2,0,B|256:96,1,40,0|8
320,96,81732,2,2,B|380:168|320:240,2,160
464,24,83172,2,0,B|404:96|464:168,1,160,8|2
424,240,83892,1,0
440,320,84132,2,0,B|264:320,1,160,2|8
256,288,84732,2,8,B|200:288,3,40
56,272,85572,6,8,B|56:184,1,80,8|0
128,152,86052,2,0,B|68:80|128:8,1,160,2|6
264,88,87012,6,8,B|264:176,1,80,8|0
192,208,87492,2,0,B|252:280|192:352,1,160,2|6
352,352,88452,5,8
352,272,88692,2,0,B|288:272,1,40,0|8
288,192,89052,2,0,B|352:192,1,40,0|8
352,112,89412,2,2,B|192:112,2,160
216,32,90852,2,4,B|400:32,1,160,4|8
456,32,91572,1,0
456,112,91812,2,2,B|488:176|488:176|488:264,1,160
328,288,92772,6,2,B|256:296|256:296|256:280|256:280|184:288,2,160,2|2|6
256,144,94212,1,0
160,16,94692,6,0,B|-8:16,1,160,2|0
16,96,95412,1,0
96,96,95652,2,2,B|160:96|160:96|160:128|160:184|112:184|48:184|48:184|16:184|16:184|16:240,1,320
88,280,96852,5,0
168,296,97092,2,2,B|240:344|320:320,1,160
392,280,97812,1,0
432,352,98052,2,2,B|352:208,2,160
504,312,99252,2,0,B|424:168|424:168|208:304,1,400,4|2
160,344,100692,5,0
88,304,100932,1,8
136,240,101172,1,0
72,192,101412,2,2,B|16:128|40:40,1,160
200,32,102372,5,4
250,93,102612,1,0
300,154,102852,1,2
351,215,103092,1,0
401,276,103332,1,4
88,344,104292,6,0,B|16:296,1,80,2|0
48,224,104772,2,0,B|120:272,1,80,8|0
152,200,105252,2,2,B|296:280,1,160
256,192,106212,12,4,108132
432,48,115812,6,2,B|432:88|432:88|400:176|400:176|400:208,1,160,2|0
319,202,116532,2,2,B|319:162|319:162|351:74|351:74|351:42,1,160,2|0
270,47,117252,1,8
80,48,117732,6,2,B|80:88|80:88|112:176|112:176|112:208,1,160,2|0
193,202,118452,2,2,B|193:162|193:162|161:74|161:74|161:42,1,160,2|0
242,47,119172,1,8
312,192,119652,6,0,B|400:192,1,80,2|0
376,272,120132,2,0,B|272:272,1,80,2|0
280,352,120612,2,0,B|384:352,1,80,2|0
440,352,121092,2,2,B|440:323|440:323|453:304|453:304|459:276|459:276|456:250|456:250|443:221|443:221|416:197|416:197|394:191|394:191|384:120,1,240,2|0
312,176,122052,2,0,B|304:88,2,80,2|0|2
320,256,122772,1,2
328,336,123012,1,2
168,336,123492,6,4,B|56:336|56:336|24:320|24:320|8:288|8:288|8:232,1,240
121,118,124692,1,2
121,118,125052,1,8
121,118,125412,6,4,B|233:118|233:118|265:134|265:134|281:166|281:166|281:222,1,240
167,335,126612,1,0
167,335,126852,1,8
328,336,127332,6,2,B|424:336|424:336|424:320|424:320|432:336|432:336|432:320|432:320|448:320,1,160,2|0
446,239,128052,2,2,B|350:239|350:239|350:255|350:255|342:239|342:239|342:255|342:255|326:255,1,160,2|0
256,216,128772,1,2
256,136,129012,1,0
336,112,129252,2,2,B|316:76|316:76|289:59|289:59|255:51|255:51|224:59|224:59|194:77|194:77,3,160
128,88,130932,5,0
80,152,131172,2,2,B|16:152|16:152|24:160|24:160|24:256,2,160
152,296,132612,5,0
232,312,132852,1,0
312,328,133092,1,8
425,214,133572,5,0
345,198,133812,1,0
264,184,134052,2,8,B|96:184,1,160,8|12
416,128,135492,6,2,B|489:54|489:54|421:-13|421:-13|348:60|348:60|166:60,1,480
172,220,137412,1,0
115,276,137652,1,2
171,332,137892,2,0,B|204:365|204:365|237:332|237:332|312:332,1,160,2|4
224,192,138852,1,4
72,96,139332,6,8,B|168:96,1,80,8|0
232,96,139812,2,2,B|232:152|232:152|224:200|224:200|224:256,2,160
312,96,141012,1,0
352,168,141252,2,2,B|392:168|424:168|424:128|456:128|504:128,1,160
512,288,142212,5,8
432,288,142452,2,0,B|376:288,1,40,0|8
312,288,142812,2,0,B|256:288,1,40,0|8
192,288,143172,2,2,B|132:216|192:144,2,160
48,360,144612,2,0,B|108:288|48:216,1,160,8|2
88,144,145332,1,0
72,64,145572,2,0,B|248:64,1,160,2|8
256,96,146172,2,8,B|312:96,3,40
456,112,147012,6,8,B|456:200,1,80,8|0
384,232,147492,2,0,B|444:304|384:376,1,160,2|6
248,296,148452,6,8,B|248:208,1,80,8|0
320,176,148932,2,0,B|260:104|320:32,1,160,2|6
160,32,149892,5,8
160,112,150132,2,0,B|224:112,1,40,0|8
224,192,150492,2,0,B|160:192,1,40,0|8
160,272,150852,2,2,B|320:272,2,160
296,352,152292,2,4,B|112:352,1,160,4|8
56,352,153012,1,0
56,272,153252,2,2,B|24:208|24:208|24:120,1,160
40,80,153852,2,0,B|40:56|40:56|48:32,3,40,2|0|0|0
472,48,161892,6,0,B|368:48,2,80,2|0|2
472,128,162612,2,0,B|384:128,1,80,0|8
232,128,163332,1,2
72,128,163812,6,0,B|72:176|72:176|80:208,2,80,2|0|2
72,48,164532,1,0
152,56,164772,2,8,B|147:130|147:130|147:148|147:148|147:165|147:165|163:230,1,160
235,208,165492,1,0
235,207,165732,2,8,B|222:157|222:157|222:140|222:140|222:122|222:122|227:48,1,160
304,48,166452,1,0
384,30,166692,2,2,B|384:76|384:76|357:113|357:113|322:128|322:128|282:129,2,160
256,192,167772,12,4,169572
256,48,170052,6,0,B|256:136,1,80,0|4
352,256,170772,2,0,B|392:256|392:256|424:216,2,80,0|2|0
272,256,171492,2,2,B|216:256|216:256|168:272|168:272|104:272,1,160
56,216,172212,1,0
136,192,172452,2,8,B|208:168|208:168|304:168,1,160
296,88,173172,1,0
360,40,173412,6,0,B|440:40,1,80,2|0
440,120,173892,2,2,B|440:168|440:168|456:240|456:240|456:288,1,160
304,328,174852,6,0,B|224:328,1,80,2|0
224,248,175332,2,2,B|224:200|224:200|208:128|208:128|208:80,2,160
384,248,176772,6,8,B|424:216,3,40
408,184,177252,6,0,B|352:168|352:168|320:64,1,160,2|0
248,104,177972,2,0,B|232:48|232:48|134:18,1,160,2|0
56,32,178692,2,2,B|80:80|80:80|184:112,1,160
181,191,179412,1,0
184,272,179652,2,2,B|176:280|176:280|192:280|192:280|176:288|176:288|192:288|192:288|176:296|176:296|192:296|192:296|176:304|176:304|192:304|192:304|176:312|192:312|184:312|184:336,1,160
344,331,180612,5,2
344,251,180852,1,0
344,171,181092,2,2,B|336:163|336:163|352:163|352:163|336:155|336:155|352:155|352:155|336:147|336:147|352:147|352:147|336:139|336:139|352:139|352:139|336:131|352:131|344:131|344:107,2,160
256,192,182292,12,12,184452
344,48,184932,6,4,B|456:48|456:48|488:64|488:64|504:96|504:96|504:152,1,240
391,266,186132,1,2
391,266,186492,1,8
391,266,186852,6,4,B|279:266|279:266|247:250|247:250|231:218|231:218|231:162,1,240
345,49,188052,1,0
345,49,188292,1,8
184,48,188772,6,2,B|88:48|88:48|88:64|88:64|80:48|80:48|80:64|80:64|64:64,1,160,2|0
66,145,189492,2,2,B|162:145|162:145|162:129|162:129|170:145|170:145|170:129|170:129|186:129,1,160,2|0
256,168,190212,1,2
256,248,190452,1,0
176,272,190692,2,2,B|196:308|196:308|223:325|223:325|257:333|257:333|288:325|288:325|318:307|318:307,3,160
384,296,192372,5,0
432,232,192612,2,2,B|496:232|496:232|488:224|488:224|488:128,2,160
360,88,194052,5,0
280,72,194292,1,0
200,56,194532,1,8
87,170,195012,5,0
167,186,195252,1,0
248,200,195492,2,8,B|416:200,1,160,8|12
96,256,196932,6,2,B|23:330|23:330|91:397|91:397|164:324|164:324|346:324,1,480
340,164,198852,1,0
397,108,199092,1,2
341,52,199332,2,0,B|308:19|308:19|275:52|275:52|200:52,1,160,2|4
288,192,200292,1,4
440,288,200772,6,8,B|344:288,1,80,8|0
280,288,201252,2,2,B|280:232|280:232|288:184|288:184|288:128,2,160
200,288,202452,1,0
160,216,202692,2,2,B|120:216|88:216|88:256|56:256|8:256,1,160
0,96,203652,5,8
80,96,203892,2,0,B|136:96,1,40,0|8
200,96,204252,2,0,B|256:96,1,40,0|8
320,96,204612,2,2,B|380:168|320:240,2,160
464,24,206052,2,0,B|404:96|464:168,1,160,8|2
424,240,206772,1,0
440,320,207012,2,0,B|264:320,1,160,2|8
256,288,207612,2,8,B|200:288,3,40
56,272,208452,6,8,B|56:184,1,80,8|0
128,152,208932,2,0,B|68:80|128:8,1,160,2|6
264,88,209892,6,8,B|264:176,1,80,8|0
192,208,210372,2,0,B|252:280|192:352,1,160,2|6
352,352,211332,5,8
352,272,211572,2,0,B|288:272,1,40,0|8
288,192,211932,2,0,B|352:192,1,40,0|8
352,112,212292,2,2,B|192:112,2,160
256,192,213492,12,2,215172
