osu file format v13

[General]
AudioFilename: FREE_TRACK_The_Quick_Brown_Fox_-_Electrohell.mp3
AudioLeadIn: 0
PreviewTime: -1
Countdown: 1
SampleSet: Normal
StackLeniency: 0.7
Mode: 0
LetterboxInBreaks: 1
WidescreenStoryboard: 0

[Editor]
DistanceSpacing: 0.8
BeatDivisor: 6
GridSize: 32
TimelineZoom: 1

[Metadata]
Title:What is your speed?
TitleUnicode:What is your speed?
Artist:Faq It!
ArtistUnicode:Faq It!
Creator:Blaccky
Version:What Is That!?
Source:
Tags:
BeatmapID:449454
BeatmapSetID:188587

[Difficulty]
HPDrainRate:6
CircleSize:3
OverallDifficulty:10
ApproachRate:10
SliderMultiplier:1.4
SliderTickRate:1

[Events]
//Background and Video events
//Break Periods
2,7892,22142
//Storyboard Layer 0 (Background)
//Storyboard Layer 1 (Fail)
//Storyboard Layer 2 (Pass)
//Storyboard Layer 3 (Foreground)
//Storyboard Sound Samples
//Background Colour Transformations
3,100,163,162,255

[TimingPoints]
1272.29268292683,120,4,1,0,100,1,0

[HitObjects]
160,224,1952,6,0,P|288:128|256:128,1,560
96,288,2632,2,0,P|160:128|160:96,1,186.666666666667
128,128,3012,1,0,0:0:0:0:
32,96,3132,1,0,0:0:0:0:
64,160,3272,1,0,0:0:0:0:
32,32,3472,6,0,P|320:128|384:128,1,350
352,32,3832,2,0,L|320:224,1,186.666666666667,0|0,0:0|0:0,0:0:0:0:
128,320,4192,2,0,P|352:288|384:320,1,280
384,32,4552,6,0,L|288:32|192:32,1,186.666666666667
192,128,4912,1,0,0:0:0:0:
288,128,5092,1,0,0:0:0:0:
96,352,5252,2,0,L|96:0,1,350
224,64,5712,2,0,P|320:192|256:224,1,280
320,288,6152,1,0,0:0:0:0:
192,192,6332,1,0,0:0:0:0:
192,320,6492,5,0,0:0:0:0:
384,192,6692,1,0,0:0:0:0:
288,128,6852,1,0,0:0:0:0:
384,320,7012,1,0,0:0:0:0:
192,160,7152,1,0,0:0:0:0:
64,192,7312,2,0,P|448:32|480:32,1,443.333333333333,0|0,0:0|0:0,0:0:0:0:
224,288,22592,5,0,0:0:0:0:
352,288,22912,2,0,L|480:288,1,116.666666666667
128,288,23192,2,0,P|256:128|288:128,1,256.666666666667
416,128,23512,2,0,P|416:320|384:320,1,303.333333333333
320,32,23892,2,0,L|288:320,1,280
192,32,24292,1,0,0:0:0:0:
416,32,24432,2,0,L|416:224,1,186.666666666667
320,128,24752,1,0,0:0:0:0:
320,224,24912,2,0,P|224:128|256:128,1,373.333333333333
352,160,25392,2,0,L|128:160,1,210
448,192,25812,5,0,0:0:0:0:
320,64,25952,1,0,0:0:0:0:
448,320,26072,1,0,0:0:0:0:
224,288,26212,1,0,0:0:0:0:
192,96,26332,1,0,0:0:0:0:
224,96,26552,6,0,L|256:96|384:96,1,140
448,96,26852,2,0,P|288:256|224:224,1,326.666666666667
288,352,27312,1,0,0:0:0:0:
320,160,27592,1,0,0:0:0:0:
160,192,27792,2,0,L|352:256,1,186.666666666667
224,32,28112,2,0,P|224:96|384:128,1,256.666666666667
320,64,28472,1,0,0:0:0:0:
480,192,28632,1,0,0:0:0:0:
288,256,28832,2,0,P|96:160|320:160,1,606.666666666667
224,192,29592,2,0,L|448:64,1,256.666666666667
256,64,29932,2,0,L|32:192,1,256.666666666667
96,192,30272,2,0,P|192:224|224:128,1,210
128,128,30612,1,0,0:0:0:0:
320,160,30772,1,0,0:0:0:0:
224,288,30912,1,0,0:0:0:0:
416,288,31052,1,0,0:0:0:0:
320,64,31192,1,0,0:0:0:0:
224,32,31332,2,0,P|224:224|416:128,1,466.666666666667
480,224,31932,2,0,B|256:288|480:128|192:160,1,326.666666666667
192,256,32292,2,0,B|256:256|384:384|416:352|512:288,1,350
288,96,32772,2,0,P|320:256|288:256,1,280
416,64,33312,5,0,0:0:0:0:
128,256,33492,1,0,0:0:0:0:
128,64,33652,1,0,0:0:0:0:
288,32,33792,2,0,P|288:288|224:288,1,396.666666666667
256,192,34312,6,0,L|96:160,1,163.333333333333
288,64,34552,2,0,P|256:352|288:352,1,466.666666666667
416,224,35092,1,0,0:0:0:0:
192,96,35252,1,0,0:0:0:0:
384,96,35412,1,0,0:0:0:0:
224,256,35572,1,0,0:0:0:0:
288,64,35852,2,0,P|352:192|480:96,1,326.666666666667
192,64,36272,2,0,P|32:64|64:32,1,420
128,96,36752,1,0,0:0:0:0:
224,256,36912,1,0,0:0:0:0:
384,96,37072,1,0,0:0:0:0:
256,96,37232,2,0,P|256:160|416:96,1,326.666666666667
480,256,37772,1,0,0:0:0:0:
288,224,37932,2,0,L|480:160,1,186.666666666667
384,160,38452,1,0,0:0:0:0:
384,160,38552,1,0,0:0:0:0:
384,160,38672,1,0,0:0:0:0:
384,160,38772,1,0,0:0:0:0:
384,160,38892,1,0,0:0:0:0:
384,320,39352,1,0,0:0:0:0:
384,320,39452,1,0,0:0:0:0:
384,320,39572,1,0,0:0:0:0:
384,320,39672,1,0,0:0:0:0:
384,320,39772,1,0,0:0:0:0:
384,320,39912,1,0,0:0:0:0:
288,224,40372,1,0,0:0:0:0:
288,224,40512,1,0,0:0:0:0:
288,224,40632,1,0,0:0:0:0:
288,224,40732,1,0,0:0:0:0:
288,224,40832,1,0,0:0:0:0:
288,224,40972,1,0,0:0:0:0:
384,128,41412,1,0,0:0:0:0:
384,128,41512,1,0,0:0:0:0:
384,128,41632,1,0,0:0:0:0:
384,128,41732,1,0,0:0:0:0:
384,128,41832,1,0,0:0:0:0:
384,128,41972,1,0,0:0:0:0:
320,64,42412,1,0,0:0:0:0:
320,64,42512,1,0,0:0:0:0:
320,64,42632,1,0,0:0:0:0:
320,64,42732,1,0,0:0:0:0:
320,64,42832,1,0,0:0:0:0:
320,64,42972,1,0,0:0:0:0:
224,160,43432,1,0,0:0:0:0:
224,160,43572,1,0,0:0:0:0:
224,160,43692,1,0,0:0:0:0:
224,160,43792,1,0,0:0:0:0:
224,160,43892,1,0,0:0:0:0:
224,160,44032,1,0,0:0:0:0:
128,128,44472,1,0,0:0:0:0:
128,128,44612,1,0,0:0:0:0:
128,128,44732,1,0,0:0:0:0:
128,128,44832,1,0,0:0:0:0:
128,128,44932,1,0,0:0:0:0:
128,128,45072,1,0,0:0:0:0:
224,32,45512,1,0,0:0:0:0:
224,32,45612,1,0,0:0:0:0:
224,32,45732,1,0,0:0:0:0:
224,32,45832,1,0,0:0:0:0:
224,32,45932,1,0,0:0:0:0:
224,32,46072,1,0,0:0:0:0:
