osu file format v5

[General]
AudioFilename: 01-how_i_feel.mp3
AudioLeadIn: 0
PreviewTime: -1
Countdown: 1
SampleSet: Normal
StackLeniency: 0.7
Mode: 0
LetterboxInBreaks: 1

[Metadata]
Title:How I Feel
Artist:Fantazja
Creator:petros0506
Version:Easy
Source:
Tags:

[Difficulty]
HPDrainRate:5
CircleSize:5
OverallDifficulty:5
SliderMultiplier:1.4
SliderTickRate:1

[Events]
//Background and Video events
0,0,"Awakening_by_Eisblume.jpg"
//Break Periods
//Storyboard Layer 0 (Background)
//Storyboard Layer 1 (Failing)
//Storyboard Layer 2 (Passing)
//Storyboard Layer 3 (Foreground)
//Storyboard Sound Samples
//Background Colour Transformations
3,100,163,162,255

[TimingPoints]
59952,450.483814946835,4,1,0,100,1

[HitObjects]
160,128,3979,1,8
352,224,7526,1,8
192,128,11243,1,8
320,160,14847,1,8
128,224,15691,1,8
352,224,16592,1,8
192,64,17493,1,8
32,192,18338,1,8
256,192,19239,1,8
320,96,20196,1,8
96,64,21097,1,8
256,224,21998,1,8
128,32,22843,1,8
256,224,23800,1,8
128,32,24757,1,8
256,192,25602,1,8
128,128,29150,1,8
128,128,30107,1,8
128,128,31008,1,8
352,96,31909,1,8
128,128,32810,1,8
352,96,33711,1,8
128,128,34612,1,8
352,96,35569,1,8
256,96,35963,1,8
160,128,36414,1,8
384,64,37371,1,8
160,128,38272,1,8
384,64,39173,1,8
160,128,40130,1,8
352,64,40975,1,8
128,128,41876,1,8
352,96,42777,1,8
256,96,43227,1,8
160,128,43678,1,8
384,64,44579,1,8
160,128,45480,1,8
384,64,46437,1,8
160,128,47338,1,8
384,64,48239,1,8
192,128,49084,1,8
160,128,49928,1,8
384,64,50886,1,8
160,128,51843,1,8
384,64,52744,1,8
160,128,53645,1,8
352,64,54546,1,8
128,128,55447,1,8
320,96,56291,1,8
224,128,56742,1,8
96,128,57249,1,8
192,128,57699,1,8
96,96,58093,1,8
320,160,58994,1,8
96,96,59952,1,8
288,160,60852,1,8
96,96,61753,1,8
288,160,62654,1,8
64,96,63555,1,8
288,160,64456,1,8
64,96,65357,1,8
288,160,66258,1,8
64,96,67159,1,8
256,160,68004,1,8
32,64,68961,1,8
256,160,69918,1,8
64,64,70763,1,8
160,128,71214,1,8
256,96,71664,1,8
128,128,72115,1,8
256,128,72565,1,8
32,128,73410,1,8
256,128,74367,1,8
32,128,75268,1,8
256,128,76169,1,8
32,128,77126,1,8
224,128,77971,1,8
0,96,78872,1,8
224,128,79773,1,8
160,128,80730,1,8
352,64,81575,1,8
128,128,82476,1,8
352,96,83377,1,8
128,128,84278,1,8
352,96,85235,1,8
128,128,86136,1,8
224,128,86530,1,8
128,128,86981,1,8
352,96,87938,1,8
128,128,88839,1,8
352,96,89740,1,8
128,128,90641,1,8
352,96,91542,1,8
128,128,92443,1,8
352,96,93287,1,8
128,128,94245,1,8
352,96,95146,1,8
128,128,95990,1,8
352,96,96947,1,8
128,128,97848,1,8
128,320,98693,1,8
64,96,99594,1,8
256,192,105450,12,8,112264
64,64,119246,6,8,B|544:384|-32:160,2,595
224,192,123977,1,8
224,192,124877,1,8
224,192,125778,1,8
224,192,126679,1,8
224,192,127580,1,8
224,192,128481,1,8
224,192,129439,1,8
224,192,129833,1,8
224,192,130283,1,8
416,96,131128,1,8
192,128,132085,1,8
64,320,132986,1,8
192,128,133887,1,8
64,320,134788,1,8
256,192,135689,1,8
64,320,136590,1,8
160,256,137097,1,8
256,192,137547,1,8
64,320,138448,1,8
256,192,139349,1,8
64,320,140250,1,8
256,192,141151,1,8
64,320,142052,1,8
256,192,142953,1,8
64,320,143854,1,8
160,256,144305,1,8
256,192,144755,1,8
64,320,145656,1,8
256,192,146613,1,8
96,320,147458,1,8
256,192,148359,1,8
64,320,149316,1,8
256,192,150161,1,8
96,320,151006,1,8
192,256,151456,1,8
256,160,151907,1,8
160,384,152864,1,8
256,160,153765,1,8
160,352,154666,1,8
256,128,155623,1,8
192,320,156468,1,8
288,96,157369,1,8
192,288,158270,1,8
256,192,158720,1,8
160,256,159171,1,8
352,128,160072,1,8
160,256,160972,1,8
352,128,161873,1,8
160,256,162774,1,8
352,128,163675,1,8
160,256,164633,1,8
320,128,165477,1,8
224,192,165928,1,8
320,256,166378,1,8
128,128,167279,1,8
320,256,168180,1,8
128,128,169138,1,8
320,256,170038,1,8
128,128,170939,1,8
320,256,171840,1,8
128,128,172741,1,8
224,192,173136,1,8
288,256,173586,1,8
128,96,174543,1,8
288,256,175444,1,8
128,96,176345,1,8
288,256,177246,1,8
128,96,178147,1,8
288,256,179048,1,8
224,192,179499,1,8
288,256,179949,1,8
224,192,180400,1,8
288,256,180850,1,8
128,96,181807,1,8
288,224,182652,1,8
64,128,183553,1,8
256,224,184454,1,8
96,64,185411,1,8
224,192,186256,1,8
384,352,187157,1,8
320,288,187551,1,8
224,192,188002,1,8
384,352,188959,1,8
224,192,189860,1,8
32,64,190761,1,8
192,224,191662,1,8
128,224,192506,1,8
128,96,193464,1,8
256,192,195266,12,8,206528
224,224,206978,5,8
160,0,207879,1,8
288,192,208780,1,8
64,192,209737,1,8
288,224,210638,1,8
64,256,211539,1,8
288,224,212384,1,8
192,224,212834,1,8
288,224,213285,1,8
64,256,214242,1,8
288,224,215143,1,8
64,256,216044,1,8
288,224,216945,1,8
64,224,217790,1,8
288,224,218747,1,8
64,224,219592,1,8
288,224,220549,1,8
64,256,221394,1,8
288,224,222295,1,8
160,224,222745,1,8
256,224,223196,1,8
160,256,223646,1,8
256,224,224097,1,8
