osu file format v9

[General]
AudioFilename: tu no eres para mi.mp3
AudioLeadIn: 0
PreviewTime: 105260
Countdown: 0
SampleSet: Soft
StackLeniency: 0.7
Mode: 0
LetterboxInBreaks: 1

[Editor]
Bookmarks: 2069,20789,40349,50429,71189,86549,105269,121109,136469,151829,182429,197789
DistanceSpacing: 0.8
BeatDivisor: 4
GridSize: 8

[Metadata]
Title:Tu No Eres Para Mi
Artist:Fanny Lu
Creator:HOF
Version:Normal
Source:
Tags:pop spanish Revengexsoyah OzzyOzrock

[Difficulty]
HPDrainRate:3
CircleSize:3
OverallDifficulty:3
ApproachRate:3
SliderMultiplier:2
SliderTickRate:1

[Events]
//Background and Video events
0,0,"Fanny.jpg"
Video,-4294,"VIDEO.avi"
//Break Periods
2,71137,85105
2,136376,150346
2,167356,181086
//Storyboard Layer 0 (Background)
//Storyboard Layer 1 (Fail)
//Storyboard Layer 2 (Pass)
//Storyboard Layer 3 (Foreground)
//Storyboard Sound Samples
//Background Colour Transformations
3,100,163,162,255

[TimingPoints]
2037,479.539641943734,4,2,0,75,1,0
21218,480.384307445957,4,2,0,75,1,0
40433,-100,4,2,0,75,0,1
50401,-100,4,2,0,75,0,0
71177,480.268950612343,4,2,0,75,1,0
86545,479.539641943734,4,2,0,75,1,0
105726,-100,4,2,0,75,0,1
120951,-100,4,2,0,75,0,0
136417,480.30739673391,4,2,0,75,1,0

[Colours]
Combo1 : 0,128,0
Combo2 : 255,0,0
Combo3 : 255,128,0

[HitObjects]
96,96,2036,1,4
32,240,2516,1,2
176,320,2996,2,0,B|288:352|336:224,1,200,0|2
400,96,3955,1,0
448,240,4434,1,2
304,176,4914,2,0,B|256:128|256:128|160:128|160:128|112:192,1,200,0|2
208,320,5873,5,0
352,256,6352,1,2
272,128,6832,2,0,B|304:80|368:128,2,100,0|0|2
128,48,7791,1,0
48,192,8271,2,0,B|160:192,2,100,2|0|0
144,320,9230,1,2
304,336,9709,6,0,B|416:352|464:240,1,200,4|2
352,128,10668,1,0
352,128,10908,1,0
352,128,11148,1,2
208,64,11627,5,0
64,144,12107,1,2
112,288,12586,2,0,B|320:288,2,200,0|2|0
176,144,14025,1,2
320,96,14505,2,0,B|432:96,2,100,0|0|2
336,256,15464,2,0,B|128:256,2,200,0|2|0
240,128,16902,1,2
80,160,17382,1,4
144,96,20739,5,8
288,48,21218,2,0,B|432:16|416:176,2,200,0|8|0
288,208,22659,1,8
176,320,23139,2,0,B|384:320,1,200,0|8
464,192,24100,1,0
352,80,24580,1,8
192,128,25061,6,0,B|80:128,2,100,2|2|2
96,272,26021,1,0
240,320,26502,1,8
368,240,26982,2,0,B|480:240,2,100,2|2|2
432,96,27943,2,0,B|336:16|240:80,1,200,0|8
96,96,28904,6,0,B|16:192|112:288,1,200,4|8
256,320,29864,1,2
256,320,30105,1,2
256,320,30345,1,2
352,192,30825,6,0,B|480:192,2,100,2|2|2
448,64,31786,1,0
288,64,32266,1,8
128,64,32747,2,0,B|16:64,2,100,2|2|2
64,208,33707,5,0
192,304,34188,1,8
352,256,34668,2,2,B|464:256,4,100
80,88,36590,1,4
232,272,37310,2,0,B|360:272,1,100,4|4
56,112,38511,2,0,B|152:32|232:96|72:304|264:160,1,300,4|4
312,144,39472,1,4
48,208,40433,6,0,B|112:304|240:256,1,200,0|8
384,224,41394,1,2
384,224,41634,1,2
384,224,41874,1,2
304,80,42354,2,0,B|192:80,3,100,8|0|0|0
112,80,43315,1,8
128,240,43796,2,0,B|240:160|304:288,1,200,0|8
448,304,44756,5,0
368,160,45237,1,8
480,48,45717,2,0,B|352:48,3,100,2|2|2|2
304,48,46678,2,0,B|192:48,1,100
128,64,47158,2,0,B|128:176,3,100
80,224,48119,6,0,B|144:320|288:272,1,200,4|4
368,192,49080,1,4
352,336,49560,2,0,B|464:336,2,100,4|4|4
192,336,50521,6,8,B|64:336,2,100
256,192,51482,2,0,B|256:80,2,100
336,336,52442,2,8,B|464:336,2,100
432,208,53403,1,0
336,80,53884,1,0
240,208,54364,1,0
160,80,54844,2,0,B|48:80,3,100
64,160,55805,5,2
144,304,56286,1,2
224,160,56766,1,2
336,272,57246,1,0
336,272,57487,1,0
336,272,57727,1,0
432,144,58207,1,0
272,128,58687,1,2
144,224,59168,6,0,B|32:224,2,100,4|4|4
256,336,60129,2,0,B|352:272|288:160,1,200
400,48,61089,2,0,B|528:48,3,100
496,128,62050,2,0,B|496:272,1,100
416,224,62531,2,0,B|416:112,1,100
336,128,63011,2,0,B|336:272,1,100
240,272,63491,5,4
272,144,63972,1,4
368,256,64452,1,4
368,112,64932,2,0,B|496:112,2,100,4|4|4
224,112,65893,2,0,B|112:112,2,100
256,272,66854,5,4
256,272,67094,1,4
256,272,67334,1,4
256,112,67815,2,0,B|368:112,2,100,0|0|0
112,48,68776,2,0,B|16:144|112:272,1,200,0|8
224,320,69736,1,8
320,192,70217,6,0,B|432:192,3,100,8|0|8|4
64,336,86545,5,0
160,208,87024,1,8
272,320,87504,1,0
304,160,87983,2,0,B|384:96|496:160,1,200,8|0
448,320,88942,2,0,B|320:320,3,100,8|0|0|0
272,320,89901,2,0,B|144:320|112:224,1,200,8|0
256,144,90860,2,0,B|352:64|448:144,1,200,8|0
352,272,91819,5,2
352,272,92059,1,2
352,272,92299,1,2
192,160,92779,1,8
352,32,93258,1,0
432,224,93738,1,8
240,288,94217,6,0,B|128:288,4,100,0|0|8|0|0
272,128,95656,1,8
416,80,96135,1,0
448,240,96615,1,8
304,320,97094,2,0,B|192:320,2,100,2|2|2
144,336,98053,2,0,B|16:336|80:192,1,200,0|8
208,96,99013,1,2
208,96,99252,1,2
208,96,99492,1,2
368,64,99972,6,0,B|432:64|512:96|320:160|368:224|496:192|432:208,2,200,0|8|4
64,320,101890,1,4
224,96,102609,1,4
224,96,102849,1,4
480,336,103808,1,4
320,96,104527,2,0,B|192:96,1,100,4|4
448,320,105726,6,0,B|224:320,1,200,0|8
80,320,106685,2,0,B|80:112,1,200,0|8
224,64,107644,2,0,B|448:64,2,200,0|8|0
112,192,109083,1,2
112,192,109323,1,2
112,192,109562,1,2
224,304,110042,2,0,B|448:304,2,200,0|8|2
224,304,111241,5,2
224,304,111481,1,2
112,192,111960,2,0,B|224:192,5,100,8|0|0|0|8|0
256,128,113399,5,4
384,48,113878,1,4
480,176,114358,1,4
384,304,114837,2,4,B|272:304,2,100
224,304,115796,2,0,B|112:304,2,100,8|8|8
96,208,116755,5,8
192,80,117235,1,0
288,208,117715,1,8
400,96,118194,1,0
240,64,118674,2,0,B|96:64,2,100,8|0|0
336,192,119633,1,8
216,304,120112,2,0,B|88:304,3,100,0|0|8|0
104,224,121072,5,8
128,256,121551,1,0
176,216,122031,2,0,B|288:216,2,100,8|0|0
176,152,122990,2,0,B|48:152,2,100,8|0|0
296,72,123949,1,8
352,192,124429,1,0
216,200,124908,6,0,B|104:200,2,100,8|0|0
96,208,125867,2,0,B|160:288|288:256,2,200,8|0|8
208,96,127305,2,0,B|320:96,5,100
384,96,128744,5,4
464,240,129224,1,4
320,320,129703,1,4
160,320,130183,2,0,B|32:320,2,100,4|4|4
256,192,131142,2,0,B|368:192,2,100
176,48,132101,2,0,B|64:48,2,100,4|4|4
64,160,133060,6,0,B|96:304|240:240,1,200,8|0
304,96,134019,2,0,B|448:32|448:208,1,200,8|0
384,320,134978,2,0,B|272:320,5,100,8|0|0|0|8|4
64,320,151786,5,0
160,192,152267,2,0,B|400:192,1,200,8|0
464,320,153227,2,0,B|464:80,1,200,8|0
304,80,154188,2,0,B|192:80,2,100,8|8|8
176,176,155148,1,0
96,320,155629,5,8
256,272,156109,2,0,B|320:320|368:288|384:224|352:176,1,200,0|8
208,208,157070,2,0,B|181:168|197:104|245:72|309:120,1,200,0|8
176,32,158030,2,0,B|64:32,4,100,8|8|8|0|4
128,192,159471,5,0
272,272,159952,1,2
352,144,160432,1,0
208,80,160912,1,2
96,192,161392,2,0,B|80:320|208:320,1,200,0|2
368,320,162353,2,0,B|480:320|448:160,1,200,0|2
304,96,163314,5,8
304,96,163554,1,8
304,96,163794,1,8
176,192,164274,2,0,B|48:192,2,100,8|8|8
96,336,165235,1,0
256,336,165715,2,0,B|464:336,1,200,8|0
448,176,166676,2,0,B|304:176,2,100,8|0|4
464,48,182526,5,4
384,192,183006,2,0,B|304:96|208:192,1,200,4|4
96,304,183967,1,4
96,304,184207,1,4
96,304,184447,1,4
256,320,184928,2,0,B|384:320,2,100
192,176,185888,2,0,B|80:176,2,100,4|4|4
304,48,186849,2,0,B|512:48,1,200,8|0
416,176,187809,5,8
464,336,188290,1,0
320,272,188770,1,8
176,336,189250,2,0,B|48:336,3,100,8|8|8|8
76,336,190211,5,4
16,192,190691,2,0,B|112:96|208:176,1,200,4|4
352,128,191652,1,4
352,128,191892,1,4
352,128,192132,1,4
240,240,192612,1,0
240,240,192853,1,0
240,240,193093,1,0
176,96,193573,2,0,B|64:96,2,100,4|4|4
336,96,194534,5,0
336,96,194774,1,0
336,96,195014,1,0
464,176,195494,2,0,B|496:240|448:288|384:288|352:240,1,200,8|0
208,192,196455,2,0,B|183:153|119:137|71:201|103:265,1,200,8|0
102,263,197175,1,8
102,263,197416,1,8
102,263,197656,1,8
256,192,197896,12,4,201138
